osu file format v14

[General]
AudioFilename: audio.mp3
AudioLeadIn: 0
PreviewTime: 42491
Countdown: 0
SampleSet: Soft
StackLeniency: 0.9
Mode: 0
LetterboxInBreaks: 0
WidescreenStoryboard: 1

[Editor]
DistanceSpacing: 1.1
BeatDivisor: 4
GridSize: 4
TimelineZoom: 1.7

[Metadata]
Title:Darling
TitleUnicode:Darling
Artist:Kana Nishino
ArtistUnicode:西野カナ
Creator:-Sylvari
Version:Darling
Source:
Tags:short ver version cut krfawy blan_c minorsonek
BeatmapID:1562151
BeatmapSetID:739368

[Difficulty]
HPDrainRate:6.5
CircleSize:4
OverallDifficulty:8.3
ApproachRate:9
SliderMultiplier:1.9
SliderTickRate:1

[Events]
//Background and Video events
0,0,"BG.jpg",0,0
//Break Periods
//Storyboard Layer 0 (Background)
//Storyboard Layer 1 (Fail)
//Storyboard Layer 2 (Pass)
//Storyboard Layer 3 (Foreground)
//Storyboard Sound Samples

[TimingPoints]
1335,375,4,2,1,55,1,0
1335,-117.647058823529,4,2,1,55,0,0
6585,-105.263157894737,4,2,1,60,0,0
7335,-117.647058823529,4,2,1,65,0,0
18585,-105.263157894737,4,2,1,65,0,0
19335,-100,4,2,6,70,0,0
31335,-100,4,2,4,70,0,0
31897,-100,4,2,5,70,0,0
32460,-100,4,2,4,70,0,0
32835,-100,4,2,4,70,0,0
33397,-100,4,2,5,70,0,0
33960,-100,4,2,4,70,0,0
34335,-100,4,2,4,70,0,0
34897,-100,4,2,5,70,0,0
35460,-100,4,2,4,70,0,0
35835,-100,4,2,4,70,0,0
36397,-100,4,2,5,70,0,0
36960,-100,4,2,4,70,0,0
37335,-100,4,2,4,70,0,0
37897,-100,4,2,5,70,0,0
38460,-100,4,2,4,70,0,0
38835,-100,4,2,4,70,0,0
39397,-100,4,2,5,70,0,0
39960,-100,4,2,4,70,0,0
40335,-100,4,2,4,70,0,0
40897,-100,4,2,5,70,0,0
41460,-100,4,2,4,70,0,0
43335,-83.3333333333333,4,2,6,80,0,1
43428,-83.3333333333333,4,2,4,80,0,1
43897,-83.3333333333333,4,2,5,80,0,1
44460,-83.3333333333333,4,2,4,80,0,1
44835,-83.3333333333333,4,2,4,80,0,1
45397,-83.3333333333333,4,2,5,80,0,1
45960,-83.3333333333333,4,2,4,80,0,1
46335,-83.3333333333333,4,2,4,80,0,1
46897,-83.3333333333333,4,2,5,80,0,1
47460,-83.3333333333333,4,2,4,80,0,1
47835,-83.3333333333333,4,2,4,80,0,1
48397,-83.3333333333333,4,2,5,80,0,1
48960,-83.3333333333333,4,2,4,80,0,1
49335,-83.3333333333333,4,2,4,80,0,1
49897,-83.3333333333333,4,2,5,80,0,1
50460,-83.3333333333333,4,2,4,80,0,1
50835,-83.3333333333333,4,2,4,80,0,1
51397,-83.3333333333333,4,2,5,80,0,1
51960,-83.3333333333333,4,2,4,80,0,1
52335,-83.3333333333333,4,2,4,80,0,1
52897,-83.3333333333333,4,2,5,80,0,1
53460,-83.3333333333333,4,2,4,80,0,1
53835,-83.3333333333333,4,2,4,80,0,1
54397,-83.3333333333333,4,2,5,80,0,1
54960,-83.3333333333333,4,2,4,80,0,1
55335,-83.3333333333333,4,2,4,80,0,1
55897,-83.3333333333333,4,2,5,80,0,1
56460,-83.3333333333333,4,2,4,80,0,1
56835,-83.3333333333333,4,2,4,80,0,1
57397,-83.3333333333333,4,2,5,80,0,1
57960,-83.3333333333333,4,2,4,80,0,1
58335,-83.3333333333333,4,2,4,80,0,1
58897,-83.3333333333333,4,2,5,80,0,1
59460,-83.3333333333333,4,2,4,80,0,1
60210,-83.3333333333333,4,2,4,80,0,1
60772,-83.3333333333333,4,2,5,80,0,1
61335,-83.3333333333333,4,2,4,80,0,1
61897,-83.3333333333333,4,2,5,80,0,1
62460,-83.3333333333333,4,2,4,80,0,1
62835,-83.3333333333333,4,2,4,80,0,1
63397,-83.3333333333333,4,2,5,80,0,1
63960,-83.3333333333333,4,2,4,80,0,1
64335,-83.3333333333333,4,2,4,80,0,1
64897,-83.3333333333333,4,2,5,80,0,1
65460,-83.3333333333333,4,2,4,80,0,1
65835,-83.3333333333333,4,2,4,80,0,1
66210,-83.3333333333333,4,2,7,80,0,1
66397,-83.3333333333333,4,2,5,80,0,1
66960,-83.3333333333333,4,2,4,80,0,1
67335,-100,4,2,5,70,0,0
67428,-100,4,2,1,70,0,0
70335,-100,4,2,1,5,0,0

[Colours]
Combo1 : 164,107,2
Combo2 : 255,128,64
Combo3 : 103,53,3
Combo4 : 255,182,108

[HitObjects]
186,276,1335,6,0,P|128:327|48:320,1,161.500003080368,0|2,2:0|2:0,2:0:0:0:
175,185,1897,2,0,P|212:183|253:210,1,80.750001540184,0|0,2:0|2:0,2:0:0:0:
347,271,2272,1,0,2:0:0:0:
363,158,2460,1,2,2:0:0:0:
440,241,2647,6,0,P|439:319|377:368,1,161.500003080368,0|0,2:0|2:0,2:0:0:0:
169,280,3210,2,0,P|224:225|303:234,1,161.500003080368,2|0,2:0|2:0,2:0:0:0:
255,312,3772,1,0,2:0:0:0:
255,312,3960,1,2,2:0:0:0:
401,241,4147,6,0,P|366:159|294:131,1,161.500003080368,0|0,2:0|2:0,2:0:0:0:
213,212,4710,1,2,2:0:0:0:
129,122,4897,2,0,P|124:83|143:49,1,80.750001540184
274,66,5272,2,0,P|279:105|260:139,1,80.750001540184,0|2,0:0|0:0,0:0:0:0:
213,212,5647,6,0,P|282:223|343:159,1,161.500003080368,0|0,2:0|2:0,2:0:0:0:
382,92,6210,2,0,P|417:128|425:174,1,80.750001540184,2|0,2:0|2:0,2:0:0:0:
505,187,6585,6,0,P|480:222|437:242,1,90.2499975900651,0|0,2:0|2:0,2:0:0:0:
487,312,6960,2,0,P|445:329|401:322,1,90.2499975900651,2|0,2:0|2:0,2:0:0:0:
247,312,7335,2,0,P|175:279|136:207,1,161.500003080368,0|2,2:0|2:0,2:0:0:0:
263,183,7897,1,0,2:0:0:0:
184,100,8085,6,0,L|184:20,1,80.750001540184,0|0,2:0|2:0,2:0:0:0:
347,104,8460,1,2,2:0:0:0:
264,217,8647,1,0,2:0:0:0:
263,84,8835,2,0,P|315:24|394:31,1,161.500003080368,0|2,2:0|2:0,2:0:0:0:
509,103,9585,6,0,L|504:183,1,80.750001540184,0|0,2:0|2:0,2:0:0:0:
405,310,9960,2,0,L|401:229,1,80.750001540184,2|0,2:0|2:0,2:0:0:0:
372,66,10335,5,0,2:0:0:0:
279,166,10522,1,0,2:0:0:0:
214,45,10710,2,0,P|177:31|137:28,1,80.750001540184,2|0,2:0|2:0,2:0:0:0:
51,208,11085,1,0,2:0:0:0:
42,236,11272,1,0,2:0:0:0:
106,330,11460,1,2,2:0:0:0:
115,302,11647,1,0,2:0:0:0:
195,210,11835,6,0,P|274:221|314:292,1,161.500003080368,0|2,2:0|2:0,2:0:0:0:
223,297,12397,1,0,2:0:0:0:
195,210,12585,2,0,P|183:171|190:132,1,80.750001540184,0|0,2:0|2:0,2:0:0:0:
254,70,12960,2,0,P|289:51|329:51,1,80.750001540184,2|0,2:0|2:0,2:0:0:0:
410,89,13335,6,0,P|407:166|335:190,1,161.500003080368,0|2,2:0|2:0,2:0:0:0:
329,51,13897,1,0,2:0:0:0:
399,212,14085,2,0,P|361:225|317:218,1,80.750001540184,0|0,2:0|2:0,2:0:0:0:
113,150,14460,2,0,P|151:137|195:144,1,80.750001540184,2|0,2:0|2:0,2:0:0:0:
332,142,14835,6,0,P|336:181|321:218,1,80.750001540184,0|0,2:0|2:0,2:0:0:0:
256,353,15210,2,0,P|256:313|277:279,1,80.750001540184,2|0,2:0|2:0,2:0:0:0:
332,335,15585,1,0,2:0:0:0:
250,201,15772,1,0,2:0:0:0:
187,315,15960,1,2,2:0:0:0:
203,135,16147,1,0,2:0:0:0:
177,337,16335,6,0,P|141:353|101:358,1,80.750001540184,0|0,2:0|2:0,2:0:0:0:
42,266,16710,2,0,P|39:226|48:187,1,80.750001540184,2|0,2:0|2:0,2:0:0:0:
100,84,17085,1,0,2:0:0:0:
49,187,17272,1,0,2:0:0:0:
202,135,17460,2,0,P|213:96|209:56,1,80.750001540184,2|0,0:0|0:0,0:0:0:0:
152,238,17835,6,0,P|229:249|300:196,1,161.500003080368,0|2,2:0|2:0,2:0:0:0:
460,81,18585,2,0,L|443:172,1,90.2499975900651,0|0,2:0|2:0,2:0:0:0:
356,111,18960,2,0,L|339:23,1,90.2499975900651,2|0,2:0|2:0,2:0:0:0:
296,204,19335,6,0,L|317:319,1,95,2|0,2:2|2:0,2:0:0:0:
201,166,19710,1,8,2:2:0:0:
217,286,19897,1,0,2:0:0:0:
185,46,20085,2,0,L|293:78,1,95,0|2,2:0|2:2,2:0:0:0:
137,145,20460,1,8,2:2:0:0:
267,186,20647,1,0,2:0:0:0:
7,104,20835,6,0,L|15:200,1,95,2|0,2:0|2:0,2:0:0:0:
70,352,21210,2,0,P|87:307|80:256,1,95,8|0,2:2|2:0,2:0:0:0:
209,306,21585,2,0,P|250:328|300:321,1,95,0|2,2:0|2:2,2:0:0:0:
346,127,21960,2,0,P|304:104|257:106,1,95,8|0,2:2|2:0,2:0:0:0:
264,249,22335,5,2,2:2:0:0:
393,190,22522,1,0,2:0:0:0:
201,166,22710,2,0,P|177:125|182:76,1,95,8|0,2:2|2:0,2:0:0:0:
318,39,23085,1,0,2:0:0:0:
287,178,23272,1,2,2:2:0:0:
401,108,23460,2,0,P|445:127|472:165,1,95,8|0,2:2|2:0,2:0:0:0:
380,279,23835,6,0,P|374:232|393:189,1,95,2|0,2:2|2:0,2:0:0:0:
447,328,24210,2,0,P|409:356|362:361,1,95,8|0,2:2|2:0,2:0:0:0:
307,190,24585,1,0,2:0:0:0:
286,303,24772,1,2,2:2:0:0:
210,236,24960,6,0,P|164:248|117:243,1,95,8|0,2:2|2:0,2:0:0:0:
110,70,25335,2,0,P|143:103|162:147,2,95,2|0|8,2:2|2:0|2:2,2:0:0:0:
13,36,25897,1,0,2:0:0:0:
47,166,26085,2,0,L|17:270,2,95,0|2|8,2:0|2:0|2:0,2:0:0:0:
146,244,26647,1,0,2:0:0:0:
99,348,26835,6,0,P|141:358|211:337,1,95,2|0,2:2|2:0,2:0:0:0:
301,202,27210,2,0,P|255:190|209:200,1,95,8|0,2:2|2:0,2:0:0:0:
320,348,27585,2,0,P|366:358|413:348,1,95,0|2,2:0|2:2,2:0:0:0:
427,228,27960,1,8,2:2:0:0:
492,305,28147,1,0,2:0:0:0:
498,159,28335,6,0,P|455:132|396:134,1,95,2|0,2:2|2:0,2:0:0:0:
403,328,28710,2,0,P|450:327|492:305,1,95,8|0,2:2|2:0,2:0:0:0:
308,279,29085,1,0,2:0:0:0:
235,135,29272,1,2,2:0:0:0:
155,297,29460,1,8,2:2:0:0:
250,104,29647,1,0,2:0:0:0:
138,328,29835,5,2,2:2:0:0:
121,359,30210,1,10,2:2:0:0:
96,331,30585,5,0,2:0:0:0:
51,269,30772,1,2,2:2:0:0:
60,193,30960,1,8,2:2:0:0:
125,155,31147,1,0,2:0:0:0:
209,144,31335,6,0,P|189:101|145:73,1,95,2|0,2:0|2:0,2:0:0:0:
186,235,31710,2,0,P|233:234|281:204,1,95,8|8,2:0|2:0,2:0:0:0:
233,56,32085,2,0,P|209:97|211:154,1,95,0|2,2:0|2:2,2:0:0:0:
260,258,32460,1,8,2:2:0:0:
290,120,32647,1,0,2:0:0:0:
321,317,32835,6,0,P|273:343|206:326,1,95,2|0,2:0|2:0,2:0:0:0:
404,227,33210,1,8,2:2:0:0:
356,84,33397,2,0,P|401:95|443:123,1,95,8|0,2:0|2:0,2:0:0:0:
258,221,33772,2,0,P|210:218|167:199,1,95,2|8,2:0|2:2,2:0:0:0:
240,51,34147,5,0,2:0:0:0:
363,180,34335,2,0,P|371:230|358:274,2,95,2|0|8,2:2|2:0|2:0,2:0:0:0:
240,51,34897,1,8,2:0:0:0:
68,154,35085,2,0,P|97:195|138:216,1,95,0|2,2:0|2:0,2:0:0:0:
272,178,35460,1,8,0:0:0:0:
240,51,35647,1,0,2:0:0:0:
347,242,35835,6,0,P|296:272|249:272,1,95,2|0,2:0|2:0,2:0:0:0:
371,139,36210,2,0,P|422:168|445:208,1,95,8|8,2:0|2:0,2:0:0:0:
417,291,36585,1,0,2:0:0:0:
258,134,36772,1,2,2:2:0:0:
327,327,36960,1,8,2:0:0:0:
269,157,37147,1,0,2:0:0:0:
212,277,37335,6,0,P|168:294|121:287,1,95,2|0,2:2|2:0,2:0:0:0:
49,71,37710,2,0,P|95:60|137:79,1,95,8|8,2:0|2:0,2:0:0:0:
28,342,38085,1,0,2:2:0:0:
87,143,38272,1,0,2:0:0:0:
147,384,38460,5,8,2:0:0:0:
154,198,38647,1,0,2:2:0:0:
294,320,38835,6,0,P|352:319|391:300,1,95,2|0,0:0|0:0,0:0:0:0:
301,115,39210,1,8,2:2:0:0:
177,301,39397,1,8,2:0:0:0:
143,56,39585,5,0,2:0:0:0:
285,279,39772,1,2,2:0:0:0:
256,0,39960,2,0,L|365:0,1,95,8|0,2:2|2:0,2:0:0:0:
328,200,40335,6,0,P|300:153|302:109,1,95,2|0,2:0|2:0,2:0:0:0:
393,133,40710,1,8,2:0:0:0:
398,275,40897,2,0,P|356:297|309:300,1,95,8|0,2:0|2:0,2:0:0:0:
119,133,41272,1,2,2:0:0:0:
113,275,41460,2,0,P|155:297|202:300,1,95,8|0,2:0|2:0,2:0:0:0:
256,192,41835,5,2,2:2:0:0:
256,192,42210,1,2,2:2:0:0:
256,192,42585,6,0,P|301:180|353:201,1,95,0|0,0:0|0:0,0:0:0:0:
211,266,42960,2,0,P|178:232|171:177,1,95,0|0,0:0|0:0,0:0:0:0:
298,268,43335,6,0,P|285:313|230:350,1,113.999996520996,6|0,2:2|2:0,2:0:0:0:
102,254,43710,1,8,2:2:0:0:
188,109,43897,2,0,P|235:139|255:191,1,113.999996520996,8|0,2:0|2:0,2:0:0:0:
54,133,44272,1,2,2:0:0:0:
152,32,44460,2,0,P|208:34|259:58,1,113.999996520996,8|0,2:2|2:0,2:0:0:0:
444,256,44835,6,0,P|468:204|470:148,1,113.999996520996,2|0,2:2|2:0,2:0:0:0:
339,126,45210,1,8,2:2:0:0:
221,177,45397,2,0,P|220:233|258:274,1,113.999996520996,8|4,2:0|2:0,2:0:0:0:
367,277,45772,1,2,2:2:0:0:
127,258,45960,1,8,2:2:0:0:
304,200,46147,1,0,2:0:0:0:
67,180,46335,6,0,P|16:205|-4:256,1,113.999996520996,2|0,2:2|2:0,2:0:0:0:
162,146,46710,2,0,P|137:95|86:74,1,113.999996520996,8|8,2:2|2:0,2:0:0:0:
196,241,47085,2,0,P|247:216|268:165,1,113.999996520996,0|2,2:2|2:0,2:0:0:0:
158,26,47460,1,8,2:2:0:0:
158,26,47647,1,0,2:0:0:0:
273,232,47835,6,0,L|355:357,1,113.999996520996,2|0,2:2|2:0,2:0:0:0:
455,179,48210,2,0,L|378:61,1,113.999996520996,8|8,2:2|2:0,2:0:0:0:
245,23,48585,2,0,L|321:141,1,113.999996520996,4|2,2:0|2:2,2:0:0:0:
403,260,48960,5,8,2:0:0:0:
193,222,49147,1,0,2:0:0:0:
403,260,49335,2,0,P|376:309|330:341,1,113.999996520996,2|0,2:2|2:0,2:0:0:0:
274,108,49710,1,8,2:2:0:0:
131,303,49897,1,8,2:0:0:0:
274,108,50085,2,0,P|228:75|174:60,1,113.999996520996,0|2,2:0|2:0,2:0:0:0:
173,243,50460,1,8,2:0:0:0:
326,47,50647,1,0,2:0:0:0:
312,276,50835,5,2,2:2:0:0:
162,108,51022,1,0,2:0:0:0:
409,183,51210,1,8,2:2:0:0:
139,261,51397,1,8,2:0:0:0:
382,113,51585,2,0,P|411:64|404:9,1,113.999996520996,4|2,2:0|2:2,2:0:0:0:
111,48,51960,2,0,P|81:96|88:151,1,113.999996520996,8|0,2:0|2:2,2:0:0:0:
219,288,52335,6,0,P|220:231|187:187,1,113.999996520996,2|0,2:0|2:2,2:0:0:0:
133,354,52710,1,8,2:2:0:0:
249,219,52897,2,0,P|302:202|354:223,1,113.999996520996,8|0,2:0|2:2,2:0:0:0:
323,351,53272,1,2,2:2:0:0:
177,263,53460,2,0,P|160:210|181:158,1,113.999996520996,8|0,2:0|2:2,2:0:0:0:
420,169,53835,6,0,P|441:221|425:275,2,113.999996520996,2|0|8,2:0|2:2|2:0,2:0:0:0:
314,315,54397,2,0,P|264:340|208:338,1,113.999996520996,8|4,2:0|2:0,2:0:0:0:
177,91,54772,2,0,P|227:66|283:68,1,113.999996520996,2|8,2:2|2:2,2:0:0:0:
354,223,55147,1,0,2:0:0:0:
208,338,55335,6,0,L|122:256,1,113.999996520996,2|0,2:2|2:0,2:0:0:0:
26,168,55710,1,8,2:2:0:0:
254,192,55897,1,8,2:0:0:0:
158,15,56085,2,0,P|111:47|89:99,1,113.999996520996,0|2,2:0|2:2,2:0:0:0:
298,298,56460,2,0,P|343:265|364:213,1,113.999996520996,8|0,2:2|2:0,2:0:0:0:
212,92,56835,6,0,P|167:125|146:177,1,113.999996520996,2|0,2:2|2:0,2:0:0:0:
422,265,57210,1,8,2:2:0:0:
323,115,57397,2,0,L|211:91,1,113.999996520996,8|4,2:0|2:0,2:0:0:0:
106,178,57772,1,2,2:0:0:0:
234,74,57960,1,8,2:2:0:0:
84,196,58147,1,0,2:0:0:0:
256,56,58335,6,0,L|144:32,1,113.999996520996,2|0,2:2|2:0,2:0:0:0:
55,221,58710,2,0,P|101:251|157:249,1,113.999996520996,8|8,2:0|2:0,2:0:0:0:
274,188,59085,2,0,P|325:166|379:181,1,113.999996520996,0|2,2:2|2:0,2:0:0:0:
341,294,59460,2,0,P|289:318|235:305,1,113.999996520996,8|0,2:0|2:2,2:0:0:0:
312,82,59835,6,0,L|423:112,1,113.999996520996,10|0,2:2|2:0,2:0:0:0:
236,306,60210,2,0,L|126:277,1,113.999996520996,8|0,2:2|2:0,2:0:0:0:
77,110,60585,2,0,L|187:141,1,113.999996520996,12|10,2:0|2:2,2:0:0:0:
290,61,60960,5,8,2:0:0:0:
111,223,61147,1,0,2:0:0:0:
290,61,61335,2,0,L|333:166,1,113.999996520996,2|0,2:2|2:0,2:0:0:0:
471,289,61710,5,8,2:2:0:0:
227,211,61897,1,8,2:0:0:0:
471,289,62085,2,0,L|427:183,1,113.999996520996,0|2,2:0|2:0,2:0:0:0:
277,20,62460,1,8,2:2:0:0:
227,211,62647,1,0,2:0:0:0:
51,55,62835,5,2,2:2:0:0:
260,140,63022,1,0,2:0:0:0:
41,194,63210,1,8,2:2:0:0:
185,21,63397,1,8,2:0:0:0:
167,263,63585,2,0,P|213:296|269:306,1,113.999996520996,4|2,2:2|2:0,2:0:0:0:
286,64,63960,6,0,P|240:31|184:21,1,113.999996520996,8|0,2:2|2:0,2:0:0:0:
388,209,64335,2,0,P|434:241|493:248,1,113.999996520996,2|0,2:2|2:0,2:0:0:0:
473,111,64710,1,8,2:2:0:0:
332,140,64897,2,0,P|278:152|227:130,1,113.999996520996,8|0,2:0|2:0,2:0:0:0:
123,4,65272,1,2,2:2:0:0:
111,225,65460,1,8,2:2:0:0:
33,105,65647,1,0,2:0:0:0:
225,230,65835,5,10,2:2:0:0:
349,38,66022,1,0,2:0:0:0:
157,127,66210,5,12,2:2:0:0:
431,141,66397,1,0,2:0:0:0:
235,32,66585,5,0,2:0:0:0:
339,236,66772,1,2,2:2:0:0:
111,225,66960,1,8,2:2:0:0:
109,225,67335,5,2,2:2:0:0:
256,192,67428,12,0,70335,3:2:0:0:
