osu file format v14

[General]
AudioFilename: christmas love - kana nishino.mp3
AudioLeadIn: 0
PreviewTime: 89451
Countdown: 0
SampleSet: Soft
StackLeniency: 0.6
Mode: 0
LetterboxInBreaks: 0
WidescreenStoryboard: 1

[Editor]
DistanceSpacing: 1.3
BeatDivisor: 4
GridSize: 8
TimelineZoom: 1

[Metadata]
Title:Christmas Love
TitleUnicode:Christmas Love
Artist:Kana Nishino
ArtistUnicode:Kana Nishino
Creator:_DT3
Version:Hard
Source:
Tags:
BeatmapID:1151619
BeatmapSetID:543288

[Difficulty]
HPDrainRate:5
CircleSize:3.8
OverallDifficulty:5
ApproachRate:6.7
SliderMultiplier:1.5
SliderTickRate:1

[Events]
//Background and Video events
0,0,"52b118b3d2458[1].jpg",0,0
//Break Periods
//Storyboard Layer 0 (Background)
//Storyboard Layer 1 (Fail)
//Storyboard Layer 2 (Pass)
//Storyboard Layer 3 (Foreground)
//Storyboard Sound Samples

[TimingPoints]
1072,491.803278688525,4,2,0,50,1,0
1072,-125,4,2,0,50,0,0
1564,491.803278688525,4,2,0,50,1,0
1564,-125,4,2,0,50,0,0
16318,-100,4,2,0,50,0,0
17301,-100,4,2,0,50,0,1
25155,491.803278688525,4,2,0,50,1,1
33023,-100,4,2,0,50,0,0
90073,-100,4,2,0,50,0,1
105564,-100,4,2,0,50,0,0
105810,-100,4,2,0,50,0,1
117598,491.803278688525,4,2,0,50,1,1
121532,-100,4,2,0,50,0,0

[Colours]
Combo1 : 90,90,125
Combo2 : 255,125,125
Combo3 : 0,125,5
Combo4 : 255,75,75
Combo5 : 50,75,175
Combo6 : 255,25,25

[HitObjects]
97,122,1072,6,0,L|92:185,1,60
82,277,1563,6,0,P|131:246|189:259,1,120
237,321,2301,1,0,0:0:0:0:
237,321,2547,2,0,L|356:330,1,120
384,257,3285,1,0,0:0:0:0:
384,257,3531,2,0,L|264:247,2,120
463,122,5006,2,0,L|400:127,1,60
320,175,5498,6,0,L|200:165,1,120
122,165,6236,1,0,0:0:0:0:
122,165,6482,2,0,P|135:221|100:275,1,120
40,316,7219,1,0,0:0:0:0:
40,316,7465,2,0,P|96:303|150:338,2,120
84,380,8695,1,0,0:0:0:0:
157,353,8941,2,0,L|220:358,1,60
312,368,9432,6,0,P|281:318|294:260,1,120
360,309,10170,1,0,0:0:0:0:
360,309,10416,2,0,L|479:299,1,120
483,221,11153,1,0,0:0:0:0:
483,221,11400,2,0,L|364:231,2,120
341,156,12875,2,0,L|281:151,1,60
208,214,13367,6,0,P|152:227|98:192,1,120
21,330,14350,2,0,P|70:299|128:312,1,120
185,365,15088,1,0,0:0:0:0:
247,318,15334,2,0,L|251:258,1,60
182,221,15826,2,0,L|177:161,1,60
211,69,16318,2,0,B|243:77|259:101|259:101|288:89|319:101,1,112.5
352,124,16809,2,0,L|359:199,1,75
370,341,17301,6,0,P|339:320|302:313,1,75
212,351,17793,2,0,P|181:371|144:378,1,75
66,319,18285,2,0,L|73:244,1,75
170,231,18777,2,0,L|163:156,1,75
60,110,19268,2,0,P|133:122|194:77,1,150
110,25,20006,1,0,0:0:0:0:
202,56,20252,2,0,L|277:49,1,75
361,98,20744,2,0,L|368:23,1,75
266,138,21236,6,0,P|206:96|133:108,1,150
71,182,21973,1,0,0:0:0:0:
71,182,22219,2,0,P|70:220|78:257,1,75
125,341,22711,2,0,L|200:334,1,75
302,381,23203,2,0,P|290:308|332:248,1,150
425,219,23940,1,0,0:0:0:0:
425,219,24186,2,0,P|425:180|418:144,1,75
362,64,24678,1,0,0:0:0:0:
281,181,24924,1,0,0:0:0:0:
281,181,25155,6,0,P|250:202|213:209,1,75
156,129,25647,2,0,P|125:109|88:102,1,75
22,175,26139,2,0,L|29:250,1,75
119,286,26631,2,0,L|112:361,1,75
209,249,27122,6,0,L|202:174,1,75
112,138,27614,2,0,L|119:63,1,75
213,86,28105,2,0,P|286:98|347:53,1,150
263,4,28843,1,0,0:0:0:0:
418,6,29089,6,0,B|426:70|426:70|418:86|418:86|410:102|410:102|418:158,1,150
494,211,29827,1,0,0:0:0:0:
494,211,30073,2,0,L|487:286,1,75
396,248,30565,2,0,L|321:255,1,75
274,357,31056,2,0,L|124:343,1,150
59,269,31794,1,0,0:0:0:0:
152,240,32040,2,0,B|144:208|120:192|120:192|132:163|120:132,1,112.5
97,99,32531,2,0,L|22:92,1,75
72,7,33023,5,0,0:0:0:0:
