osu file format v14

[General]
AudioFilename: audio.mp3
AudioLeadIn: 0
PreviewTime: -1
Countdown: 1
SampleSet: Normal
StackLeniency: 0.7
Mode: 0
LetterboxInBreaks: 0
WidescreenStoryboard: 0

[Editor]
DistanceSpacing: 0.6
BeatDivisor: 4
GridSize: 32
TimelineZoom: 1

[Metadata]
Title:Mission! Ken-Kou-Dai-Ichi
TitleUnicode:Mission! Ken-Kou-Dai-Ichi
Artist:Kana Hanazawa,Tomoaki Maeno, Daisuke Ono, Kikuko Inoue
ArtistUnicode:Kana Hanazawa,Tomoaki Maeno, Daisuke Ono, Kikuko Inoue
Creator:TuTuRoXx
Version:Insane
Source:
Tags:
BeatmapID:1764008
BeatmapSetID:843056

[Difficulty]
HPDrainRate:5
CircleSize:4
OverallDifficulty:7
ApproachRate:8
SliderMultiplier:1.4
SliderTickRate:1

[Events]
//Background and Video events
//Break Periods
//Storyboard Layer 0 (Background)
//Storyboard Layer 1 (Fail)
//Storyboard Layer 2 (Pass)
//Storyboard Layer 3 (Foreground)
//Storyboard Sound Samples

[TimingPoints]
800,322.58064516129,4,1,0,100,1,0
800,-100,4,1,0,100,0,0
52412,-133.333333333333,4,1,0,100,0,0
57251,-100,4,1,0,100,0,0
57574,-100,4,1,0,20,0,0
58541,-100,4,1,0,35,0,0
59187,-100,4,1,0,60,0,0
60154,-100,4,1,0,80,0,0
61606,-100,4,1,0,100,0,0
62735,-100,4,1,0,100,0,1
85799,-100,4,1,0,100,0,0

[HitObjects]
45,24,172,6,0,P|110:68|114:131,1,140
84,216,655,1,0,0:0:0:0:
84,216,719,1,0,0:0:0:0:
84,216,800,1,0,0:0:0:0:
147,325,1122,6,0,P|201:288|274:304,1,140
350,125,1768,2,0,P|409:157|432:238,1,140
404,313,2413,1,0,0:0:0:0:
250,186,2735,1,0,0:0:0:0:
287,53,3058,5,0,0:0:0:0:
440,153,3381,1,0,0:0:0:0:
279,164,3703,2,0,P|234:201|260:289,1,140
379,241,4348,1,0,0:0:0:0:
440,126,4671,2,0,P|411:74|392:63,1,70
348,35,4993,2,0,P|305:50|295:85,1,70
256,122,5316,2,0,P|263:177|290:195,1,70
240,286,5639,6,0,P|218:338|133:334,1,140
94,273,6284,5,0,0:0:0:0:
415,52,6929,1,0,0:0:0:0:
385,245,7574,1,0,0:0:0:0:
274,310,7897,1,0,0:0:0:0:
134,264,8219,5,0,0:0:0:0:
102,126,8542,2,0,P|124:63|196:69,1,140
211,171,9187,2,0,P|228:224|253:235,1,70
321,237,9510,2,0,P|364:227|386:194,1,70
444,71,10155,2,0,B|446:162|447:189|447:202|442:217|404:221|345:206|329:205|316:180|315:147|317:137,1,280
120,88,11123,6,0,P|191:74|195:81,1,70
239,107,11445,2,0,P|262:146|227:183,1,70
185,196,11768,1,0,0:0:0:0:
112,255,11929,1,0,0:0:0:0:
196,319,12090,2,0,L|265:257,1,70
302,211,12413,1,0,0:0:0:0:
351,50,12735,1,0,0:0:0:0:
351,50,12897,5,0,0:0:0:0:
214,54,13219,1,0,0:0:0:0:
156,58,13381,2,0,P|90:75|91:90,1,70
94,140,13703,1,0,0:0:0:0:
154,205,13864,1,0,0:0:0:0:
233,219,14026,1,0,0:0:0:0:
154,205,14187,5,0,0:0:0:0:
88,257,14348,1,0,0:0:0:0:
27,302,14510,2,0,P|63:344|96:341,1,70
162,343,14832,1,0,0:0:0:0:
251,323,14993,2,0,P|272:283|263:251,1,70
183,260,15316,2,0,P|185:203|211:189,1,70
264,220,15639,2,0,P|270:141|213:105,1,140
132,44,16123,1,0,0:0:0:0:
313,64,16445,6,0,P|361:88|374:120,1,70
370,194,16768,1,0,0:0:0:0:
298,259,16929,1,0,0:0:0:0:
370,194,17090,1,0,0:0:0:0:
363,100,17252,2,0,P|341:59|310:38,1,70
240,47,17574,5,0,0:0:0:0:
94,238,17897,1,0,0:0:0:0:
94,238,18058,5,0,0:0:0:0:
385,342,18381,1,0,0:0:0:0:
406,194,18703,6,0,P|428:149|406:109,1,70
366,71,19026,2,0,P|319:78|320:97,1,70
347,175,19348,1,0,0:0:0:0:
253,192,19510,1,0,0:0:0:0:
206,113,19671,1,0,0:0:0:0:
126,152,19832,2,0,P|118:210|143:236,1,70
194,263,20155,1,0,0:0:0:0:
254,203,20316,1,0,0:0:0:0:
316,142,20477,1,0,0:0:0:0:
373,75,20639,2,0,P|420:82|419:101,1,70
414,179,20961,1,0,0:0:0:0:
301,326,21284,6,0,P|187:327|156:306,1,140
120,222,21768,1,0,0:0:0:0:
184,171,21929,1,0,0:0:0:0:
238,119,22090,1,0,0:0:0:0:
416,287,22413,1,0,0:0:0:0:
416,287,22735,5,0,0:0:0:0:
238,119,23058,1,0,0:0:0:0:
381,42,23381,6,0,P|448:73|449:78,1,70
445,142,23703,1,0,0:0:0:0:
446,218,23864,2,0,P|442:283|362:308,1,140
292,288,24348,1,0,0:0:0:0:
239,235,24510,1,0,0:0:0:0:
193,179,24671,1,0,0:0:0:0:
446,218,24993,1,0,0:0:0:0:
193,179,25316,5,0,0:0:0:0:
446,218,25639,1,0,0:0:0:0:
339,342,25961,1,0,0:0:0:0:
257,336,26123,1,0,0:0:0:0:
175,328,26284,1,0,0:0:0:0:
105,255,26445,5,0,0:0:0:0:
400,166,26768,1,0,0:0:0:0:
253,61,26929,1,0,0:0:0:0:
213,258,27090,1,0,0:0:0:0:
400,166,27252,1,0,0:0:0:0:
137,41,27735,5,0,0:0:0:0:
343,244,28058,1,0,0:0:0:0:
303,92,28220,1,0,0:0:0:0:
173,175,28380,1,0,0:0:0:0:
175,328,28541,1,0,0:0:0:0:
188,87,29025,5,0,0:0:0:0:
305,298,29348,1,0,0:0:0:0:
324,183,29509,1,0,0:0:0:0:
232,220,29670,1,0,0:0:0:0:
203,313,29832,1,0,0:0:0:0:
188,87,30154,1,0,0:0:0:0:
280,300,30477,6,0,P|339:253|341:246,1,70
351,151,30800,1,0,0:0:0:0:
373,54,30961,1,0,0:0:0:0:
417,213,31283,5,0,0:0:0:0:
417,213,31364,1,0,0:0:0:0:
417,213,31445,2,0,P|427:258|412:293,1,70
279,328,31767,6,0,P|194:322|154:266,1,140
239,253,32251,2,0,P|223:195|210:183,1,70
151,238,32574,2,0,P|128:179|143:154,1,70
214,186,32896,2,0,P|214:136|201:103,1,70
403,83,33380,1,0,0:0:0:0:
403,83,33541,5,0,0:0:0:0:
209,115,33864,1,0,0:0:0:0:
388,183,34187,6,0,P|397:232|393:265,1,70
304,254,34509,1,0,0:0:0:0:
253,182,34670,1,0,0:0:0:0:
209,115,34832,1,0,0:0:0:0:
178,223,34993,1,0,0:0:0:0:
130,154,35154,1,0,0:0:0:0:
86,86,35316,1,0,0:0:0:0:
275,96,35638,6,0,L|295:181,1,70
344,52,35961,1,0,0:0:0:0:
364,144,36122,2,0,L|328:212,1,70
246,183,36445,2,0,P|234:244|257:274,1,70
310,299,36767,2,0,P|373:303|393:277,1,70
396,226,37090,5,0,0:0:0:0:
339,145,37251,1,0,0:0:0:0:
305,226,37412,1,0,0:0:0:0:
248,145,37573,1,0,0:0:0:0:
213,232,37735,5,0,0:0:0:0:
156,151,37896,1,0,0:0:0:0:
122,232,38057,1,0,0:0:0:0:
71,61,38218,1,0,0:0:0:0:
267,64,38541,1,0,0:0:0:0:
267,64,38703,5,0,0:0:0:0:
72,146,39025,1,0,0:0:0:0:
116,226,39187,5,0,0:0:0:0:
173,145,39348,1,0,0:0:0:0:
207,226,39509,1,0,0:0:0:0:
264,145,39670,1,0,0:0:0:0:
299,232,39832,5,0,0:0:0:0:
356,151,39993,1,0,0:0:0:0:
390,232,40154,1,0,0:0:0:0:
447,150,40316,2,0,P|468:195|475:240,1,70
464,290,40638,2,0,P|429:317|388:317,1,70
320,316,40961,1,0,0:0:0:0:
262,296,41122,1,0,0:0:0:0:
232,281,41283,1,0,0:0:0:0:
200,264,41445,1,0,0:0:0:0:
174,120,41606,1,0,0:0:0:0:
356,54,41929,6,0,P|417:67|454:140,1,140
455,192,42412,2,0,P|455:247|441:257,1,70
257,309,42735,1,0,0:0:0:0:
257,309,43058,1,0,0:0:0:0:
156,54,43380,6,0,P|95:67|58:140,1,140
55,198,43863,2,0,P|55:253|69:263,1,70
146,241,44187,1,0,0:0:0:0:
197,321,44348,1,0,0:0:0:0:
307,254,44509,6,0,P|246:241|209:168,1,140
211,103,44992,2,0,P|252:90|280:110,1,70
436,238,45315,1,0,0:0:0:0:
436,238,45638,1,0,0:0:0:0:
356,54,45961,6,0,P|417:67|454:140,1,140
453,219,46444,2,0,P|453:274|439:284,1,70
360,297,46768,1,0,0:0:0:0:
282,310,46929,1,0,0:0:0:0:
194,325,47090,5,0,0:0:0:0:
215,62,47412,1,0,0:0:0:0:
426,227,47574,1,0,0:0:0:0:
194,325,47735,1,0,0:0:0:0:
215,62,47896,1,0,0:0:0:0:
451,36,48380,5,0,0:0:0:0:
222,118,48703,1,0,0:0:0:0:
304,308,48864,1,0,0:0:0:0:
56,266,49025,1,0,0:0:0:0:
222,118,49187,1,0,0:0:0:0:
461,344,49670,5,0,0:0:0:0:
241,95,49993,1,0,0:0:0:0:
283,304,50154,1,0,0:0:0:0:
101,194,50316,1,0,0:0:0:0:
362,202,50477,1,0,0:0:0:0:
362,202,50799,5,0,0:0:0:0:
283,304,51122,1,0,0:0:0:0:
228,254,51283,1,0,0:0:0:0:
175,200,51445,1,0,0:0:0:0:
304,57,51606,1,0,0:0:0:0:
79,37,51929,5,0,0:0:0:0:
79,37,52010,1,0,0:0:0:0:
79,37,52091,2,0,P|69:82|84:117,1,70
104,255,52412,6,0,P|144:326|176:331,1,105.000004005432
246,328,52896,2,0,P|289:307|295:289,1,52.5000020027161
361,167,53380,2,0,P|346:107|293:90,1,105.000004005432
228,77,53864,2,0,L|177:106,1,52.5000020027161
71,108,54348,5,0,0:0:0:0:
102,214,54670,1,0,0:0:0:0:
137,333,54993,2,0,P|199:330|249:308,1,105.000004005432
306,283,55477,2,0,P|338:255|336:227,1,52.5000020027161
361,126,55961,6,0,P|308:91|266:95,1,105.000004005432
193,140,56445,2,0,P|173:187|181:202,1,52.5000020027161
211,323,56929,1,0,0:0:0:0:
349,99,57251,5,0,0:0:0:0:
306,150,57412,1,0,0:0:0:0:
256,193,57574,2,0,L|220:168,4,35
286,214,57977,1,0,0:0:0:0:
315,234,58058,1,0,0:0:0:0:
346,256,58138,1,0,0:0:0:0:
379,278,58219,6,0,L|407:297,4,35
346,256,58623,1,0,0:0:0:0:
315,234,58703,1,0,0:0:0:0:
286,214,58784,1,0,0:0:0:0:
256,193,58864,6,0,L|227:173,4,35
234,225,59267,1,0,0:0:0:0:
210,255,59348,1,0,0:0:0:0:
185,283,59429,1,0,0:0:0:0:
150,312,59509,6,0,L|121:292,4,35
185,283,59912,1,0,0:0:0:0:
210,255,59993,1,0,0:0:0:0:
234,225,60074,1,0,0:0:0:0:
261,194,60154,1,0,0:0:0:0:
282,161,60235,1,0,0:0:0:0:
312,128,60316,1,0,0:0:0:0:
342,87,60396,6,0,L|313:67,4,35
371,111,60799,1,0,0:0:0:0:
404,136,60880,1,0,0:0:0:0:
433,159,60961,1,0,0:0:0:0:
473,185,61041,6,0,L|501:204,4,35
256,325,61606,5,0,0:0:0:0:
175,101,61767,1,0,0:0:0:0:
389,213,61929,1,0,0:0:0:0:
140,239,62090,1,0,0:0:0:0:
436,40,62412,5,0,0:0:0:0:
114,86,62735,5,0,0:0:0:0:
190,84,62896,1,0,0:0:0:0:
202,163,63058,1,0,0:0:0:0:
212,245,63219,1,0,0:0:0:0:
280,202,63380,1,0,0:0:0:0:
262,118,63541,1,0,0:0:0:0:
334,80,63703,1,0,0:0:0:0:
400,127,63864,2,0,P|418:172|416:205,1,70
401,280,64187,5,0,0:0:0:0:
330,316,64348,1,0,0:0:0:0:
327,233,64510,1,0,0:0:0:0:
303,150,64671,1,0,0:0:0:0:
247,211,64832,1,0,0:0:0:0:
264,287,64993,1,0,0:0:0:0:
189,325,65155,1,0,0:0:0:0:
122,273,65316,2,0,P|104:228|106:195,1,70
121,123,65638,6,0,P|168:101|189:107,1,70
187,184,65961,2,0,P|251:200|271:184,1,70
240,122,66283,2,0,P|287:113|337:126,1,70
391,123,66606,6,0,P|344:101|323:107,1,70
325,184,66929,2,0,P|261:200|241:184,1,70
272,122,67251,2,0,P|225:113|175:126,1,70
196,212,67574,2,0,P|123:202|117:186,1,70
96,129,67896,5,0,0:0:0:0:
110,223,68058,2,0,P|126:273|145:286,1,70
230,283,68380,1,0,0:0:0:0:
318,260,68541,2,0,P|351:215|350:173,1,70
353,202,68864,5,0,0:0:0:0:
316,259,69025,2,0,P|283:288|240:286,1,70
170,268,69348,1,0,0:0:0:0:
110,201,69509,2,0,P|133:149|151:150,1,70
228,144,69832,1,0,0:0:0:0:
322,159,69993,2,0,P|357:206|361:227,1,70
344,321,70316,1,0,0:0:0:0:
344,321,70397,1,0,0:0:0:0:
344,321,70477,5,0,0:0:0:0:
209,162,70638,1,0,0:0:0:0:
296,142,70799,5,0,0:0:0:0:
107,338,70961,1,0,0:0:0:0:
220,341,71122,5,0,0:0:0:0:
167,71,71283,1,0,0:0:0:0:
203,180,71445,5,0,0:0:0:0:
378,93,71606,1,0,0:0:0:0:
291,134,71767,5,0,0:0:0:0:
344,210,71929,1,0,0:0:0:0:
393,286,72090,1,0,0:0:0:0:
314,323,72251,2,0,P|217:324|201:291,1,140
146,122,72735,1,0,0:0:0:0:
334,63,73058,5,0,0:0:0:0:
407,249,73219,1,0,0:0:0:0:
290,124,73380,5,0,0:0:0:0:
335,255,73541,1,0,0:0:0:0:
249,168,73703,5,0,0:0:0:0:
270,271,73864,1,0,0:0:0:0:
187,201,74025,5,0,0:0:0:0:
196,268,74187,1,0,0:0:0:0:
195,125,74348,5,0,0:0:0:0:
90,286,74509,1,0,0:0:0:0:
258,154,74670,5,0,0:0:0:0:
167,303,74831,1,0,0:0:0:0:
310,200,74993,5,0,0:0:0:0:
244,313,75154,1,0,0:0:0:0:
390,218,75315,5,0,0:0:0:0:
316,322,75477,1,0,0:0:0:0:
269,319,75638,5,0,0:0:0:0:
348,205,75799,1,0,0:0:0:0:
219,321,75961,5,0,0:0:0:0:
311,157,76122,1,0,0:0:0:0:
165,307,76284,5,0,0:0:0:0:
288,105,76445,1,0,0:0:0:0:
114,285,76606,5,0,0:0:0:0:
247,78,76767,1,0,0:0:0:0:
67,241,76928,5,0,0:0:0:0:
299,269,77090,1,0,0:0:0:0:
86,181,77251,5,0,0:0:0:0:
268,317,77412,1,0,0:0:0:0:
129,152,77574,5,0,0:0:0:0:
203,325,77735,1,0,0:0:0:0:
175,134,77896,5,0,0:0:0:0:
154,330,78057,1,0,0:0:0:0:
134,137,78219,6,0,P|171:183|238:256,1,140
307,302,78703,1,0,0:0:0:0:
307,302,78783,1,0,0:0:0:0:
307,302,78864,1,0,0:0:0:0:
124,156,79187,5,0,0:0:0:0:
227,38,79509,2,0,P|268:52|281:78,1,70
319,130,79832,1,0,0:0:0:0:
434,329,80154,1,0,0:0:0:0:
191,327,80477,5,0,0:0:0:0:
227,262,80638,1,0,0:0:0:0:
324,74,80799,1,0,0:0:0:0:
424,284,81122,1,0,0:0:0:0:
324,74,81445,5,0,0:0:0:0:
237,255,81767,1,0,0:0:0:0:
324,74,82090,5,0,0:0:0:0:
166,157,82412,1,0,0:0:0:0:
324,74,82735,1,0,0:0:0:0:
324,74,82816,1,0,0:0:0:0:
324,74,82896,1,0,0:0:0:0:
220,75,83058,1,0,0:0:0:0:
166,157,83219,1,0,0:0:0:0:
381,327,83703,5,0,0:0:0:0:
386,234,83864,1,0,0:0:0:0:
298,322,84025,5,0,0:0:0:0:
299,229,84187,1,0,0:0:0:0:
210,224,84348,1,0,0:0:0:0:
125,221,84509,2,0,P|102:260|118:288,1,70
205,318,84832,2,0,P|260:307|282:305,1,70
369,274,85154,1,0,0:0:0:0:
369,274,85316,1,0,0:0:0:0:
413,179,85477,1,0,0:0:0:0:
380,92,85638,1,0,0:0:0:0:
194,90,85799,1,0,0:0:0:0:
256,192,85961,12,0,87574,0:0:0:0:
256,192,87896,5,0,0:0:0:0:
256,192,87977,1,0,0:0:0:0:
256,192,88058,1,0,0:0:0:0:
252,39,88219,1,0,0:0:0:0:
