osu file format v14

[General]
AudioFilename: audio.mp3
AudioLeadIn: 0
PreviewTime: 62714
Countdown: 1
SampleSet: Soft
StackLeniency: 0.7
Mode: 0
LetterboxInBreaks: 0
WidescreenStoryboard: 0

[Editor]
Bookmarks: 38575
DistanceSpacing: 1.1
BeatDivisor: 4
GridSize: 32
TimelineZoom: 1.8

[Metadata]
Title:Mission! HealthFirst!
TitleUnicode:Mission! Health・First!
Artist:Kana Hanazawa, Tomoaki Maeno, Daisuke Ono, Kikuko
ArtistUnicode:Kana Hanazawa, Tomoaki Maeno, Daisuke Ono, Kikuko
Creator:Pinecone Kun
Version:Relieving
Source:はたらく細胞
Tags:cells at work work! hataraku saibou biology cyte cell seto kousuke
BeatmapID:1776549
BeatmapSetID:849602

[Difficulty]
HPDrainRate:6
CircleSize:4
OverallDifficulty:8.6
ApproachRate:9.3
SliderMultiplier:2.2
SliderTickRate:1

[Events]
//Background and Video events
0,0,"thumb-1920-941974.jpg",0,0
//Break Periods
//Storyboard Layer 0 (Background)
//Storyboard Layer 1 (Fail)
//Storyboard Layer 2 (Pass)
//Storyboard Layer 3 (Foreground)
//Storyboard Sound Samples

[TimingPoints]
834,322.58064516129,4,2,0,100,1,0
11075,-90.9090909090909,4,2,0,100,0,0
21237,-166.666666666667,4,2,0,100,0,0
26398,-111.111111111111,4,2,0,100,0,0
31317,-66.6666666666667,4,2,0,100,0,0
31721,-90.9090909090909,4,2,0,100,0,0
41721,-166.666666666667,4,2,0,100,0,0
47043,-100,4,2,0,100,0,0
52366,-200,4,2,0,100,0,0
57527,-90.9090909090909,4,2,0,100,0,1
62688,-80,4,2,0,100,0,0
72999,-80,4,2,0,100,0,1
78172,-80,4,2,0,100,0,0
80815,-133.333333333333,4,2,0,100,0,0
81075,-83.3333333333333,4,2,0,100,0,0
81398,-142.857142857143,4,2,0,100,0,0
81721,-83.3333333333333,4,2,0,100,0,0
83495,-90.9090909090909,4,2,0,100,0,0
85269,-90.9090909090909,4,2,0,100,0,1

[HitObjects]
185,95,834,5,0,0:0:0:0:
140,281,995,1,0,0:0:0:0:
291,239,1156,2,0,P|309:194|310:121,1,110
153,105,1479,5,0,0:0:0:0:
163,294,1640,1,0,0:0:0:0:
298,214,1801,2,0,P|304:166|286:95,1,110
127,111,2124,5,0,0:0:0:0:
190,288,2285,1,0,0:0:0:0:
86,177,2446,5,0,0:0:0:0:
357,157,2608,1,0,0:0:0:0:
85,152,2769,1,0,0:0:0:0:
363,189,2930,1,0,0:0:0:0:
136,38,3092,6,0,P|177:94|191:153,1,110
86,268,3414,5,0,0:0:0:0:
241,303,3575,1,0,0:0:0:0:
386,250,3737,2,0,P|422:197|436:149,1,110
89,241,4059,5,0,0:0:0:0:
235,303,4221,1,0,0:0:0:0:
387,276,4382,2,0,P|432:230|454:185,1,110
194,58,4704,5,0,0:0:0:0:
402,227,4866,1,0,0:0:0:0:
180,72,5027,1,0,0:0:0:0:
412,211,5188,1,0,0:0:0:0:
183,232,5350,6,0,B|115:231|101:181|101:181|33:294,1,220
124,301,5833,1,0,0:0:0:0:
206,72,5995,5,0,0:0:0:0:
325,159,6156,1,0,0:0:0:0:
236,275,6317,2,0,L|139:195,1,110
232,62,6640,5,0,0:0:0:0:
325,177,6801,1,0,0:0:0:0:
209,266,6962,2,0,L|136:163,1,110
249,52,7285,5,0,0:0:0:0:
308,187,7446,1,0,0:0:0:0:
125,176,7608,5,0,0:0:0:0:
401,227,7769,1,0,0:0:0:0:
124,199,7930,1,0,0:0:0:0:
401,202,8092,1,0,0:0:0:0:
194,36,8253,6,0,P|159:94|173:153,1,110
385,261,8575,2,0,P|357:197|308:156,1,110
116,281,8898,2,0,P|186:291|242:267,1,110
320,321,9221,5,0,0:0:0:0:
398,38,9382,1,0,0:0:0:0:
384,292,9543,1,0,0:0:0:0:
62,138,9704,5,0,0:0:0:0:
287,55,10188,6,0,P|354:202|261:74,1,440
85,57,11156,6,0,P|188:79|224:121,1,121.000003692627
111,300,11479,2,0,P|94:225|111:182,1,121.000003692627
245,209,11801,1,0,0:0:0:0:
376,67,11963,1,0,0:0:0:0:
278,281,12124,1,0,0:0:0:0:
109,131,12285,5,0,0:0:0:0:
365,195,12446,2,0,P|409:229|353:211,1,121.000003692627
109,253,12769,5,0,0:0:0:0:
364,128,12930,2,0,P|392:109|341:102,1,121.000003692627
71,193,13253,5,0,0:0:0:0:
71,193,13333,1,0,0:0:0:0:
71,193,13414,1,0,0:0:0:0:
287,86,13575,6,0,B|206:176|322:174|234:264,1,181.500005538941
184,226,13898,2,0,P|195:293|242:316,1,121.000003692627
80,153,14221,1,0,0:0:0:0:
357,174,14382,2,0,P|309:178|256:235,1,121.000003692627
483,324,14704,2,0,P|411:331|351:273,1,121.000003692627
367,57,15027,5,0,0:0:0:0:
170,153,15188,1,0,0:0:0:0:
441,88,15350,1,0,0:0:0:0:
233,178,15511,1,0,0:0:0:0:
467,267,15672,6,0,B|362:337|322:244|234:349,1,242.000007385254
377,178,16156,1,0,0:0:0:0:
377,178,16317,5,0,0:0:0:0:
193,34,16479,2,0,P|283:69|295:110,1,121.000003692627
158,301,16802,2,0,P|151:196|176:164,1,121.000003692627
457,263,17124,2,0,P|377:215|307:212,1,121.000003692627
317,103,17446,5,0,0:0:0:0:
417,320,17608,2,0,P|380:347|392:295,1,121.000003692627
129,107,17930,5,0,0:0:0:0:
56,317,18092,2,0,P|92:347|91:294,1,121.000003692627
257,163,18414,5,0,0:0:0:0:
257,163,18495,1,0,0:0:0:0:
257,163,18575,1,0,0:0:0:0:
416,295,18737,6,0,L|219:318,1,181.500005538941
192,363,19060,2,0,P|175:289|236:250,1,121.000003692627
331,231,19382,2,0,P|302:170|232:142,1,121.000003692627
26,75,19704,5,0,0:0:0:0:
91,259,19866,1,0,0:0:0:0:
233,95,20027,5,0,0:0:0:0:
179,246,20188,1,0,0:0:0:0:
360,196,20350,1,0,0:0:0:0:
299,94,20511,5,0,0:0:0:0:
235,290,20672,1,0,0:0:0:0:
116,155,20833,5,0,0:0:0:0:
436,233,20995,1,0,0:0:0:0:
235,70,21317,6,0,P|263:140|234:197,1,131.99999597168
129,112,21801,2,0,L|203:132,1,65.9999979858399
192,129,22124,1,0,0:0:0:0:
396,39,22285,2,0,L|366:110,1,65.9999979858399
370,99,22608,1,0,0:0:0:0:
333,275,22769,5,0,0:0:0:0:
333,275,22930,2,0,P|303:243|275:221,1,65.9999979858399
219,351,23253,1,0,0:0:0:0:
145,213,23414,5,0,0:0:0:0:
331,155,23575,1,0,0:0:0:0:
209,295,23898,6,0,P|249:235|310:215,1,131.99999597168
350,352,24382,2,0,L|301:293,1,65.9999979858399
307,301,24704,1,0,0:0:0:0:
102,275,24866,2,0,L|147:213,1,65.9999979858399
145,91,25188,2,0,P|183:97|218:115,1,65.9999979858399
416,153,25511,5,0,0:0:0:0:
304,119,25672,1,0,0:0:0:0:
404,60,25833,1,0,0:0:0:0:
69,53,25995,5,0,0:0:0:0:
136,187,26157,1,0,0:0:0:0:
206,51,26318,1,0,0:0:0:0:
258,308,26479,6,0,P|322:280|327:205,1,148.49999546814
267,237,26801,1,0,0:0:0:0:
320,27,26963,1,0,0:0:0:0:
230,232,27124,1,0,0:0:0:0:
285,19,27285,1,0,0:0:0:0:
143,298,27769,6,0,P|75:252|85:188,1,148.49999546814
141,228,28091,1,0,0:0:0:0:
183,22,28253,1,0,0:0:0:0:
161,229,28414,1,0,0:0:0:0:
209,24,28575,1,0,0:0:0:0:
425,238,29059,6,0,P|372:200|276:191,1,148.49999546814
302,218,29382,1,0,0:0:0:0:
229,27,29543,1,0,0:0:0:0:
269,224,29704,1,0,0:0:0:0:
199,32,29866,1,0,0:0:0:0:
87,235,30188,5,0,0:0:0:0:
315,302,30350,1,0,0:0:0:0:
277,58,30511,1,0,0:0:0:0:
349,241,30672,1,0,0:0:0:0:
54,154,30833,5,0,0:0:0:0:
346,116,30995,1,0,0:0:0:0:
294,243,31479,2,0,P|250:297|264:230,1,165.000006294251
197,93,31963,6,0,B|288:172|308:47|429:133,1,242.000007385254
247,300,32446,2,0,P|314:258|333:205,1,121.000003692627
59,208,32769,1,0,0:0:0:0:
204,151,32930,5,0,0:0:0:0:
442,187,33092,2,0,P|476:220|420:218,1,121.000003692627
308,151,33414,5,0,0:0:0:0:
70,187,33576,2,0,P|36:220|92:218,1,121.000003692627
255,151,33898,5,0,0:0:0:0:
255,151,33979,1,0,0:0:0:0:
255,151,34059,1,0,0:0:0:0:
390,319,34221,6,0,B|286:258|289:361|175:282,1,181.500005538941
164,345,34543,2,0,P|158:271|209:238,1,121.000003692627
168,34,34866,2,0,P|261:71|280:131,1,121.000003692627
72,199,35188,2,0,P|136:177|184:131,1,121.000003692627
73,102,35511,1,0,0:0:0:0:
206,319,35672,5,0,0:0:0:0:
238,125,35833,1,0,0:0:0:0:
226,321,35995,1,0,0:0:0:0:
218,123,36156,1,0,0:0:0:0:
452,298,36317,6,0,B|331:180|463:207|353:77,1,242.000007385254
315,166,36801,1,0,0:0:0:0:
472,215,36963,5,0,0:0:0:0:
305,323,37124,2,0,P|220:301|205:245,1,121.000003692627
308,102,37446,2,0,P|325:181|292:226,1,121.000003692627
112,223,37769,2,0,P|158:174|208:163,1,121.000003692627
175,303,38092,5,0,0:0:0:0:
90,87,38253,2,0,P|114:28|127:87,1,121.000003692627
337,303,38575,5,0,0:0:0:0:
422,87,38736,2,0,P|398:28|385:87,1,121.000003692627
257,297,39059,5,0,0:0:0:0:
257,297,39140,1,0,0:0:0:0:
257,297,39221,1,0,0:0:0:0:
206,160,39382,6,0,P|274:143|375:90,1,181.500005538941
334,40,39704,2,0,P|402:35|434:71,1,121.000003692627
371,273,40027,2,0,P|359:215|311:164,1,121.000003692627
234,23,40350,2,0,P|168:50|134:123,1,121.000003692627
261,340,40672,5,0,0:0:0:0:
129,159,40833,1,0,0:0:0:0:
301,172,40995,5,0,0:0:0:0:
119,257,41156,1,0,0:0:0:0:
199,63,41317,1,0,0:0:0:0:
184,294,41479,5,0,0:0:0:0:
434,159,41640,1,0,0:0:0:0:
134,166,41963,6,0,P|182:175|260:140,1,131.99999597168
188,102,42446,2,0,L|165:32,1,65.9999979858399
167,39,42769,1,0,0:0:0:0:
318,182,42930,2,0,L|282:240,1,65.9999979858399
283,238,43253,1,0,0:0:0:0:
116,217,43414,6,0,L|167:135,1,65.9999979858399
291,117,43737,1,0,0:0:0:0:
342,219,43898,1,0,0:0:0:0:
432,142,44059,5,0,0:0:0:0:
242,247,44221,1,0,0:0:0:0:
296,154,44543,6,0,P|239:169|177:118,1,131.99999597168
278,40,45027,6,0,L|239:108,1,65.9999979858399
245,97,45350,1,0,0:0:0:0:
106,191,45511,2,0,L|188:214,1,65.9999979858399
181,126,45833,2,0,P|223:142|249:166,1,65.9999979858399
280,294,46156,5,0,0:0:0:0:
333,199,46317,1,0,0:0:0:0:
228,200,46478,1,0,0:0:0:0:
311,49,46640,5,0,0:0:0:0:
488,135,46801,1,0,0:0:0:0:
315,220,46962,1,0,0:0:0:0:
188,48,47124,6,0,P|100:92|120:162,1,165
160,111,47446,1,0,0:0:0:0:
337,261,47608,1,0,0:0:0:0:
176,93,47769,1,0,0:0:0:0:
323,279,47930,1,0,0:0:0:0:
414,36,48414,6,0,P|389:94|282:83,1,165
336,44,48737,1,0,0:0:0:0:
382,263,48898,1,0,0:0:0:0:
351,27,49059,1,0,0:0:0:0:
362,252,49221,1,0,0:0:0:0:
76,251,49704,6,0,P|148:198|250:212,1,165
192,238,50027,1,0,0:0:0:0:
237,24,50188,1,0,0:0:0:0:
215,243,50350,1,0,0:0:0:0:
214,23,50511,1,0,0:0:0:0:
315,78,50833,5,0,0:0:0:0:
380,254,50995,1,0,0:0:0:0:
98,139,51157,1,0,0:0:0:0:
401,292,51318,1,0,0:0:0:0:
466,20,51479,1,0,0:0:0:0:
247,317,51641,5,0,0:0:0:0:
370,145,52446,6,0,P|299:113|253:130,1,110
218,300,53092,2,0,P|267:272|292:215,1,110
123,161,53737,5,0,0:0:0:0:
358,75,54059,1,0,0:0:0:0:
386,292,54382,2,0,P|338:289|264:248,1,110
297,49,55027,6,0,P|340:96|348:148,1,110
58,256,55672,1,0,0:0:0:0:
262,162,55995,1,0,0:0:0:0:
448,271,56317,6,0,B|389:303|364:257|364:257|328:266|328:266|323:318|249:313,1,220
216,144,57285,1,0,0:0:0:0:
440,128,57446,1,0,0:0:0:0:
443,216,57608,5,0,0:0:0:0:
431,243,57688,1,0,0:0:0:0:
411,266,57769,1,0,0:0:0:0:
384,280,57850,1,0,0:0:0:0:
354,283,57930,1,0,0:0:0:0:
323,278,58011,1,0,0:0:0:0:
292,279,58092,1,0,0:0:0:0:
266,294,58172,1,0,0:0:0:0:
245,315,58253,2,0,P|220:348|183:375,3,60.5000018463135
174,190,58575,2,0,P|209:171|241:168,3,60.5000018463135
411,46,58898,5,0,0:0:0:0:
401,81,58979,1,0,0:0:0:0:
405,116,59059,1,0,0:0:0:0:
420,149,59140,1,0,0:0:0:0:
433,182,59221,1,0,0:0:0:0:
429,217,59301,1,0,0:0:0:0:
413,250,59382,2,0,P|383:279|345:295,1,60.5000018463135
201,136,59543,2,0,P|253:142|293:167,1,60.5000018463135
220,284,59704,5,0,0:0:0:0:
195,310,59785,1,0,0:0:0:0:
161,323,59866,1,0,0:0:0:0:
127,309,59946,1,0,0:0:0:0:
110,276,60027,2,0,P|103:256|107:209,1,60.5000018463135
201,40,60188,5,0,0:0:0:0:
212,93,60269,1,0,0:0:0:0:
245,135,60350,1,0,0:0:0:0:
294,156,60430,1,0,0:0:0:0:
346,140,60511,1,0,0:0:0:0:
388,106,60592,1,0,0:0:0:0:
441,112,60672,2,0,P|476:137|496:198,1,60.5000018463135
502,312,60833,5,0,0:0:0:0:
451,355,60914,1,0,0:0:0:0:
384,360,60995,1,0,0:0:0:0:
323,332,61075,1,0,0:0:0:0:
257,318,61156,1,0,0:0:0:0:
193,339,61237,1,0,0:0:0:0:
128,353,61317,1,0,0:0:0:0:
72,315,61398,1,0,0:0:0:0:
50,251,61479,1,0,0:0:0:0:
69,103,61640,5,0,0:0:0:0:
362,214,61801,1,0,0:0:0:0:
85,83,61963,1,0,0:0:0:0:
335,236,62124,1,0,0:0:0:0:
286,43,62769,6,0,P|360:110|366:199,1,137.5
368,305,63092,2,0,P|296:252|279:174,1,137.5
449,165,63414,1,0,0:0:0:0:
264,301,63575,1,0,0:0:0:0:
123,190,63737,2,0,P|190:131|268:128,1,137.5
335,226,64059,6,0,P|377:147|359:80,1,137.5
374,305,64382,2,0,P|300:307|243:239,1,137.5
356,133,64704,1,0,0:0:0:0:
181,168,64866,1,0,0:0:0:0:
341,40,65027,2,0,P|442:82|455:151,1,137.5
246,303,65350,6,0,P|177:259|176:183,1,137.5
349,120,65672,2,0,P|332:189|258:228,1,137.5
199,85,65995,1,0,0:0:0:0:
379,232,66156,1,0,0:0:0:0:
185,190,66317,2,0,P|177:266|209:320,1,137.5
318,216,66640,6,0,P|335:141|398:104,1,137.5
452,337,66963,2,0,P|456:264|409:198,1,137.5
288,312,67285,1,0,0:0:0:0:
344,129,67446,1,0,0:0:0:0:
198,176,67608,2,0,P|205:91|246:48,1,137.5
99,49,67930,6,0,B|148:120|71:164|194:234,1,206.25
197,232,68253,2,0,P|241:299|159:299,1,137.5
413,49,68575,6,0,B|364:120|441:164|318:234,1,206.25
315,232,68898,2,0,P|271:299|353:299,1,137.5
49,296,69221,6,0,B|115:248|68:186|214:201,1,206.25
230,211,69543,2,0,P|260:281|191:302,1,137.5
463,296,69866,6,0,B|397:248|444:186|298:201,1,206.25
282,211,70188,2,0,P|252:281|321:302,1,137.5
140,108,70511,5,0,0:0:0:0:
378,155,70672,1,0,0:0:0:0:
163,254,70833,5,0,0:0:0:0:
268,51,70995,1,0,0:0:0:0:
318,273,71156,5,0,0:0:0:0:
78,148,71317,1,0,0:0:0:0:
345,146,71479,5,0,0:0:0:0:
198,330,71640,1,0,0:0:0:0:
172,91,71801,5,0,0:0:0:0:
349,261,71963,1,0,0:0:0:0:
141,130,72124,1,0,0:0:0:0:
421,122,72285,2,0,B|328:169|443:191|385:311|385:311|298:266|233:353|233:353|220:298,1,412.5
148,107,73092,5,0,0:0:0:0:
334,232,73253,1,0,0:0:0:0:
288,43,73414,5,0,0:0:0:0:
139,231,73575,1,0,0:0:0:0:
394,147,73737,5,0,0:0:0:0:
160,117,73898,1,0,0:0:0:0:
274,267,74059,5,0,0:0:0:0:
354,56,74221,1,0,0:0:0:0:
79,180,74382,5,0,0:0:0:0:
212,130,74543,1,0,0:0:0:0:
179,289,74704,5,0,0:0:0:0:
146,166,74866,1,0,0:0:0:0:
272,214,75027,5,0,0:0:0:0:
283,67,75188,1,0,0:0:0:0:
189,152,75350,5,0,0:0:0:0:
99,64,75511,1,0,0:0:0:0:
339,112,75672,5,0,0:0:0:0:
191,285,75833,1,0,0:0:0:0:
427,274,75995,5,0,0:0:0:0:
233,130,76156,1,0,0:0:0:0:
450,73,76317,5,0,0:0:0:0:
331,273,76479,1,0,0:0:0:0:
286,62,76640,5,0,0:0:0:0:
459,249,76801,1,0,0:0:0:0:
321,202,76963,5,0,0:0:0:0:
259,317,77124,1,0,0:0:0:0:
212,192,77285,5,0,0:0:0:0:
83,168,77446,1,0,0:0:0:0:
200,72,77608,5,0,0:0:0:0:
319,119,77769,1,0,0:0:0:0:
212,192,77930,5,0,0:0:0:0:
121,280,78092,1,0,0:0:0:0:
368,256,78253,6,0,P|277:241|173:326,1,206.25
185,301,78575,1,0,0:0:0:0:
253,121,78737,1,0,0:0:0:0:
89,185,78898,2,0,P|86:100|121:47,1,137.5
339,251,79221,2,0,P|292:186|223:154,1,137.5
141,351,79543,6,0,P|176:278|229:240,1,137.5
300,109,79866,2,0,P|368:163|371:225,1,137.5
248,193,80188,2,0,P|163:195|77:286,1,206.25
72,272,80511,2,0,P|41:194|24:110,1,137.5
198,83,80833,6,0,B|257:101|265:120|265:120|295:78,1,123.750004720688
316,87,81156,2,0,B|372:154|406:137|406:137|431:201,1,131.99999597168
236,239,81479,6,0,B|197:254|196:218|196:218|271:198,1,115.49999647522
260,169,81801,2,0,B|336:223|359:198|359:198|385:239,1,131.99999597168
418,61,82124,6,0,B|368:130|427:126|427:126|447:146|505:252|349:194|349:194|291:246|344:290,1,395.999987915039
110,224,82769,2,0,B|136:154|136:154|150:178|202:154|188:84|188:84|244:153|315:111,1,329.9999899292
329,147,83253,2,0,B|355:218|311:197|311:197|277:206|302:247,1,131.99999597168
144,90,83575,5,0,0:0:0:0:
50,239,83737,1,0,0:0:0:0:
203,221,83898,2,0,P|208:288|165:329,1,121.000003692627
66,132,84221,2,0,P|93:212|123:238,1,121.000003692627
162,71,84543,1,0,0:0:0:0:
235,217,84704,5,0,0:0:0:0:
457,92,84866,1,0,0:0:0:0:
314,101,85027,2,0,P|360:144|380:203,1,121.000003692627
206,302,85350,5,0,0:0:0:0:
172,66,85511,1,0,0:0:0:0:
246,331,85672,1,0,0:0:0:0:
60,220,85833,1,0,0:0:0:0:
332,165,85995,5,0,0:0:0:0:
96,175,86156,1,0,0:0:0:0:
371,107,86317,1,0,0:0:0:0:
340,343,86479,1,0,0:0:0:0:
180,81,86640,5,0,0:0:0:0:
373,255,86801,1,0,0:0:0:0:
204,45,86963,1,0,0:0:0:0:
235,306,87124,1,0,0:0:0:0:
377,108,87285,5,0,0:0:0:0:
180,326,87446,1,0,0:0:0:0:
356,73,87608,1,0,0:0:0:0:
350,326,87769,1,0,0:0:0:0:
108,143,87930,5,0,0:0:0:0:
426,203,88092,1,0,0:0:0:0:
62,157,88253,1,0,0:0:0:0:
480,306,88414,1,0,0:0:0:0:
