osu file format v14

[General]
AudioFilename: audio.mp3
AudioLeadIn: 0
PreviewTime: -1
Countdown: 0
SampleSet: Normal
StackLeniency: 0.4
Mode: 0
LetterboxInBreaks: 0
WidescreenStoryboard: 0

[Editor]
DistanceSpacing: 0.5
BeatDivisor: 4
GridSize: 32
TimelineZoom: 1

[Metadata]
Title:Gotoubun no Kimochi
TitleUnicode:五等分の気持ち
Artist:Kana Hanazawa, Ayana Taketatsu, Miku Itou, Ayane Sakura, Inori Minase
ArtistUnicode:花澤香菜, 竹達彩奈, 伊藤美来, 佐倉綾音, 水瀬いのり
Creator:P4ndemonium
Version:Extra
Source:五等分の花嫁
Tags:5-toubun no Hanayome The Five Wedded Brides The Quintessential Quintuplets op opening 中野家の五つ子 Nakanoke no Itsuzugo
BeatmapID:1878093
BeatmapSetID:899069

[Difficulty]
HPDrainRate:5
CircleSize:4
OverallDifficulty:9
ApproachRate:9.3
SliderMultiplier:2
SliderTickRate:1

[Events]
//Background and Video events
0,0,"sdfsdffsdfsdfsdfsdf - Copy.jpg",0,0
//Break Periods
//Storyboard Layer 0 (Background)
//Storyboard Layer 1 (Fail)
//Storyboard Layer 2 (Pass)
//Storyboard Layer 3 (Foreground)
//Storyboard Sound Samples

[TimingPoints]
4933,342.857142857143,4,1,0,50,1,0
6304,-200,4,1,0,50,0,0
11618,-100,4,1,0,50,0,0
11790,-133.333333333333,4,1,0,50,0,0
14533,-100,4,1,0,50,0,0
15904,-200,4,1,0,50,0,0
17275,-133.333333333333,4,1,0,50,0,0
27218,-400,4,1,0,50,0,0
28247,-133.333333333333,4,1,0,50,0,0
39218,-117.647058823529,4,1,0,50,0,0
44704,-133.333333333333,4,1,0,50,0,0
47447,-100,4,1,0,50,0,0
51904,-100,4,1,0,50,0,0
52933,-100,4,1,0,50,0,1
75904,-133.333333333333,4,1,0,50,0,1
76247,338.983050847458,4,1,0,50,1,0
76247,-133.333333333333,4,1,0,50,0,0

[HitObjects]
256,192,3562,12,0,5962,0:0:0:0:
129,210,6304,6,0,P|101:251|93:300,1,100
208,178,6818,2,0,P|219:200|226:224,1,50
326,158,7161,2,0,P|314:180|307:204,1,50
270,96,7504,1,0,0:0:0:0:
387,232,7675,6,0,P|414:273|422:322,1,100
326,158,8190,2,0,P|314:180|307:204,1,50
227,224,8533,1,0,0:0:0:0:
227,224,8704,2,0,P|238:246|245:270,1,50
165,120,9047,6,0,P|137:161|129:210,1,100
233,65,9561,2,0,P|245:87|252:111,1,50
339,138,9904,2,0,P|327:160|320:184,1,50
409,90,10247,5,0,0:0:0:0:
409,90,10333,1,0,0:0:0:0:
409,90,10418,1,0,0:0:0:0:
456,203,10590,1,0,0:0:0:0:
339,138,10761,5,0,0:0:0:0:
339,138,10847,1,0,0:0:0:0:
339,138,10933,1,0,0:0:0:0:
311,265,11104,1,0,0:0:0:0:
190,174,11275,5,0,0:0:0:0:
194,198,11360,1,0,0:0:0:0:
198,223,11446,1,0,0:0:0:0:
203,247,11532,1,0,0:0:0:0:
207,272,11618,2,0,L|215:321,1,50
64,234,11790,6,0,P|74:161|130:113,1,150.000005722046
190,174,12304,2,0,P|223:189|260:190,1,75.0000028610231
378,87,12647,2,0,P|347:108|329:141,1,75.0000028610231
424,240,12990,5,0,0:0:0:0:
424,240,13161,2,0,P|445:270|452:306,1,75.0000028610231
339,268,13504,2,0,P|317:298|310:334,1,75.0000028610231
248,240,13847,1,0,0:0:0:0:
179,302,14018,1,0,0:0:0:0:
179,302,14190,2,0,P|209:323|228:355,1,75.0000028610231
70,309,14533,6,0,P|70:235|121:183,1,150
140,175,14875,2,0,P|139:125|113:83,1,100
356,257,15218,6,0,P|330:188|264:156,1,150
243,155,15560,2,0,P|226:108|236:60,1,100
449,154,15904,6,0,P|400:146|359:171,1,100
234,357,16590,6,0,P|282:364|323:339,1,100
148,226,17104,5,0,0:0:0:0:
148,226,17190,1,0,0:0:0:0:
148,226,17275,2,0,P|166:258|176:294,1,75.0000028610231
73,171,17618,2,0,P|54:203|44:239,1,75.0000028610231
219,81,17961,1,0,0:0:0:0:
163,215,18133,1,0,0:0:0:0:
68,86,18304,1,0,0:0:0:0:
254,175,18475,1,0,0:0:0:0:
44,239,18647,5,0,0:0:0:0:
44,239,18818,2,0,P|53:202|72:170,1,75.0000028610231
68,86,19161,6,0,B|161:64|127:120|212:99,1,150.000005722046
271,160,19675,1,0,0:0:0:0:
378,62,19847,5,0,0:0:0:0:
378,62,19933,1,0,0:0:0:0:
378,62,20018,2,0,P|359:94|349:130,1,75.0000028610231
453,205,20361,2,0,P|471:237|481:273,1,75.0000028610231
326,337,20704,1,0,0:0:0:0:
438,217,20875,1,0,0:0:0:0:
255,186,21047,1,0,0:0:0:0:
409,321,21218,1,0,0:0:0:0:
335,148,21390,5,0,0:0:0:0:
335,148,21561,2,0,P|344:111|363:79,1,75.0000028610231
255,186,21904,2,0,P|228:116|168:73,1,150.000005722046
119,142,22418,1,0,0:0:0:0:
211,263,22590,5,0,0:0:0:0:
211,263,22675,1,0,0:0:0:0:
211,263,22761,2,0,B|118:241|152:297|66:276,1,150.000005722046
255,186,23275,1,0,0:0:0:0:
326,288,23447,2,0,P|344:320|354:356,1,75.0000028610231
432,319,23790,2,0,P|441:282|460:250,1,75.0000028610231
512,134,24133,6,0,B|419:112|453:168|367:147,1,150.000005722046
310,85,24647,1,0,0:0:0:0:
255,186,24818,2,0,P|245:149|226:117,1,75.0000028610231
144,97,25161,2,0,P|115:121|93:151,1,75.0000028610231
87,171,25418,1,0,0:0:0:0:
87,171,25504,1,0,0:0:0:0:
182,312,25675,5,0,0:0:0:0:
276,196,25847,2,0,P|308:177|344:167,1,75.0000028610231
190,182,26190,5,0,0:0:0:0:
324,333,26361,1,0,0:0:0:0:
324,333,26447,1,0,0:0:0:0:
324,333,26533,1,0,0:0:0:0:
402,102,26704,1,0,0:0:0:0:
131,93,27047,5,0,0:0:0:0:
131,93,27133,1,0,0:0:0:0:
131,93,27218,2,0,P|156:129|161:172,1,87.5
158,189,27904,1,0,0:0:0:0:
280,66,28075,5,0,0:0:0:0:
280,66,28161,1,0,0:0:0:0:
280,66,28247,1,0,0:0:0:0:
323,141,28418,1,0,0:0:0:0:
402,102,28590,2,0,P|437:91|474:93,1,75.0000028610231
395,220,28933,2,0,P|365:197|329:187,1,75.0000028610231
434,338,29275,1,0,0:0:0:0:
480,268,29447,1,0,0:0:0:0:
351,346,29618,6,0,P|278:357|221:312,1,150.000005722046
129,246,30133,1,0,0:0:0:0:
129,246,30304,2,0,P|139:281|137:318,1,75.0000028610231
8,291,30647,2,0,P|18:255|40:225,1,75.0000028610231
56,88,30990,5,0,0:0:0:0:
135,127,31161,1,0,0:0:0:0:
185,54,31333,2,0,P|214:31|250:21,1,75.0000028610231
328,173,31675,2,0,P|298:150|262:140,1,75.0000028610231
476,55,32018,5,0,0:0:0:0:
365,93,32190,2,0,P|377:58|395:25,1,75.0000028610231
512,209,32533,2,0,P|500:173|482:140,1,75.0000028610231
315,292,32875,2,0,P|326:256|344:223,1,75.0000028610231
465,352,33218,5,0,0:0:0:0:
465,352,33304,2,0,P|453:316|435:283,1,75.0000028610231
423,268,33561,1,0,0:0:0:0:
298,318,33733,5,0,0:0:0:0:
238,259,33904,2,0,P|208:236|172:226,1,75.0000028610231
47,336,34247,1,0,0:0:0:0:
119,292,34418,2,0,P|141:321|151:357,1,75.0000028610231
299,201,34761,1,0,0:0:0:0:
205,160,34933,2,0,P|182:189|172:225,1,75.0000028610231
96,92,35275,6,0,P|131:81|168:83,1,75.0000028610231
290,172,35618,2,0,P|360:189|415:142,1,150.000005722046
388,13,36133,5,0,0:0:0:0:
488,100,36304,1,0,0:0:0:0:
376,204,36475,2,0,P|379:259|412:303,1,112.500004291535
430,314,36818,6,0,B|342:351|365:290|285:325,1,150.000005722046
176,305,37333,2,0,P|198:334|208:370,1,75.0000028610231
37,384,37675,6,0,P|57:312|107:257,1,150.000005722046
198,178,38190,5,0,0:0:0:0:
144,114,38361,2,0,B|56:76|79:137|0:102,1,150.000005722046
48,0,38875,5,0,0:0:0:0:
108,195,39047,1,0,0:0:0:0:
108,195,39133,1,0,0:0:0:0:
107,195,39218,2,0,P|54:260|54:343,1,170.000003242493
198,178,39733,1,0,0:0:0:0:
262,265,39904,2,0,P|279:303|282:345,1,85.0000016212464
395,148,40247,1,0,0:0:0:0:
282,252,40418,1,0,0:0:0:0:
343,77,40590,5,0,0:0:0:0:
422,248,40761,1,0,0:0:0:0:
308,158,40933,1,0,0:0:0:0:
430,67,41104,2,0,P|468:49|510:46,1,85.0000016212464
280,18,41447,5,0,0:0:0:0:
395,148,41618,2,0,P|412:186|415:228,1,85.0000016212464
237,92,41961,2,0,B|216:193|176:133|162:239,1,170.000003242493
55,123,42475,5,0,0:0:0:0:
117,20,42647,2,0,P|155:2|197:0,1,85.0000016212464
68,107,42990,2,0,P|38:77|0:60,1,85.0000016212464
19,224,43333,5,0,0:0:0:0:
203,56,43504,1,0,0:0:0:0:
250,297,43675,2,0,P|288:314|330:317,1,85.0000016212464
66,309,44018,5,0,0:0:0:0:
296,176,44190,1,0,0:0:0:0:
121,144,44361,5,0,0:0:0:0:
258,279,44533,1,0,0:0:0:0:
224,102,44704,6,0,P|166:145|159:218,2,150.000005722046
462,139,45733,5,0,0:0:0:0:
345,70,45904,1,0,0:0:0:0:
468,32,46075,5,0,0:0:0:0:
366,79,46247,1,0,0:0:0:0:
481,147,46418,2,0,P|490:182|482:219,1,75.0000028610231
333,339,46761,2,0,P|376:282|446:296,1,150.000005722046
455,378,47275,1,0,0:0:0:0:
315,213,47447,6,0,P|230:163|131:161,1,200
35,281,47961,1,0,0:0:0:0:
162,178,48133,1,0,0:0:0:0:
54,105,48304,1,0,0:0:0:0:
159,308,48475,2,0,P|198:276|246:263,1,100
410,103,48818,6,0,B|345:213|425:186|373:293,1,200
472,177,49333,1,0,0:0:0:0:
344,46,49504,2,0,P|305:14|257:1,1,100
162,178,49847,2,0,P|200:209|248:222,1,100
103,62,50190,5,0,0:0:0:0:
18,271,50361,1,0,0:0:0:0:
194,41,50533,5,0,0:0:0:0:
218,373,50704,1,0,0:0:0:0:
287,8,50875,5,0,0:0:0:0:
469,330,51047,1,0,0:0:0:0:
469,330,51133,1,0,0:0:0:0:
469,330,51218,1,0,0:0:0:0:
25,98,51390,1,0,0:0:0:0:
64,97,51904,6,0,P|30:131|21:180,1,100
87,229,52161,5,0,0:0:0:0:
87,229,52247,2,0,P|99:250|103:275,1,50
251,167,52418,2,0,P|238:188|234:213,1,50
347,329,52590,5,0,0:0:0:0:
370,336,52675,1,0,0:0:0:0:
395,333,52761,1,0,0:0:0:0:
417,322,52847,1,0,0:0:0:0:
439,323,52933,6,0,P|414:229|468:148,1,200
324,40,53447,2,0,P|356:77|367:125,1,100
218,187,53790,2,0,P|185:149|174:101,1,100
315,200,54133,1,0,0:0:0:0:
233,336,54304,6,0,B|120:297|150:374|38:331,1,200
139,169,54818,2,0,P|106:206|95:254,1,100
270,110,55161,2,0,P|258:61|226:24,1,100
378,254,55504,1,0,0:0:0:0:
188,241,55675,6,0,P|281:216|362:270,1,200
473,376,56190,2,0,P|455:329|461:280,1,100
440,90,56533,2,0,P|420:135|382:166,1,100
180,226,56875,1,0,0:0:0:0:
260,90,57047,6,0,B|221:203|298:173|255:284,1,200
422,188,57561,2,0,P|385:156|337:145,1,100
247,375,57904,2,0,P|295:363|332:331,1,100
76,205,58247,5,0,0:0:0:0:
76,205,58333,1,0,0:0:0:0:
76,205,58418,2,0,P|93:251|87:300,1,100
161,177,58761,2,0,P|198:144|246:133,1,100
385,252,59104,2,0,P|338:235|304:199,1,100
338,21,59447,2,0,P|347:69|332:117,1,100
225,237,59790,5,0,0:0:0:0:
140,85,59961,1,0,0:0:0:0:
305,200,60133,1,0,0:0:0:0:
128,297,60304,2,0,B|166:184|89:214|132:102,1,200
397,68,60818,5,0,0:0:0:0:
208,158,60990,1,0,0:0:0:0:
317,41,61161,2,0,P|383:113|395:211,1,200
227,303,61675,5,0,0:0:0:0:
432,246,61847,1,0,0:0:0:0:
292,157,62018,1,0,0:0:0:0:
375,337,62190,1,0,0:0:0:0:
299,137,62361,1,0,0:0:0:0:
129,295,62533,6,0,P|123:245|140:199,1,100
240,70,62875,1,0,0:0:0:0:
58,0,63047,1,0,0:0:0:0:
58,0,63133,1,0,0:0:0:0:
58,0,63218,1,0,0:0:0:0:
169,118,63390,1,0,0:0:0:0:
169,118,63476,1,0,0:0:0:0:
169,118,63561,1,0,0:0:0:0:
369,39,63733,5,0,0:0:0:0:
369,39,63818,1,0,0:0:0:0:
369,39,63904,2,0,P|314:119|339:213,1,200
501,211,64418,2,0,P|463:178|415:167,1,100
347,303,64761,2,0,P|384:335|432:346,1,100
339,213,65104,1,0,0:0:0:0:
237,384,65275,6,0,B|275:271|198:301|241:189,1,200
354,79,65790,2,0,P|396:53|445:50,1,100
220,212,66133,2,0,P|170:209|128:183,1,100
223,24,66475,1,0,0:0:0:0:
60,132,66647,6,0,P|5:212|30:306,1,200
220,212,67161,2,0,P|225:162|208:116,1,100
21,39,67504,2,0,P|15:88|32:134,1,100
264,49,67847,1,0,0:0:0:0:
335,281,68018,6,0,B|373:168|296:198|339:86,1,200
421,313,68532,2,0,P|463:338|512:341,1,100
245,194,68875,2,0,P|195:196|153:222,1,100
450,59,69218,5,0,0:0:0:0:
450,59,69304,1,0,0:0:0:0:
450,59,69390,2,0,P|475:101|478:150,1,100
339,338,69733,2,0,P|313:295|310:246,1,100
457,148,70075,2,0,P|432:191|391:218,1,100
234,141,70418,2,0,P|283:140|327:162,1,100
149,332,70761,6,0,B|110:219|187:249|144:137,1,200
313,25,71275,2,0,P|325:118|242:162,1,200
83,82,71790,5,0,0:0:0:0:
196,233,71961,1,0,0:0:0:0:
0,292,72133,5,0,0:0:0:0:
170,118,72304,1,0,0:0:0:0:
147,377,72475,1,0,0:0:0:0:
119,54,72647,5,0,0:0:0:0:
279,299,72818,1,0,0:0:0:0:
0,209,72990,1,0,0:0:0:0:
403,90,73161,5,0,0:0:0:0:
167,379,73333,1,0,0:0:0:0:
181,0,73504,1,0,0:0:0:0:
349,384,73675,5,0,0:0:0:0:
97,50,73847,1,0,0:0:0:0:
512,166,74018,1,0,0:0:0:0:
55,269,74190,5,0,0:0:0:0:
512,74,74361,1,0,0:0:0:0:
0,209,74533,5,0,0:0:0:0:
512,384,74704,1,0,0:0:0:0:
236,140,75047,5,0,0:0:0:0:
281,250,75218,1,0,0:0:0:0:
290,75,75390,5,0,0:0:0:0:
290,75,75475,1,0,0:0:0:0:
290,75,75561,1,0,0:0:0:0:
152,198,75733,5,0,0:0:0:0:
152,198,75818,1,0,0:0:0:0:
152,197,75904,2,0,P|122:227|109:311,1,112.500004291535
119,307,76247,6,0,P|140:337|145:374,1,75.0000028610231
259,254,76585,2,0,P|238:284|233:321,1,75.0000028610231
302,376,76840,1,0,0:0:0:0:
302,376,76924,2,0,P|332:354|369:349,1,75.0000028610231
448,384,77263,2,0,P|472:355|482:320,1,75.0000028610231
399,147,77602,5,0,0:0:0:0:
361,222,77772,2,0,P|378:254|409:276,1,75.0000028610231
512,88,78111,2,0,P|452:130|379:121,1,150.000005722046
237,65,78619,1,0,0:0:0:0:
291,4,78789,5,0,0:0:0:0:
291,4,78874,1,0,0:0:0:0:
291,4,78958,2,0,P|312:34|317:71,1,75.0000028610231
188,119,79297,2,0,P|206:86|237:65,1,75.0000028610231
298,218,79636,2,0,P|267:196|230:191,1,75.0000028610231
152,321,79975,2,0,P|170:288|203:270,1,75.0000028610231
208,382,80314,5,0,0:0:0:0:
56,313,80484,2,0,P|69:347|62:384,1,75.0000028610231
0,248,80823,2,0,P|33:182|101:156,1,150.000005722046
202,271,81331,1,0,0:0:0:0:
254,205,81501,5,0,0:0:0:0:
254,205,81585,1,0,0:0:0:0:
254,205,81670,2,0,P|287:221|324:217,1,75.0000028610231
408,230,82009,2,0,P|410:193|432:162,1,75.0000028610231
407,68,82348,2,0,P|373:51|336:55,1,75.0000028610231
253,43,82687,2,0,P|250:79|228:110,1,75.0000028610231
147,113,83026,6,0,P|111:177|126:249,1,150.000005722046
207,233,83535,1,0,0:0:0:0:
254,301,83704,2,0,B|347:279|313:335|398:314,1,150.000005722046
451,250,84213,5,0,0:0:0:0:
451,250,84297,1,0,0:0:0:0:
451,250,84382,1,0,0:0:0:0:
346,180,84552,1,0,0:0:0:0:
425,86,84721,2,0,P|456:65|492:58,1,75.0000028610231
311,32,85060,5,0,0:0:0:0:
457,163,85230,1,0,0:0:0:0:
457,163,85314,1,0,0:0:0:0:
457,163,85399,1,0,0:0:0:0:
215,212,85569,1,0,0:0:0:0:
338,41,85908,5,0,0:0:0:0:
338,41,85993,1,0,0:0:0:0:
338,41,86077,1,0,0:0:0:0:
256,192,86162,12,0,87094,0:0:0:0:
