osu file format v14

[General]
AudioFilename: virtual
AudioLeadIn: 0
PreviewTime: 0
Countdown: 0
SampleSet: None
StackLeniency: 0.7
Mode: 3
LetterboxInBreaks: 0
SpecialStyle: 0
WidescreenStoryboard: 1

[Editor]
DistanceSpacing: 1
BeatDivisor: 4
GridSize: 8
TimelineZoom: 2.7

[Metadata]
Title:Renai Circulation
TitleUnicode:Renai Circulation
Artist:Kana Hanazawa
ArtistUnicode:Kana Hanazawa
Creator:CircusGalop
Version:10K EZ
Source:BMS
Tags:
BeatmapID:1678824
BeatmapSetID:351167

[Difficulty]
HPDrainRate:0
CircleSize:10
OverallDifficulty:5
ApproachRate:5
SliderMultiplier:1.4
SliderTickRate:1

[Events]
//Background and Video events
Video,1937,"bga.mpg"
0,0,"#TITLE 01.png",0,0
//Break Periods
//Storyboard Layer 0 (Background)
//Storyboard Layer 1 (Fail)
//Storyboard Layer 2 (Pass)
//Storyboard Layer 3 (Foreground)
//Storyboard Sound Samples
Sample,3718,0,"1-03.ogg",100
Sample,3843,0,"1-04.ogg",100
Sample,4000,0,"5-vc-01.ogg",100
Sample,4000,0,"bell-E.ogg",100
Sample,4250,0,"guitar 001.ogg",100
Sample,4250,0,"hat.ogg",100
Sample,4375,0,"guitar 002.ogg",100
Sample,4375,0,"5-vc-02.ogg",100
Sample,4625,0,"guitar 003.ogg",100
Sample,4687,0,"5-vc-03.ogg",100
Sample,4750,0,"hat.ogg",100
Sample,4750,0,"guitar 004.ogg",100
Sample,4968,0,"5-vc-04.ogg",100
Sample,5000,0,"guitar 005.ogg",100
Sample,5000,0,"bell-E.ogg",100
Sample,5250,0,"hat.ogg",100
Sample,5250,0,"guitar 002.ogg",100
Sample,5375,0,"5-vc-05.ogg",100
Sample,5375,0,"bell-E.ogg",100
Sample,5500,0,"guitar 003.ogg",100
Sample,5625,0,"guitar 004.ogg",100
Sample,5750,0,"5-vc-06.ogg",100
Sample,5750,0,"hat.ogg",100
Sample,5906,0,"5-vc-07.ogg",100
Sample,6000,0,"bell-E.ogg",100
Sample,6000,0,"5-vc-08.ogg",100
Sample,6250,0,"guitar 001.ogg",100
Sample,6250,0,"hat.ogg",100
Sample,6375,0,"5-vc-09.ogg",100
Sample,6375,0,"guitar 002.ogg",100
Sample,6625,0,"guitar 003.ogg",100
Sample,6718,0,"5-vc-10.ogg",100
Sample,6750,0,"hat.ogg",100
Sample,6750,0,"guitar 004.ogg",100
Sample,7000,0,"guitar 005.ogg",100
Sample,7000,0,"bell-E.ogg",100
Sample,7000,0,"5-vc-11.ogg",100
Sample,7250,0,"hat.ogg",100
Sample,7250,0,"guitar 002.ogg",100
Sample,7375,0,"5-vc-12.ogg",100
Sample,7375,0,"bell-G#.ogg",100
Sample,7500,0,"guitar 003.ogg",100
Sample,7625,0,"guitar 004.ogg",100
Sample,7718,0,"5-vc-13.ogg",100
Sample,7750,0,"hat.ogg",100
Sample,7875,0,"5-vc-14.ogg",100
Sample,8000,0,"bell-E.ogg",100
Sample,8031,0,"5-vc-15.ogg",100
Sample,8250,0,"hat.ogg",100
Sample,8250,0,"guitar 001.ogg",100
Sample,8375,0,"5-vc-16.ogg",100
Sample,8375,0,"guitar 002.ogg",100
Sample,8562,0,"5-vc-17.ogg",100
Sample,8625,0,"guitar 003.ogg",100
Sample,8718,0,"5-vc-18.ogg",100
Sample,8750,0,"hat.ogg",100
Sample,8750,0,"guitar 004.ogg",100
Sample,9000,0,"5-vc-19.ogg",100
Sample,9000,0,"bell-E.ogg",100
Sample,9000,0,"guitar 005.ogg",100
Sample,9250,0,"hat.ogg",100
Sample,9250,0,"guitar 002.ogg",100
Sample,9250,0,"5-vc-20.ogg",100
Sample,9375,0,"bell-E.ogg",100
Sample,9500,0,"guitar 003.ogg",100
Sample,9500,0,"5-vc-21.ogg",100
Sample,9625,0,"5-vc-22.ogg",100
Sample,9625,0,"guitar 004.ogg",100
Sample,9750,0,"hat.ogg",100
Sample,9750,0,"5-vc-23.ogg",100
Sample,10000,0,"5-vc-24.ogg",100
Sample,10000,0,"bell-E.ogg",100
Sample,10250,0,"hat.ogg",100
Sample,10250,0,"guitar 001.ogg",100
Sample,10375,0,"guitar 002.ogg",100
Sample,10375,0,"5-vc-25.ogg",100
Sample,10625,0,"guitar 003.ogg",100
Sample,10750,0,"hat.ogg",100
Sample,10750,0,"guitar 004.ogg",100
Sample,10750,0,"5-vc-26.ogg",100
Sample,11000,0,"guitar 005.ogg",100
Sample,11000,0,"bell-G#.ogg",100
Sample,11000,0,"5-vc-27.ogg",100
Sample,11250,0,"hat.ogg",100
Sample,11500,0,"snare.ogg",100
Sample,12000,0,"tamb1.ogg",100
Sample,12000,0,"kick.ogg",100
Sample,12000,0,"fx.ogg",100
Sample,12000,0,"hat.ogg",100
Sample,12000,0,"bass-01.ogg",100
Sample,12000,0,"bell-E.ogg",100
Sample,12000,0,"crash.ogg",100
Sample,12000,0,"brass 001.ogg",100
Sample,12125,0,"tamb2.ogg",100
Sample,12250,0,"guitar 001.ogg",100
Sample,12250,0,"hat.ogg",100
Sample,12250,0,"tamb3.ogg",100
Sample,12375,0,"brass 002.ogg",100
Sample,12375,0,"guitar 002.ogg",100
Sample,12375,0,"tamb4.ogg",100
Sample,12500,0,"hat.ogg",100
Sample,12500,0,"bass-02.ogg",100
Sample,12500,0,"tamb1.ogg",100
Sample,12625,0,"brass 003.ogg",100
Sample,12625,0,"tamb2.ogg",100
Sample,12625,0,"guitar 003.ogg",100
Sample,12750,0,"tamb3.ogg",100
Sample,12750,0,"brass 004.ogg",100
Sample,12750,0,"guitar 004.ogg",100
Sample,12750,0,"hat.ogg",100
Sample,12875,0,"kick2.ogg",100
Sample,12875,0,"tamb4.ogg",100
Sample,13000,0,"hat.ogg",100
Sample,13000,0,"kick.ogg",100
Sample,13000,0,"guitar 005.ogg",100
Sample,13000,0,"tamb1.ogg",100
Sample,13000,0,"brass 005.ogg",100
Sample,13000,0,"bass-03.ogg",100
Sample,13000,0,"bell-G#.ogg",100
Sample,13125,0,"tamb2.ogg",100
Sample,13250,0,"tamb3.ogg",100
Sample,13250,0,"hat.ogg",100
Sample,13250,0,"kick.ogg",100
Sample,13250,0,"guitar 002.ogg",100
Sample,13375,0,"brass 006.ogg",100
Sample,13375,0,"tamb4.ogg",100
Sample,13500,0,"bass-04.ogg",100
Sample,13500,0,"hat.ogg",100
Sample,13500,0,"guitar 003.ogg",100
Sample,13500,0,"tamb1.ogg",100
Sample,13625,0,"guitar 004.ogg",100
Sample,13625,0,"tamb2.ogg",100
Sample,13750,0,"brass 007.ogg",100
Sample,13750,0,"tamb3.ogg",100
Sample,13750,0,"hat.ogg",100
Sample,13875,0,"tamb4.ogg",100
Sample,13875,0,"brass 008.ogg",100
Sample,14000,0,"tamb1.ogg",100
Sample,14000,0,"kick.ogg",100
Sample,14000,0,"hat.ogg",100
Sample,14000,0,"bass-05.ogg",100
Sample,14000,0,"brass 009.ogg",100
Sample,14000,0,"bell-B.ogg",100
Sample,14125,0,"tamb2.ogg",100
Sample,14250,0,"tamb3.ogg",100
Sample,14250,0,"hat.ogg",100
Sample,14250,0,"guitar 001.ogg",100
Sample,14375,0,"brass 010.ogg",100
Sample,14375,0,"tamb4.ogg",100
Sample,14375,0,"guitar 002.ogg",100
Sample,14500,0,"bass-02.ogg",100
Sample,14500,0,"hat.ogg",100
Sample,14500,0,"tamb1.ogg",100
Sample,14625,0,"brass 011.ogg",100
Sample,14625,0,"guitar 003.ogg",100
Sample,14625,0,"tamb2.ogg",100
Sample,14750,0,"tamb3.ogg",100
Sample,14750,0,"hat.ogg",100
Sample,14750,0,"brass 012.ogg",100
Sample,14750,0,"guitar 004.ogg",100
Sample,14875,0,"tamb4.ogg",100
Sample,14875,0,"kick2.ogg",100
Sample,15000,0,"guitar 005.ogg",100
Sample,15000,0,"brass 013.ogg",100
Sample,15000,0,"hat.ogg",100
Sample,15000,0,"kick.ogg",100
Sample,15000,0,"tamb1.ogg",100
Sample,15000,0,"bell-E.ogg",100
Sample,15000,0,"bass-07.ogg",100
Sample,15125,0,"tamb2.ogg",100
Sample,15250,0,"guitar 002.ogg",100
Sample,15250,0,"tamb3.ogg",100
Sample,15250,0,"hat.ogg",100
Sample,15250,0,"kick.ogg",100
Sample,15375,0,"tamb4.ogg",100
Sample,15375,0,"brass 014.ogg",100
Sample,15500,0,"tamb1.ogg",100
Sample,15500,0,"bass-06.ogg",100
Sample,15500,0,"guitar 003.ogg",100
Sample,15500,0,"hat.ogg",100
Sample,15625,0,"guitar 004.ogg",100
Sample,15625,0,"tamb2.ogg",100
Sample,15750,0,"hat.ogg",100
Sample,15750,0,"brass 015.ogg",100
Sample,15750,0,"tamb3.ogg",100
Sample,15875,0,"tamb4.ogg",100
Sample,16000,0,"hat.ogg",100
Sample,16000,0,"bass-01.ogg",100
Sample,16000,0,"kick.ogg",100
Sample,16000,0,"brass 016.ogg",100
Sample,16000,0,"tamb1.ogg",100
Sample,16000,0,"bell-E.ogg",100
Sample,16125,0,"tamb2.ogg",100
Sample,16250,0,"tamb3.ogg",100
Sample,16250,0,"guitar 001.ogg",100
Sample,16250,0,"brass 017.ogg",100
Sample,16250,0,"hat.ogg",100
Sample,16375,0,"brass 018.ogg",100
Sample,16375,0,"tamb4.ogg",100
Sample,16375,0,"guitar 002.ogg",100
Sample,16500,0,"tamb1.ogg",100
Sample,16500,0,"hat.ogg",100
Sample,16500,0,"bass-02.ogg",100
Sample,16625,0,"guitar 003.ogg",100
Sample,16625,0,"tamb2.ogg",100
Sample,16750,0,"brass 019.ogg",100
Sample,16750,0,"hat.ogg",100
Sample,16750,0,"tamb3.ogg",100
Sample,16750,0,"guitar 004.ogg",100
Sample,16875,0,"tamb4.ogg",100
Sample,16875,0,"kick2.ogg",100
Sample,17000,0,"tamb1.ogg",100
Sample,17000,0,"hat.ogg",100
Sample,17000,0,"bass-03.ogg",100
Sample,17000,0,"guitar 005.ogg",100
Sample,17000,0,"kick.ogg",100
Sample,17000,0,"brass 020.ogg",100
Sample,17000,0,"bell-B.ogg",100
Sample,17125,0,"tamb2.ogg",100
Sample,17250,0,"guitar 002.ogg",100
Sample,17250,0,"kick.ogg",100
Sample,17250,0,"brass 021.ogg",100
Sample,17250,0,"tamb3.ogg",100
Sample,17250,0,"hat.ogg",100
Sample,17375,0,"brass 022.ogg",100
Sample,17375,0,"tamb4.ogg",100
Sample,17500,0,"guitar 003.ogg",100
Sample,17500,0,"hat.ogg",100
Sample,17500,0,"bass-04.ogg",100
Sample,17500,0,"tamb1.ogg",100
Sample,17625,0,"guitar 004.ogg",100
Sample,17625,0,"tamb2.ogg",100
Sample,17750,0,"tamb3.ogg",100
Sample,17750,0,"brass 023.ogg",100
Sample,17750,0,"hat.ogg",100
Sample,17875,0,"tamb4.ogg",100
Sample,18000,0,"tamb1.ogg",100
Sample,18000,0,"kick.ogg",100
Sample,18000,0,"hat.ogg",100
Sample,18000,0,"bass-05.ogg",100
Sample,18000,0,"brass 024.ogg",100
Sample,18000,0,"bell-E.ogg",100
Sample,18125,0,"brass 025.ogg",100
Sample,18125,0,"tamb2.ogg",100
Sample,18250,0,"hat.ogg",100
Sample,18250,0,"guitar 001.ogg",100
Sample,18250,0,"tamb3.ogg",100
Sample,18375,0,"brass 026.ogg",100
Sample,18375,0,"guitar 002.ogg",100
Sample,18375,0,"tamb4.ogg",100
Sample,18500,0,"bass-02.ogg",100
Sample,18500,0,"tamb1.ogg",100
Sample,18500,0,"hat.ogg",100
Sample,18625,0,"guitar 003.ogg",100
Sample,18625,0,"tamb2.ogg",100
Sample,18750,0,"tamb3.ogg",100
Sample,18750,0,"hat.ogg",100
Sample,18750,0,"brass 027.ogg",100
Sample,18750,0,"guitar 004.ogg",100
Sample,18875,0,"kick2.ogg",100
Sample,18875,0,"tamb4.ogg",100
Sample,19000,0,"kick.ogg",100
Sample,19000,0,"hat.ogg",100
Sample,19000,0,"guitar 005.ogg",100
Sample,19000,0,"bell-G#.ogg",100
Sample,19000,0,"bass-07.ogg",100
Sample,19000,0,"tamb1.ogg",100
Sample,19000,0,"brass 028.ogg",100
Sample,19125,0,"tamb2.ogg",100
Sample,19250,0,"guitar 002.ogg",100
Sample,19250,0,"hat.ogg",100
Sample,19250,0,"clap.ogg",100
Sample,19250,0,"tamb3.ogg",100
Sample,19250,0,"kick.ogg",100
Sample,19375,0,"tamb4.ogg",100
Sample,19500,0,"hat.ogg",100
Sample,19500,0,"bass-08.ogg",100
Sample,19500,0,"clap.ogg",100
Sample,19500,0,"tamb1.ogg",100
Sample,19500,0,"guitar 003.ogg",100
Sample,19625,0,"guitar 004.ogg",100
Sample,19625,0,"tamb2.ogg",100
Sample,19750,0,"tamb3.ogg",100
Sample,19750,0,"hat.ogg",100
Sample,19875,0,"tamb4.ogg",100
Sample,20000,0,"brass 001.ogg",100
Sample,20000,0,"tamb1.ogg",100
Sample,20000,0,"kick.ogg",100
Sample,20000,0,"bell-E.ogg",100
Sample,20000,0,"hat.ogg",100
Sample,20000,0,"bass-01.ogg",100
Sample,20000,0,"crash.ogg",100
Sample,20125,0,"tamb2.ogg",100
Sample,20250,0,"hat.ogg",100
Sample,20250,0,"tamb3.ogg",100
Sample,20250,0,"guitar 001.ogg",100
Sample,20375,0,"brass 002.ogg",100
Sample,20375,0,"guitar 002.ogg",100
Sample,20375,0,"tamb4.ogg",100
Sample,20500,0,"bass-02.ogg",100
Sample,20500,0,"hat.ogg",100
Sample,20500,0,"tamb1.ogg",100
Sample,20625,0,"guitar 003.ogg",100
Sample,20625,0,"brass 003.ogg",100
Sample,20625,0,"tamb2.ogg",100
Sample,20750,0,"tamb3.ogg",100
Sample,20750,0,"brass 004.ogg",100
Sample,20750,0,"guitar 004.ogg",100
Sample,20750,0,"hat.ogg",100
Sample,20875,0,"tamb4.ogg",100
Sample,20875,0,"kick2.ogg",100
Sample,21000,0,"tamb1.ogg",100
Sample,21000,0,"hat.ogg",100
Sample,21000,0,"kick.ogg",100
Sample,21000,0,"guitar 005.ogg",100
Sample,21000,0,"brass 005.ogg",100
Sample,21000,0,"bass-03.ogg",100
Sample,21125,0,"tamb2.ogg",100
Sample,21250,0,"kick.ogg",100
Sample,21250,0,"hat.ogg",100
Sample,21250,0,"guitar 002.ogg",100
Sample,21250,0,"tamb3.ogg",100
Sample,21375,0,"tamb4.ogg",100
Sample,21375,0,"brass 006.ogg",100
Sample,21500,0,"bass-04.ogg",100
Sample,21500,0,"tamb1.ogg",100
Sample,21500,0,"guitar 003.ogg",100
Sample,21500,0,"hat.ogg",100
Sample,21625,0,"guitar 004.ogg",100
Sample,21625,0,"tamb2.ogg",100
Sample,21750,0,"hat.ogg",100
Sample,21750,0,"tamb3.ogg",100
Sample,21750,0,"brass 007.ogg",100
Sample,21875,0,"tamb4.ogg",100
Sample,21875,0,"brass 008.ogg",100
Sample,22000,0,"tamb1.ogg",100
Sample,22000,0,"hat.ogg",100
Sample,22000,0,"bass-05.ogg",100
Sample,22000,0,"kick.ogg",100
Sample,22000,0,"brass 009.ogg",100
Sample,22000,0,"bell-B.ogg",100
Sample,22125,0,"tamb2.ogg",100
Sample,22250,0,"guitar 001.ogg",100
Sample,22250,0,"hat.ogg",100
Sample,22250,0,"tamb3.ogg",100
Sample,22375,0,"tamb4.ogg",100
Sample,22375,0,"brass 010.ogg",100
Sample,22375,0,"guitar 002.ogg",100
Sample,22500,0,"hat.ogg",100
Sample,22500,0,"bass-02.ogg",100
Sample,22500,0,"tamb1.ogg",100
Sample,22625,0,"guitar 003.ogg",100
Sample,22625,0,"brass 011.ogg",100
Sample,22625,0,"tamb2.ogg",100
Sample,22750,0,"tamb3.ogg",100
Sample,22750,0,"brass 012.ogg",100
Sample,22750,0,"hat.ogg",100
Sample,22750,0,"guitar 004.ogg",100
Sample,22875,0,"kick2.ogg",100
Sample,22875,0,"tamb4.ogg",100
Sample,23000,0,"kick.ogg",100
Sample,23000,0,"hat.ogg",100
Sample,23000,0,"guitar 005.ogg",100
Sample,23000,0,"brass 013.ogg",100
Sample,23000,0,"bass-07.ogg",100
Sample,23000,0,"tamb1.ogg",100
Sample,23125,0,"tamb2.ogg",100
Sample,23250,0,"kick.ogg",100
Sample,23250,0,"tamb3.ogg",100
Sample,23250,0,"hat.ogg",100
Sample,23250,0,"guitar 002.ogg",100
Sample,23375,0,"brass 014.ogg",100
Sample,23375,0,"tamb4.ogg",100
Sample,23500,0,"hat.ogg",100
Sample,23500,0,"tamb1.ogg",100
Sample,23500,0,"guitar 003.ogg",100
Sample,23500,0,"bass-06.ogg",100
Sample,23625,0,"guitar 004.ogg",100
Sample,23625,0,"tamb2.ogg",100
Sample,23750,0,"hat.ogg",100
Sample,23750,0,"brass 015.ogg",100
Sample,23750,0,"tamb3.ogg",100
Sample,23875,0,"tamb4.ogg",100
Sample,24000,0,"bass-01.ogg",100
Sample,24000,0,"kick.ogg",100
Sample,24000,0,"bell-E.ogg",100
Sample,24000,0,"brass 016.ogg",100
Sample,24000,0,"tamb1.ogg",100
Sample,24000,0,"hat.ogg",100
Sample,24125,0,"tamb2.ogg",100
Sample,24250,0,"tamb3.ogg",100
Sample,24250,0,"hat.ogg",100
Sample,24250,0,"brass 017.ogg",100
Sample,24250,0,"guitar 001.ogg",100
Sample,24375,0,"brass 018.ogg",100
Sample,24375,0,"tamb4.ogg",100
Sample,24375,0,"guitar 002.ogg",100
Sample,24500,0,"bass-02.ogg",100
Sample,24500,0,"tamb1.ogg",100
Sample,24500,0,"hat.ogg",100
Sample,24625,0,"guitar 003.ogg",100
Sample,24625,0,"tamb2.ogg",100
Sample,24750,0,"guitar 004.ogg",100
Sample,24750,0,"tamb3.ogg",100
Sample,24750,0,"brass 019.ogg",100
Sample,24750,0,"hat.ogg",100
Sample,24875,0,"tamb4.ogg",100
Sample,24875,0,"kick2.ogg",100
Sample,25000,0,"bass-03.ogg",100
Sample,25000,0,"hat.ogg",100
Sample,25000,0,"guitar 005.ogg",100
Sample,25000,0,"tamb1.ogg",100
Sample,25000,0,"brass 020.ogg",100
Sample,25000,0,"kick.ogg",100
Sample,25000,0,"bell-B.ogg",100
Sample,25125,0,"tamb2.ogg",100
Sample,25250,0,"kick.ogg",100
Sample,25250,0,"brass 021.ogg",100
Sample,25250,0,"tamb3.ogg",100
Sample,25250,0,"hat.ogg",100
Sample,25250,0,"guitar 002.ogg",100
Sample,25375,0,"brass 022.ogg",100
Sample,25375,0,"tamb4.ogg",100
Sample,25500,0,"guitar 003.ogg",100
Sample,25500,0,"hat.ogg",100
Sample,25500,0,"bass-04.ogg",100
Sample,25500,0,"tamb1.ogg",100
Sample,25625,0,"guitar 004.ogg",100
Sample,25625,0,"tamb2.ogg",100
Sample,25750,0,"tamb3.ogg",100
Sample,25750,0,"brass 023.ogg",100
Sample,25750,0,"hat.ogg",100
Sample,25875,0,"tamb4.ogg",100
Sample,26000,0,"kick.ogg",100
Sample,26000,0,"hat.ogg",100
Sample,26000,0,"bell-E.ogg",100
Sample,26000,0,"tamb1.ogg",100
Sample,26000,0,"brass 029.ogg",100
Sample,26000,0,"bass-05.ogg",100
Sample,26125,0,"brass 030.ogg",100
Sample,26125,0,"tamb2.ogg",100
Sample,26250,0,"tamb3.ogg",100
Sample,26250,0,"guitar 001.ogg",100
Sample,26250,0,"hat.ogg",100
Sample,26375,0,"tamb4.ogg",100
Sample,26375,0,"brass 031.ogg",100
Sample,26375,0,"guitar 002.ogg",100
Sample,26500,0,"bass-02.ogg",100
Sample,26500,0,"tamb1.ogg",100
Sample,26500,0,"hat.ogg",100
Sample,26625,0,"guitar 003.ogg",100
Sample,26625,0,"tamb2.ogg",100
Sample,26750,0,"tamb3.ogg",100
Sample,26750,0,"guitar 004.ogg",100
Sample,26750,0,"hat.ogg",100
Sample,26750,0,"brass 032.ogg",100
Sample,26875,0,"kick2.ogg",100
Sample,26875,0,"tamb4.ogg",100
Sample,27000,0,"hat.ogg",100
Sample,27000,0,"tamb1.ogg",100
Sample,27000,0,"guitar 005.ogg",100
Sample,27000,0,"brass 033.ogg",100
Sample,27000,0,"bass-05.ogg",100
Sample,27000,0,"kick.ogg",100
Sample,27125,0,"tamb2.ogg",100
Sample,27250,0,"kick.ogg",100
Sample,27250,0,"guitar 002.ogg",100
Sample,27250,0,"tamb3.ogg",100
Sample,27250,0,"hat.ogg",100
Sample,27375,0,"tamb4.ogg",100
Sample,27500,0,"tamb1.ogg",100
Sample,27500,0,"guitar 003.ogg",100
Sample,27500,0,"hat.ogg",100
Sample,27625,0,"guitar 004.ogg",100
Sample,27625,0,"tamb2.ogg",100
Sample,27750,0,"hat.ogg",100
Sample,27750,0,"vc 001.ogg",100
Sample,27750,0,"tamb3.ogg",100
Sample,27875,0,"tamb4.ogg",100
Sample,27875,0,"vc 002.ogg",100
Sample,28000,0,"tamb1.ogg",100
Sample,28000,0,"kick.ogg",100
Sample,28000,0,"bass-01.ogg",100
Sample,28000,0,"bell-E.ogg",100
Sample,28000,0,"crash.ogg",100
Sample,28000,0,"vc 003.ogg",100
Sample,28000,0,"hat.ogg",100
Sample,28125,0,"vc 004.ogg",100
Sample,28125,0,"tamb2.ogg",100
Sample,28250,0,"tamb3.ogg",100
Sample,28250,0,"vc 005.ogg",100
Sample,28250,0,"guitar 001.ogg",100
Sample,28250,0,"hat.ogg",100
Sample,28375,0,"vc 006.ogg",100
Sample,28375,0,"tamb4.ogg",100
Sample,28375,0,"guitar 002.ogg",100
Sample,28500,0,"tamb1.ogg",100
Sample,28500,0,"bass-02.ogg",100
Sample,28500,0,"vc 007.ogg",100
Sample,28500,0,"hat.ogg",100
Sample,28625,0,"guitar 003.ogg",100
Sample,28625,0,"tamb2.ogg",100
Sample,28750,0,"hat.ogg",100
Sample,28750,0,"guitar 004.ogg",100
Sample,28750,0,"tamb3.ogg",100
Sample,28750,0,"vc 008.ogg",100
Sample,28875,0,"tamb4.ogg",100
Sample,28875,0,"vc 009.ogg",100
Sample,28875,0,"kick2.ogg",100
Sample,29000,0,"vc 010.ogg",100
Sample,29000,0,"tamb1.ogg",100
Sample,29000,0,"bass-03.ogg",100
Sample,29000,0,"kick.ogg",100
Sample,29000,0,"bell-F#.ogg",100
Sample,29000,0,"guitar 005.ogg",100
Sample,29000,0,"hat.ogg",100
Sample,29125,0,"tamb2.ogg",100
Sample,29250,0,"tamb3.ogg",100
Sample,29250,0,"guitar 006.ogg",100
Sample,29250,0,"hat.ogg",100
Sample,29250,0,"vc 011.ogg",100
Sample,29250,0,"kick.ogg",100
Sample,29375,0,"tamb4.ogg",100
Sample,29500,0,"bass-04.ogg",100
Sample,29500,0,"vc 012.ogg",100
Sample,29500,0,"hat.ogg",100
Sample,29500,0,"tamb1.ogg",100
Sample,29500,0,"guitar 007.ogg",100
Sample,29625,0,"guitar 008.ogg",100
Sample,29625,0,"tamb2.ogg",100
Sample,29750,0,"tamb3.ogg",100
Sample,29750,0,"vc 013.ogg",100
Sample,29750,0,"hat.ogg",100
Sample,29875,0,"tamb4.ogg",100
Sample,29875,0,"vc 014.ogg",100
Sample,30000,0,"kick.ogg",100
Sample,30000,0,"bass-05.ogg",100
Sample,30000,0,"tamb1.ogg",100
Sample,30000,0,"hat.ogg",100
Sample,30000,0,"bell-G#.ogg",100
Sample,30125,0,"tamb2.ogg",100
Sample,30250,0,"vc 015.ogg",100
Sample,30250,0,"guitar 001.ogg",100
Sample,30250,0,"tamb3.ogg",100
Sample,30250,0,"hat.ogg",100
Sample,30375,0,"tamb4.ogg",100
Sample,30375,0,"vc 016.ogg",100
Sample,30375,0,"guitar 002.ogg",100
Sample,30500,0,"bass-02.ogg",100
Sample,30500,0,"tamb1.ogg",100
Sample,30500,0,"hat.ogg",100
Sample,30500,0,"vc 017.ogg",100
Sample,30625,0,"guitar 003.ogg",100
Sample,30625,0,"tamb2.ogg",100
Sample,30625,0,"vc 018.ogg",100
Sample,30750,0,"tamb3.ogg",100
Sample,30750,0,"guitar 004.ogg",100
Sample,30750,0,"hat.ogg",100
Sample,30750,0,"vc 019.ogg",100
Sample,30875,0,"vc 020.ogg",100
Sample,30875,0,"tamb4.ogg",100
Sample,30875,0,"kick2.ogg",100
Sample,31000,0,"guitar 005.ogg",100
Sample,31000,0,"kick.ogg",100
Sample,31000,0,"bass-07.ogg",100
Sample,31000,0,"hat.ogg",100
Sample,31000,0,"vc 021.ogg",100
Sample,31000,0,"bell-E.ogg",100
Sample,31000,0,"tamb1.ogg",100
Sample,31125,0,"vc 022.ogg",100
Sample,31125,0,"tamb2.ogg",100
Sample,31250,0,"vc 023.ogg",100
Sample,31250,0,"tamb3.ogg",100
Sample,31250,0,"guitar 002.ogg",100
Sample,31250,0,"kick.ogg",100
Sample,31250,0,"hat.ogg",100
Sample,31375,0,"tamb4.ogg",100
Sample,31375,0,"vc 024.ogg",100
Sample,31500,0,"bass-06.ogg",100
Sample,31500,0,"tamb1.ogg",100
Sample,31500,0,"hat.ogg",100
Sample,31500,0,"guitar 003.ogg",100
Sample,31625,0,"guitar 004.ogg",100
Sample,31625,0,"vc 025.ogg",100
Sample,31625,0,"tamb2.ogg",100
Sample,31750,0,"hat.ogg",100
Sample,31750,0,"tamb3.ogg",100
Sample,31875,0,"tamb4.ogg",100
Sample,31875,0,"vc 026.ogg",100
Sample,32000,0,"kick.ogg",100
Sample,32000,0,"bass-01.ogg",100
Sample,32000,0,"tamb1.ogg",100
Sample,32000,0,"hat.ogg",100
Sample,32000,0,"bell-E.ogg",100
Sample,32000,0,"vc 027.ogg",100
Sample,32125,0,"tamb2.ogg",100
Sample,32250,0,"guitar 001.ogg",100
Sample,32250,0,"hat.ogg",100
Sample,32250,0,"tamb3.ogg",100
Sample,32250,0,"vc 028.ogg",100
Sample,32375,0,"guitar 002.ogg",100
Sample,32375,0,"tamb4.ogg",100
Sample,32375,0,"vc 029.ogg",100
Sample,32500,0,"tamb1.ogg",100
Sample,32500,0,"hat.ogg",100
Sample,32500,0,"bass-02.ogg",100
Sample,32625,0,"tamb2.ogg",100
Sample,32625,0,"guitar 003.ogg",100
Sample,32750,0,"tamb3.ogg",100
Sample,32750,0,"hat.ogg",100
Sample,32750,0,"guitar 004.ogg",100
Sample,32875,0,"kick2.ogg",100
Sample,32875,0,"vc 030.ogg",100
Sample,32875,0,"tamb4.ogg",100
Sample,33000,0,"hat.ogg",100
Sample,33000,0,"bell-F#.ogg",100
Sample,33000,0,"vc 031.ogg",100
Sample,33000,0,"bass-03.ogg",100
Sample,33000,0,"guitar 005.ogg",100
Sample,33000,0,"tamb1.ogg",100
Sample,33000,0,"kick.ogg",100
Sample,33125,0,"tamb2.ogg",100
Sample,33125,0,"vc 032.ogg",100
Sample,33250,0,"kick.ogg",100
Sample,33250,0,"hat.ogg",100
Sample,33250,0,"vc 033.ogg",100
Sample,33250,0,"tamb3.ogg",100
Sample,33250,0,"guitar 006.ogg",100
Sample,33375,0,"tamb4.ogg",100
Sample,33375,0,"vc 034.ogg",100
Sample,33500,0,"hat.ogg",100
Sample,33500,0,"bass-04.ogg",100
Sample,33500,0,"guitar 007.ogg",100
Sample,33500,0,"tamb1.ogg",100
Sample,33625,0,"vc 035.ogg",100
Sample,33625,0,"tamb2.ogg",100
Sample,33625,0,"guitar 008.ogg",100
Sample,33750,0,"hat.ogg",100
Sample,33750,0,"tamb3.ogg",100
Sample,33750,0,"vc 036.ogg",100
Sample,33875,0,"tamb4.ogg",100
Sample,33875,0,"vc 037.ogg",100
Sample,34000,0,"kick.ogg",100
Sample,34000,0,"bass-05.ogg",100
Sample,34000,0,"vc 038.ogg",100
Sample,34000,0,"hat.ogg",100
Sample,34000,0,"bell-G#.ogg",100
Sample,34000,0,"tamb1.ogg",100
Sample,34125,0,"vc 039.ogg",100
Sample,34125,0,"tamb2.ogg",100
Sample,34250,0,"hat.ogg",100
Sample,34250,0,"guitar 001.ogg",100
Sample,34250,0,"tamb3.ogg",100
Sample,34375,0,"guitar 002.ogg",100
Sample,34375,0,"tamb4.ogg",100
Sample,34500,0,"hat.ogg",100
Sample,34500,0,"vc 040.ogg",100
Sample,34500,0,"tamb1.ogg",100
Sample,34500,0,"bass-02.ogg",100
Sample,34625,0,"guitar 003.ogg",100
Sample,34625,0,"tamb2.ogg",100
Sample,34750,0,"tamb3.ogg",100
Sample,34750,0,"guitar 004.ogg",100
Sample,34750,0,"hat.ogg",100
Sample,34750,0,"vc 041.ogg",100
Sample,34875,0,"kick2.ogg",100
Sample,34875,0,"vc 042.ogg",100
Sample,34875,0,"tamb4.ogg",100
Sample,35000,0,"hat.ogg",100
Sample,35000,0,"tamb1.ogg",100
Sample,35000,0,"bell-E.ogg",100
Sample,35000,0,"bass-07.ogg",100
Sample,35000,0,"guitar 005.ogg",100
Sample,35000,0,"vc 043.ogg",100
Sample,35000,0,"kick.ogg",100
Sample,35125,0,"tamb2.ogg",100
Sample,35125,0,"vc 044.ogg",100
Sample,35250,0,"guitar 002.ogg",100
Sample,35250,0,"hat.ogg",100
Sample,35250,0,"tamb3.ogg",100
Sample,35250,0,"kick.ogg",100
Sample,35250,0,"vc 045.ogg",100
Sample,35375,0,"tamb4.ogg",100
Sample,35375,0,"vc 046.ogg",100
Sample,35500,0,"tamb1.ogg",100
Sample,35500,0,"guitar 003.ogg",100
Sample,35500,0,"bass-08.ogg",100
Sample,35500,0,"hat.ogg",100
Sample,35625,0,"tamb2.ogg",100
Sample,35625,0,"guitar 004.ogg",100
Sample,35750,0,"tamb3.ogg",100
Sample,35750,0,"vc 047.ogg",100
Sample,35750,0,"hat.ogg",100
Sample,35875,0,"tamb4.ogg",100
Sample,36000,0,"kick.ogg",100
Sample,36000,0,"bass-01.ogg",100
Sample,36000,0,"vc 048.ogg",100
Sample,36000,0,"hat.ogg",100
Sample,36000,0,"bell-E.ogg",100
Sample,36000,0,"tamb1.ogg",100
Sample,36125,0,"tamb2.ogg",100
Sample,36125,0,"vc 049.ogg",100
Sample,36250,0,"guitar 001.ogg",100
Sample,36250,0,"vc 050.ogg",100
Sample,36250,0,"hat.ogg",100
Sample,36250,0,"tamb3.ogg",100
Sample,36375,0,"vc 051.ogg",100
Sample,36375,0,"guitar 002.ogg",100
Sample,36375,0,"tamb4.ogg",100
Sample,36500,0,"hat.ogg",100
Sample,36500,0,"tamb1.ogg",100
Sample,36500,0,"bass-02.ogg",100
Sample,36500,0,"vc 052.ogg",100
Sample,36625,0,"guitar 003.ogg",100
Sample,36625,0,"tamb2.ogg",100
Sample,36750,0,"vc 053.ogg",100
Sample,36750,0,"guitar 004.ogg",100
Sample,36750,0,"hat.ogg",100
Sample,36750,0,"tamb3.ogg",100
Sample,36875,0,"kick2.ogg",100
Sample,36875,0,"tamb4.ogg",100
Sample,37000,0,"bell-F#.ogg",100
Sample,37000,0,"tamb1.ogg",100
Sample,37000,0,"bass-03.ogg",100
Sample,37000,0,"vc 054.ogg",100
Sample,37000,0,"kick.ogg",100
Sample,37000,0,"hat.ogg",100
Sample,37000,0,"guitar 005.ogg",100
Sample,37125,0,"vc 055.ogg",100
Sample,37125,0,"tamb2.ogg",100
Sample,37250,0,"kick.ogg",100
Sample,37250,0,"tamb3.ogg",100
Sample,37250,0,"guitar 006.ogg",100
Sample,37250,0,"vc 056.ogg",100
Sample,37250,0,"hat.ogg",100
Sample,37375,0,"tamb4.ogg",100
Sample,37500,0,"bass-04.ogg",100
Sample,37500,0,"tamb1.ogg",100
Sample,37500,0,"hat.ogg",100
Sample,37500,0,"guitar 007.ogg",100
Sample,37625,0,"guitar 008.ogg",100
Sample,37625,0,"tamb2.ogg",100
Sample,37750,0,"hat.ogg",100
Sample,37750,0,"vc 057.ogg",100
Sample,37750,0,"tamb3.ogg",100
Sample,37875,0,"tamb4.ogg",100
Sample,37875,0,"vc 058.ogg",100
Sample,38000,0,"kick.ogg",100
Sample,38000,0,"bass-05.ogg",100
Sample,38000,0,"tamb1.ogg",100
Sample,38000,0,"hat.ogg",100
Sample,38000,0,"bell-G#.ogg",100
Sample,38000,0,"vc 059.ogg",100
Sample,38125,0,"tamb2.ogg",100
Sample,38125,0,"vc 060.ogg",100
Sample,38250,0,"vc 061.ogg",100
Sample,38250,0,"hat.ogg",100
Sample,38250,0,"tamb3.ogg",100
Sample,38250,0,"guitar 001.ogg",100
Sample,38375,0,"tamb4.ogg",100
Sample,38375,0,"guitar 002.ogg",100
Sample,38375,0,"vc 062.ogg",100
Sample,38500,0,"tamb1.ogg",100
Sample,38500,0,"hat.ogg",100
Sample,38500,0,"bass-02.ogg",100
Sample,38500,0,"vc 063.ogg",100
Sample,38625,0,"guitar 003.ogg",100
Sample,38625,0,"tamb2.ogg",100
Sample,38687,0,"vc 064.ogg",100
Sample,38750,0,"vc 065.ogg",100
Sample,38750,0,"guitar 004.ogg",100
Sample,38750,0,"hat.ogg",100
Sample,38750,0,"tamb3.ogg",100
Sample,38875,0,"kick2.ogg",100
Sample,38875,0,"vc 066.ogg",100
Sample,38875,0,"tamb4.ogg",100
Sample,39000,0,"tamb1.ogg",100
Sample,39000,0,"bell-E.ogg",100
Sample,39000,0,"guitar 005.ogg",100
Sample,39000,0,"kick.ogg",100
Sample,39000,0,"hat.ogg",100
Sample,39000,0,"vc 067.ogg",100
Sample,39000,0,"bass-07.ogg",100
Sample,39125,0,"vc 068.ogg",100
Sample,39125,0,"tamb2.ogg",100
Sample,39250,0,"kick.ogg",100
Sample,39250,0,"vc 069.ogg",100
Sample,39250,0,"guitar 002.ogg",100
Sample,39250,0,"tamb3.ogg",100
Sample,39250,0,"hat.ogg",100
Sample,39375,0,"tamb4.ogg",100
Sample,39375,0,"vc 070.ogg",100
Sample,39500,0,"bass-06.ogg",100
Sample,39500,0,"vc 071.ogg",100
Sample,39500,0,"hat.ogg",100
Sample,39500,0,"tamb1.ogg",100
Sample,39500,0,"guitar 003.ogg",100
Sample,39625,0,"guitar 004.ogg",100
Sample,39625,0,"tamb2.ogg",100
Sample,39750,0,"hat.ogg",100
Sample,39750,0,"tamb3.ogg",100
Sample,39875,0,"tamb4.ogg",100
Sample,40000,0,"kick.ogg",100
Sample,40000,0,"bass-01.ogg",100
Sample,40000,0,"vc 072.ogg",100
Sample,40000,0,"hat.ogg",100
Sample,40000,0,"bell-E.ogg",100
Sample,40000,0,"tamb1.ogg",100
Sample,40125,0,"vc 073.ogg",100
Sample,40125,0,"tamb2.ogg",100
Sample,40250,0,"guitar 001.ogg",100
Sample,40250,0,"tamb3.ogg",100
Sample,40250,0,"vc 074.ogg",100
Sample,40250,0,"hat.ogg",100
Sample,40375,0,"tamb4.ogg",100
Sample,40375,0,"vc 075.ogg",100
Sample,40375,0,"guitar 002.ogg",100
Sample,40500,0,"hat.ogg",100
Sample,40500,0,"vc 076.ogg",100
Sample,40500,0,"tamb1.ogg",100
Sample,40500,0,"bass-02.ogg",100
Sample,40625,0,"guitar 003.ogg",100
Sample,40625,0,"tamb2.ogg",100
Sample,40625,0,"vc 077.ogg",100
Sample,40750,0,"tamb3.ogg",100
Sample,40750,0,"guitar 004.ogg",100
Sample,40750,0,"vc 078.ogg",100
Sample,40750,0,"hat.ogg",100
Sample,40875,0,"tamb4.ogg",100
Sample,40875,0,"kick2.ogg",100
Sample,40875,0,"vc 079.ogg",100
Sample,41000,0,"bell-F#.ogg",100
Sample,41000,0,"vc 080.ogg",100
Sample,41000,0,"kick.ogg",100
Sample,41000,0,"bass-03.ogg",100
Sample,41000,0,"hat.ogg",100
Sample,41000,0,"tamb1.ogg",100
Sample,41000,0,"guitar 005.ogg",100
Sample,41125,0,"vc 081.ogg",100
Sample,41125,0,"tamb2.ogg",100
Sample,41250,0,"kick.ogg",100
Sample,41250,0,"vc 082.ogg",100
Sample,41250,0,"hat.ogg",100
Sample,41250,0,"guitar 006.ogg",100
Sample,41250,0,"tamb3.ogg",100
Sample,41375,0,"vc 083.ogg",100
Sample,41375,0,"tamb4.ogg",100
Sample,41500,0,"tamb1.ogg",100
Sample,41500,0,"bass-04.ogg",100
Sample,41500,0,"guitar 007.ogg",100
Sample,41500,0,"vc 084.ogg",100
Sample,41500,0,"hat.ogg",100
Sample,41625,0,"guitar 008.ogg",100
Sample,41625,0,"vc 085.ogg",100
Sample,41625,0,"tamb2.ogg",100
Sample,41750,0,"tamb3.ogg",100
Sample,41750,0,"hat.ogg",100
Sample,41875,0,"tamb4.ogg",100
Sample,42000,0,"bass-05.ogg",100
Sample,42000,0,"kick.ogg",100
Sample,42000,0,"vc 086.ogg",100
Sample,42000,0,"bell-G#.ogg",100
Sample,42000,0,"hat.ogg",100
Sample,42000,0,"tamb1.ogg",100
Sample,42125,0,"tamb2.ogg",100
Sample,42250,0,"vc 087.ogg",100
Sample,42250,0,"tamb3.ogg",100
Sample,42250,0,"guitar 001.ogg",100
Sample,42250,0,"hat.ogg",100
Sample,42375,0,"vc 088.ogg",100
Sample,42375,0,"tamb4.ogg",100
Sample,42375,0,"guitar 002.ogg",100
Sample,42500,0,"hat.ogg",100
Sample,42500,0,"tamb1.ogg",100
Sample,42500,0,"vc 089.ogg",100
Sample,42500,0,"bass-03.ogg",100
Sample,42625,0,"tamb2.ogg",100
Sample,42625,0,"guitar 003.ogg",100
Sample,42750,0,"vc 090.ogg",100
Sample,42750,0,"hat.ogg",100
Sample,42750,0,"guitar 004.ogg",100
Sample,42750,0,"tamb3.ogg",100
Sample,42875,0,"tamb4.ogg",100
Sample,42875,0,"vc 091.ogg",100
Sample,42875,0,"kick2.ogg",100
Sample,43000,0,"tamb1.ogg",100
Sample,43000,0,"bell-E.ogg",100
Sample,43000,0,"guitar 005.ogg",100
Sample,43000,0,"hat.ogg",100
Sample,43000,0,"kick.ogg",100
Sample,43000,0,"vc 092.ogg",100
Sample,43000,0,"bass-05.ogg",100
Sample,43125,0,"tamb2.ogg",100
Sample,43125,0,"vc 093.ogg",100
Sample,43250,0,"vc 094.ogg",100
Sample,43250,0,"kick.ogg",100
Sample,43250,0,"hat.ogg",100
Sample,43250,0,"tamb3.ogg",100
Sample,43250,0,"guitar 002.ogg",100
Sample,43375,0,"tamb4.ogg",100
Sample,43375,0,"vc 095.ogg",100
Sample,43500,0,"guitar 003.ogg",100
Sample,43500,0,"tamb1.ogg",100
Sample,43500,0,"hat.ogg",100
Sample,43625,0,"tamb2.ogg",100
Sample,43625,0,"guitar 004.ogg",100
Sample,43750,0,"tamb3.ogg",100
Sample,43750,0,"hat.ogg",100
Sample,43875,0,"tamb4.ogg",100
Sample,44000,0,"bell-E.ogg",100
Sample,44000,0,"bass-01.ogg",100
Sample,44000,0,"tamb1.ogg",100
Sample,44000,0,"kick.ogg",100
Sample,44000,0,"crash.ogg",100
Sample,44000,0,"3-ep-01.ogg",100
Sample,44000,0,"hat.ogg",100
Sample,44125,0,"tamb2.ogg",100
Sample,44250,0,"tamb3.ogg",100
Sample,44250,0,"hat.ogg",100
Sample,44250,0,"guitar 001.ogg",100
Sample,44375,0,"guitar 002.ogg",100
Sample,44375,0,"tamb4.ogg",100
Sample,44500,0,"bass-02.ogg",100
Sample,44500,0,"snare.ogg",100
Sample,44500,0,"tamb1.ogg",100
Sample,44500,0,"hat.ogg",100
Sample,44625,0,"guitar 003.ogg",100
Sample,44625,0,"tamb2.ogg",100
Sample,44750,0,"guitar 004.ogg",100
Sample,44750,0,"hat.ogg",100
Sample,44750,0,"tamb3.ogg",100
Sample,44875,0,"kick2.ogg",100
Sample,44875,0,"tamb4.ogg",100
Sample,45000,0,"kick.ogg",100
Sample,45000,0,"bass-03.ogg",100
Sample,45000,0,"tamb1.ogg",100
Sample,45000,0,"hat.ogg",100
Sample,45000,0,"guitar 005.ogg",100
Sample,45000,0,"3-ep-02.ogg",100
Sample,45125,0,"tamb2.ogg",100
Sample,45250,0,"guitar 006.ogg",100
Sample,45250,0,"kick.ogg",100
Sample,45250,0,"hat.ogg",100
Sample,45250,0,"tamb3.ogg",100
Sample,45375,0,"tamb4.ogg",100
Sample,45500,0,"snare.ogg",100
Sample,45500,0,"tamb1.ogg",100
Sample,45500,0,"bass-04.ogg",100
Sample,45500,0,"guitar 007.ogg",100
Sample,45500,0,"hat.ogg",100
Sample,45625,0,"tamb2.ogg",100
Sample,45625,0,"guitar 008.ogg",100
Sample,45750,0,"hat.ogg",100
Sample,45750,0,"tamb3.ogg",100
Sample,45875,0,"tamb4.ogg",100
Sample,46000,0,"tamb1.ogg",100
Sample,46000,0,"kick.ogg",100
Sample,46000,0,"bass-08.ogg",100
Sample,46000,0,"3-ep-03.ogg",100
Sample,46000,0,"hat.ogg",100
Sample,46125,0,"tamb2.ogg",100
Sample,46250,0,"tamb3.ogg",100
Sample,46250,0,"hat.ogg",100
Sample,46250,0,"guitar 007.ogg",100
Sample,46375,0,"guitar 008.ogg",100
Sample,46375,0,"tamb4.ogg",100
Sample,46500,0,"tamb1.ogg",100
Sample,46500,0,"snare.ogg",100
Sample,46500,0,"hat.ogg",100
Sample,46500,0,"bass-21.ogg",100
Sample,46625,0,"tamb2.ogg",100
Sample,46625,0,"guitar 007.ogg",100
Sample,46750,0,"hat.ogg",100
Sample,46750,0,"guitar 006.ogg",100
Sample,46750,0,"tamb3.ogg",100
Sample,46875,0,"kick2.ogg",100
Sample,46875,0,"tamb4.ogg",100
Sample,47000,0,"hat.ogg",100
Sample,47000,0,"bass-07.ogg",100
Sample,47000,0,"guitar 005.ogg",100
Sample,47000,0,"kick.ogg",100
Sample,47000,0,"3-ep-04.ogg",100
Sample,47000,0,"tamb1.ogg",100
Sample,47125,0,"tamb2.ogg",100
Sample,47250,0,"kick.ogg",100
Sample,47250,0,"guitar 001.ogg",100
Sample,47250,0,"hat.ogg",100
Sample,47250,0,"tamb3.ogg",100
Sample,47375,0,"tamb4.ogg",100
Sample,47500,0,"bass-06.ogg",100
Sample,47500,0,"snare.ogg",100
Sample,47500,0,"guitar 003.ogg",100
Sample,47500,0,"tamb1.ogg",100
Sample,47500,0,"hat.ogg",100
Sample,47625,0,"guitar 002.ogg",100
Sample,47625,0,"tamb2.ogg",100
Sample,47750,0,"hat.ogg",100
Sample,47750,0,"tamb3.ogg",100
Sample,47875,0,"tamb4.ogg",100
Sample,48000,0,"fuwafuwa 015.ogg",100
Sample,48000,0,"bass-01.ogg",100
Sample,48000,0,"tamb1.ogg",100
Sample,48000,0,"kick.ogg",100
Sample,48000,0,"bell-E.ogg",100
Sample,48000,0,"hat.ogg",100
Sample,48125,0,"tamb2.ogg",100
Sample,48125,0,"fuwafuwa 016.ogg",100
Sample,48250,0,"tamb3.ogg",100
Sample,48250,0,"fuwafuwa 017.ogg",100
Sample,48250,0,"guitar 001.ogg",100
Sample,48250,0,"hat.ogg",100
Sample,48375,0,"fuwafuwa 018.ogg",100
Sample,48375,0,"tamb4.ogg",100
Sample,48375,0,"guitar 002.ogg",100
Sample,48500,0,"hat.ogg",100
Sample,48500,0,"tamb1.ogg",100
Sample,48500,0,"bass-02.ogg",100
Sample,48625,0,"guitar 003.ogg",100
Sample,48625,0,"tamb2.ogg",100
Sample,48625,0,"fuwafuwa 019.ogg",100
Sample,48750,0,"guitar 004.ogg",100
Sample,48750,0,"tamb3.ogg",100
Sample,48750,0,"fuwafuwa 020.ogg",100
Sample,48750,0,"hat.ogg",100
Sample,48875,0,"kick2.ogg",100
Sample,48875,0,"tamb4.ogg",100
Sample,49000,0,"guitar 005.ogg",100
Sample,49000,0,"fuwafuwa 021.ogg",100
Sample,49000,0,"tamb1.ogg",100
Sample,49000,0,"bass-03.ogg",100
Sample,49000,0,"hat.ogg",100
Sample,49000,0,"kick.ogg",100
Sample,49125,0,"fuwafuwa 022.ogg",100
Sample,49125,0,"tamb2.ogg",100
Sample,49250,0,"hat.ogg",100
Sample,49250,0,"guitar 002.ogg",100
Sample,49250,0,"tamb3.ogg",100
Sample,49250,0,"kick.ogg",100
Sample,49375,0,"tamb4.ogg",100
Sample,49375,0,"fuwafuwa 023.ogg",100
Sample,49500,0,"bass-04.ogg",100
Sample,49500,0,"guitar 003.ogg",100
Sample,49500,0,"hat.ogg",100
Sample,49500,0,"tamb1.ogg",100
Sample,49625,0,"tamb2.ogg",100
Sample,49625,0,"guitar 004.ogg",100
Sample,49625,0,"fuwafuwa 024.ogg",100
Sample,49750,0,"tamb3.ogg",100
Sample,49750,0,"fuwafuwa 025.ogg",100
Sample,49750,0,"hat.ogg",100
Sample,49875,0,"tamb4.ogg",100
Sample,49937,0,"fuwafuwa 026.ogg",100
Sample,50000,0,"kick.ogg",100
Sample,50000,0,"bass-05.ogg",100
Sample,50000,0,"tamb1.ogg",100
Sample,50000,0,"hat.ogg",100
Sample,50125,0,"tamb2.ogg",100
Sample,50250,0,"tamb3.ogg",100
Sample,50250,0,"guitar 001.ogg",100
Sample,50250,0,"hat.ogg",100
Sample,50375,0,"guitar 002.ogg",100
Sample,50375,0,"tamb4.ogg",100
Sample,50375,0,"fuwafuwa 027.ogg",100
Sample,50500,0,"tamb1.ogg",100
Sample,50500,0,"bass-02.ogg",100
Sample,50500,0,"hat.ogg",100
Sample,50625,0,"guitar 003.ogg",100
Sample,50625,0,"tamb2.ogg",100
Sample,50625,0,"fuwafuwa 028.ogg",100
Sample,50750,0,"guitar 004.ogg",100
Sample,50750,0,"tamb3.ogg",100
Sample,50750,0,"fuwafuwa 029.ogg",100
Sample,50750,0,"hat.ogg",100
Sample,50875,0,"tamb4.ogg",100
Sample,50875,0,"kick2.ogg",100
Sample,51000,0,"tamb1.ogg",100
Sample,51000,0,"bass-07.ogg",100
Sample,51000,0,"guitar 005.ogg",100
Sample,51000,0,"kick.ogg",100
Sample,51000,0,"hat.ogg",100
Sample,51000,0,"fuwafuwa 030.ogg",100
Sample,51125,0,"tamb2.ogg",100
Sample,51250,0,"tamb3.ogg",100
Sample,51250,0,"kick.ogg",100
Sample,51250,0,"guitar 002.ogg",100
Sample,51250,0,"hat.ogg",100
Sample,51250,0,"clap.ogg",100
Sample,51375,0,"tamb4.ogg",100
Sample,51500,0,"hat.ogg",100
Sample,51500,0,"bass-08.ogg",100
Sample,51500,0,"guitar 003.ogg",100
Sample,51500,0,"brass 042.ogg",100
Sample,51500,0,"tamb1.ogg",100
Sample,51500,0,"clap.ogg",100
Sample,51625,0,"guitar 004.ogg",100
Sample,51625,0,"tamb2.ogg",100
Sample,51750,0,"hat.ogg",100
Sample,51750,0,"tamb3.ogg",100
Sample,51875,0,"tamb4.ogg",100
Sample,52000,0,"bell-E.ogg",100
Sample,52000,0,"kick.ogg",100
Sample,52000,0,"tamb1.ogg",100
Sample,52000,0,"bass-01.ogg",100
Sample,52000,0,"crash.ogg",100
Sample,52000,0,"hat.ogg",100
Sample,52000,0,"3-ep-01.ogg",100
Sample,52125,0,"tamb2.ogg",100
Sample,52250,0,"guitar 001.ogg",100
Sample,52250,0,"tamb3.ogg",100
Sample,52250,0,"hat.ogg",100
Sample,52375,0,"tamb4.ogg",100
Sample,52375,0,"guitar 002.ogg",100
Sample,52500,0,"hat.ogg",100
Sample,52500,0,"snare.ogg",100
Sample,52500,0,"bass-02.ogg",100
Sample,52500,0,"tamb1.ogg",100
Sample,52625,0,"tamb2.ogg",100
Sample,52625,0,"guitar 003.ogg",100
Sample,52750,0,"hat.ogg",100
Sample,52750,0,"tamb3.ogg",100
Sample,52750,0,"guitar 004.ogg",100
Sample,52875,0,"kick2.ogg",100
Sample,52875,0,"tamb4.ogg",100
Sample,53000,0,"bass-03.ogg",100
Sample,53000,0,"tamb1.ogg",100
Sample,53000,0,"hat.ogg",100
Sample,53000,0,"kick.ogg",100
Sample,53000,0,"3-ep-02.ogg",100
Sample,53000,0,"guitar 005.ogg",100
Sample,53125,0,"tamb2.ogg",100
Sample,53250,0,"kick.ogg",100
Sample,53250,0,"guitar 006.ogg",100
Sample,53250,0,"tamb3.ogg",100
Sample,53250,0,"hat.ogg",100
Sample,53375,0,"tamb4.ogg",100
Sample,53500,0,"bass-04.ogg",100
Sample,53500,0,"tamb1.ogg",100
Sample,53500,0,"snare.ogg",100
Sample,53500,0,"hat.ogg",100
Sample,53500,0,"guitar 007.ogg",100
Sample,53625,0,"tamb2.ogg",100
Sample,53625,0,"guitar 008.ogg",100
Sample,53750,0,"hat.ogg",100
Sample,53750,0,"tamb3.ogg",100
Sample,53875,0,"tamb4.ogg",100
Sample,54000,0,"tamb1.ogg",100
Sample,54000,0,"kick.ogg",100
Sample,54000,0,"hat.ogg",100
Sample,54000,0,"bass-08.ogg",100
Sample,54000,0,"brass-01 001.ogg",100
Sample,54000,0,"3-ep-03.ogg",100
Sample,54125,0,"tamb2.ogg",100
Sample,54250,0,"hat.ogg",100
Sample,54250,0,"guitar 007.ogg",100
Sample,54250,0,"tamb3.ogg",100
Sample,54375,0,"tamb4.ogg",100
Sample,54375,0,"guitar 008.ogg",100
Sample,54500,0,"bass-21.ogg",100
Sample,54500,0,"tamb1.ogg",100
Sample,54500,0,"hat.ogg",100
Sample,54500,0,"snare.ogg",100
Sample,54625,0,"guitar 007.ogg",100
Sample,54625,0,"tamb2.ogg",100
Sample,54750,0,"guitar 006.ogg",100
Sample,54750,0,"tamb3.ogg",100
Sample,54750,0,"hat.ogg",100
Sample,54875,0,"tamb4.ogg",100
Sample,54875,0,"kick2.ogg",100
Sample,55000,0,"bass-07.ogg",100
Sample,55000,0,"hat.ogg",100
Sample,55000,0,"guitar 005.ogg",100
Sample,55000,0,"tamb1.ogg",100
Sample,55000,0,"kick.ogg",100
Sample,55000,0,"3-ep-04.ogg",100
Sample,55000,0,"brass-01 002.ogg",100
Sample,55125,0,"tamb2.ogg",100
Sample,55250,0,"tamb3.ogg",100
Sample,55250,0,"hat.ogg",100
Sample,55250,0,"guitar 001.ogg",100
Sample,55250,0,"kick.ogg",100
Sample,55375,0,"tamb4.ogg",100
Sample,55500,0,"brass-01 003.ogg",100
Sample,55500,0,"snare.ogg",100
Sample,55500,0,"tamb1.ogg",100
Sample,55500,0,"guitar 003.ogg",100
Sample,55500,0,"hat.ogg",100
Sample,55500,0,"bass-06.ogg",100
Sample,55625,0,"tamb2.ogg",100
Sample,55625,0,"guitar 002.ogg",100
Sample,55750,0,"tamb3.ogg",100
Sample,55750,0,"hat.ogg",100
Sample,55875,0,"tamb4.ogg",100
Sample,56000,0,"kick.ogg",100
Sample,56000,0,"bass-01.ogg",100
Sample,56000,0,"bell-E.ogg",100
Sample,56000,0,"fuwafuwa 045.ogg",100
Sample,56000,0,"tamb1.ogg",100
Sample,56000,0,"brass-01 004.ogg",100
Sample,56000,0,"hat.ogg",100
Sample,56125,0,"tamb2.ogg",100
Sample,56125,0,"fuwafuwa 046.ogg",100
Sample,56250,0,"tamb3.ogg",100
Sample,56250,0,"guitar 001.ogg",100
Sample,56250,0,"hat.ogg",100
Sample,56375,0,"guitar 002.ogg",100
Sample,56375,0,"tamb4.ogg",100
Sample,56375,0,"fuwafuwa 047.ogg",100
Sample,56500,0,"tamb1.ogg",100
Sample,56500,0,"hat.ogg",100
Sample,56500,0,"bass-02.ogg",100
Sample,56625,0,"guitar 003.ogg",100
Sample,56625,0,"fuwafuwa 048.ogg",100
Sample,56625,0,"tamb2.ogg",100
Sample,56750,0,"tamb3.ogg",100
Sample,56750,0,"fuwafuwa 049.ogg",100
Sample,56750,0,"guitar 004.ogg",100
Sample,56750,0,"hat.ogg",100
Sample,56875,0,"kick2.ogg",100
Sample,56875,0,"tamb4.ogg",100
Sample,57000,0,"kick.ogg",100
Sample,57000,0,"tamb1.ogg",100
Sample,57000,0,"guitar 005.ogg",100
Sample,57000,0,"brass-01 005.ogg",100
Sample,57000,0,"hat.ogg",100
Sample,57000,0,"bass-03.ogg",100
Sample,57000,0,"fuwafuwa 050.ogg",100
Sample,57125,0,"tamb2.ogg",100
Sample,57125,0,"fuwafuwa 051.ogg",100
Sample,57250,0,"hat.ogg",100
Sample,57250,0,"kick.ogg",100
Sample,57250,0,"guitar 002.ogg",100
Sample,57250,0,"tamb3.ogg",100
Sample,57375,0,"tamb4.ogg",100
Sample,57375,0,"fuwafuwa 052.ogg",100
Sample,57500,0,"tamb1.ogg",100
Sample,57500,0,"bass-04.ogg",100
Sample,57500,0,"hat.ogg",100
Sample,57500,0,"guitar 003.ogg",100
Sample,57625,0,"guitar 004.ogg",100
Sample,57625,0,"tamb2.ogg",100
Sample,57625,0,"fuwafuwa 053.ogg",100
Sample,57750,0,"tamb3.ogg",100
Sample,57750,0,"fuwafuwa 054.ogg",100
Sample,57750,0,"hat.ogg",100
Sample,57875,0,"tamb4.ogg",100
Sample,58000,0,"bass-05.ogg",100
Sample,58000,0,"tamb1.ogg",100
Sample,58000,0,"kick.ogg",100
Sample,58000,0,"bell-E.ogg",100
Sample,58000,0,"hat.ogg",100
Sample,58000,0,"fxfill.ogg",100
Sample,58000,0,"fuwafuwa 055.ogg",100
Sample,58000,0,"brass-01 006.ogg",100
Sample,58125,0,"tamb2.ogg",100
Sample,58125,0,"fuwafuwa 056.ogg",100
Sample,58250,0,"hat.ogg",100
Sample,58250,0,"guitar 001.ogg",100
Sample,58250,0,"tamb3.ogg",100
Sample,58375,0,"guitar 002.ogg",100
Sample,58375,0,"fuwafuwa 057.ogg",100
Sample,58375,0,"tamb4.ogg",100
Sample,58500,0,"tamb1.ogg",100
Sample,58500,0,"hat.ogg",100
Sample,58500,0,"bass-03.ogg",100
Sample,58625,0,"guitar 003.ogg",100
Sample,58625,0,"fuwafuwa 058.ogg",100
Sample,58625,0,"tamb2.ogg",100
Sample,58750,0,"tamb3.ogg",100
Sample,58750,0,"guitar 004.ogg",100
Sample,58750,0,"hat.ogg",100
Sample,58750,0,"fuwafuwa 059.ogg",100
Sample,58875,0,"kick2.ogg",100
Sample,58875,0,"tamb4.ogg",100
Sample,59000,0,"kick.ogg",100
Sample,59000,0,"bass-05.ogg",100
Sample,59000,0,"tamb1.ogg",100
Sample,59000,0,"guitar 005.ogg",100
Sample,59000,0,"hat.ogg",100
Sample,59000,0,"fuwafuwa 060.ogg",100
Sample,59125,0,"tamb2.ogg",100
Sample,59250,0,"tamb3.ogg",100
Sample,59250,0,"kick.ogg",100
Sample,59250,0,"hat.ogg",100
Sample,59375,0,"tamb4.ogg",100
Sample,59500,0,"tamb1.ogg",100
Sample,59500,0,"hat.ogg",100
Sample,59562,0,"string 001.ogg",100
Sample,59625,0,"tamb2.ogg",100
Sample,59625,0,"string 002.ogg",100
Sample,59687,0,"string 003.ogg",100
Sample,59750,0,"string 004.ogg",100
Sample,59750,0,"tamb3.ogg",100
Sample,59812,0,"string 005.ogg",100
Sample,59875,0,"string 006.ogg",100
Sample,59875,0,"4b.ogg",100
Sample,59875,0,"tamb4.ogg",100
Sample,59937,0,"string 007.ogg",100
Sample,60000,0,"4-ep-01.ogg",100
Sample,60000,0,"tamb1.ogg",100
Sample,60000,0,"bass-05.ogg",100
Sample,60000,0,"kick.ogg",100
Sample,60000,0,"hat.ogg",100
Sample,60000,0,"crash.ogg",100
Sample,60000,0,"fx.ogg",100
Sample,60000,0,"string 008.ogg",100
Sample,60000,0,"brass 043.ogg",100
Sample,60125,0,"tamb2.ogg",100
Sample,60250,0,"hat.ogg",100
Sample,60250,0,"guitar 001.ogg",100
Sample,60250,0,"tamb3.ogg",100
Sample,60375,0,"tamb4.ogg",100
Sample,60375,0,"guitar 002.ogg",100
Sample,60375,0,"brass 044.ogg",100
Sample,60500,0,"hat.ogg",100
Sample,60500,0,"bass-02.ogg",100
Sample,60500,0,"tamb1.ogg",100
Sample,60500,0,"snare.ogg",100
Sample,60625,0,"tamb2.ogg",100
Sample,60625,0,"guitar 003.ogg",100
Sample,60625,0,"brass 045.ogg",100
Sample,60750,0,"guitar 004.ogg",100
Sample,60750,0,"tamb3.ogg",100
Sample,60750,0,"hat.ogg",100
Sample,60750,0,"brass 046.ogg",100
Sample,60875,0,"tamb4.ogg",100
Sample,60875,0,"kick2.ogg",100
Sample,61000,0,"guitar 005.ogg",100
Sample,61000,0,"hat.ogg",100
Sample,61000,0,"tamb1.ogg",100
Sample,61000,0,"bass-03.ogg",100
Sample,61000,0,"kick.ogg",100
Sample,61000,0,"brass 047.ogg",100
Sample,61125,0,"tamb2.ogg",100
Sample,61250,0,"kick.ogg",100
Sample,61250,0,"tamb3.ogg",100
Sample,61250,0,"guitar 002.ogg",100
Sample,61250,0,"hat.ogg",100
Sample,61375,0,"tamb4.ogg",100
Sample,61375,0,"brass 048.ogg",100
Sample,61500,0,"bass-02.ogg",100
Sample,61500,0,"guitar 003.ogg",100
Sample,61500,0,"snare.ogg",100
Sample,61500,0,"tamb1.ogg",100
Sample,61500,0,"2-ep-16.ogg",100
Sample,61500,0,"hat.ogg",100
Sample,61625,0,"guitar 004.ogg",100
Sample,61625,0,"tamb2.ogg",100
Sample,61750,0,"brass 049.ogg",100
Sample,61750,0,"hat.ogg",100
Sample,61750,0,"tamb3.ogg",100
Sample,61875,0,"tamb4.ogg",100
Sample,61875,0,"brass 050.ogg",100
Sample,62000,0,"tamb1.ogg",100
Sample,62000,0,"bass-07.ogg",100
Sample,62000,0,"kick.ogg",100
Sample,62000,0,"hat.ogg",100
Sample,62000,0,"string 009.ogg",100
Sample,62000,0,"4-ep-02.ogg",100
Sample,62000,0,"brass 051.ogg",100
Sample,62125,0,"tamb2.ogg",100
Sample,62250,0,"guitar 001.ogg",100
Sample,62250,0,"tamb3.ogg",100
Sample,62250,0,"hat.ogg",100
Sample,62375,0,"tamb4.ogg",100
Sample,62375,0,"guitar 002.ogg",100
Sample,62375,0,"brass 052.ogg",100
Sample,62500,0,"bass-06.ogg",100
Sample,62500,0,"tamb1.ogg",100
Sample,62500,0,"hat.ogg",100
Sample,62500,0,"snare.ogg",100
Sample,62625,0,"tamb2.ogg",100
Sample,62625,0,"guitar 003.ogg",100
Sample,62625,0,"brass 053.ogg",100
Sample,62750,0,"hat.ogg",100
Sample,62750,0,"guitar 004.ogg",100
Sample,62750,0,"tamb3.ogg",100
Sample,62750,0,"brass 054.ogg",100
Sample,62875,0,"tamb4.ogg",100
Sample,62875,0,"kick2.ogg",100
Sample,63000,0,"hat.ogg",100
Sample,63000,0,"guitar 005.ogg",100
Sample,63000,0,"kick.ogg",100
Sample,63000,0,"bass-07.ogg",100
Sample,63000,0,"tamb1.ogg",100
Sample,63000,0,"brass 055.ogg",100
Sample,63125,0,"tamb2.ogg",100
Sample,63250,0,"guitar 002.ogg",100
Sample,63250,0,"tamb3.ogg",100
Sample,63250,0,"kick.ogg",100
Sample,63250,0,"hat.ogg",100
Sample,63375,0,"tamb4.ogg",100
Sample,63375,0,"brass 056.ogg",100
Sample,63500,0,"4-ep-03.ogg",100
Sample,63500,0,"bass-06.ogg",100
Sample,63500,0,"tamb1.ogg",100
Sample,63500,0,"hat.ogg",100
Sample,63500,0,"guitar 003.ogg",100
Sample,63500,0,"string 010.ogg",100
Sample,63500,0,"snare.ogg",100
Sample,63625,0,"guitar 004.ogg",100
Sample,63625,0,"tamb2.ogg",100
Sample,63750,0,"tamb3.ogg",100
Sample,63750,0,"brass 057.ogg",100
Sample,63750,0,"hat.ogg",100
Sample,63875,0,"tamb4.ogg",100
Sample,64000,0,"hat.ogg",100
Sample,64000,0,"string 011.ogg",100
Sample,64000,0,"bass-01.ogg",100
Sample,64000,0,"4-ep-04.ogg",100
Sample,64000,0,"tamb1.ogg",100
Sample,64000,0,"brass 058.ogg",100
Sample,64000,0,"kick.ogg",100
Sample,64125,0,"tamb2.ogg",100
Sample,64250,0,"hat.ogg",100
Sample,64250,0,"brass 059.ogg",100
Sample,64250,0,"tamb3.ogg",100
Sample,64250,0,"guitar 001.ogg",100
Sample,64375,0,"guitar 002.ogg",100
Sample,64375,0,"brass 060.ogg",100
Sample,64375,0,"tamb4.ogg",100
Sample,64500,0,"snare.ogg",100
Sample,64500,0,"bass-02.ogg",100
Sample,64500,0,"hat.ogg",100
Sample,64500,0,"tamb1.ogg",100
Sample,64625,0,"tamb2.ogg",100
Sample,64625,0,"guitar 003.ogg",100
Sample,64750,0,"hat.ogg",100
Sample,64750,0,"brass 061.ogg",100
Sample,64750,0,"guitar 004.ogg",100
Sample,64750,0,"tamb3.ogg",100
Sample,64875,0,"kick2.ogg",100
Sample,64875,0,"tamb4.ogg",100
Sample,65000,0,"tamb1.ogg",100
Sample,65000,0,"guitar 005.ogg",100
Sample,65000,0,"kick.ogg",100
Sample,65000,0,"hat.ogg",100
Sample,65000,0,"bass-01.ogg",100
Sample,65000,0,"brass 062.ogg",100
Sample,65125,0,"tamb2.ogg",100
Sample,65250,0,"guitar 002.ogg",100
Sample,65250,0,"brass 063.ogg",100
Sample,65250,0,"tamb3.ogg",100
Sample,65250,0,"kick.ogg",100
Sample,65250,0,"hat.ogg",100
Sample,65375,0,"brass 064.ogg",100
Sample,65375,0,"tamb4.ogg",100
Sample,65500,0,"hat.ogg",100
Sample,65500,0,"bass-02.ogg",100
Sample,65500,0,"tamb1.ogg",100
Sample,65500,0,"guitar 003.ogg",100
Sample,65500,0,"4-ep-05.ogg",100
Sample,65500,0,"snare.ogg",100
Sample,65625,0,"tamb2.ogg",100
Sample,65625,0,"guitar 004.ogg",100
Sample,65750,0,"tamb3.ogg",100
Sample,65750,0,"brass 065.ogg",100
Sample,65750,0,"hat.ogg",100
Sample,65875,0,"tamb4.ogg",100
Sample,66000,0,"tamb1.ogg",100
Sample,66000,0,"bass-03.ogg",100
Sample,66000,0,"4-ep-06.ogg",100
Sample,66000,0,"hat.ogg",100
Sample,66000,0,"string 012.ogg",100
Sample,66000,0,"kick.ogg",100
Sample,66000,0,"brass 066.ogg",100
Sample,66125,0,"brass 067.ogg",100
Sample,66125,0,"tamb2.ogg",100
Sample,66250,0,"tamb3.ogg",100
Sample,66250,0,"hat.ogg",100
Sample,66250,0,"guitar 001.ogg",100
Sample,66375,0,"brass 068.ogg",100
Sample,66375,0,"tamb4.ogg",100
Sample,66375,0,"guitar 002.ogg",100
Sample,66500,0,"snare.ogg",100
Sample,66500,0,"tamb1.ogg",100
Sample,66500,0,"bass-04.ogg",100
Sample,66500,0,"hat.ogg",100
Sample,66625,0,"tamb2.ogg",100
Sample,66625,0,"guitar 003.ogg",100
Sample,66750,0,"tamb3.ogg",100
Sample,66750,0,"guitar 004.ogg",100
Sample,66750,0,"brass 069.ogg",100
Sample,66750,0,"hat.ogg",100
Sample,66875,0,"tamb4.ogg",100
Sample,66875,0,"kick2.ogg",100
Sample,67000,0,"brass 070.ogg",100
Sample,67000,0,"bass-03.ogg",100
Sample,67000,0,"guitar 005.ogg",100
Sample,67000,0,"4-ep-07.ogg",100
Sample,67000,0,"tamb1.ogg",100
Sample,67000,0,"hat.ogg",100
Sample,67000,0,"kick.ogg",100
Sample,67125,0,"brass 071.ogg",100
Sample,67125,0,"tamb2.ogg",100
Sample,67250,0,"guitar 006.ogg",100
Sample,67250,0,"hat.ogg",100
Sample,67250,0,"kick.ogg",100
Sample,67250,0,"clap.ogg",100
Sample,67250,0,"bbb.ogg",100
Sample,67250,0,"tamb3.ogg",100
Sample,67375,0,"brass 072.ogg",100
Sample,67375,0,"tamb4.ogg",100
Sample,67500,0,"hat.ogg",100
Sample,67500,0,"clap.ogg",100
Sample,67500,0,"tamb1.ogg",100
Sample,67500,0,"guitar 007.ogg",100
Sample,67500,0,"bbb.ogg",100
Sample,67500,0,"bass-04.ogg",100
Sample,67500,0,"snare.ogg",100
Sample,67562,0,"string 013.ogg",100
Sample,67625,0,"tamb2.ogg",100
Sample,67625,0,"string 014.ogg",100
Sample,67625,0,"guitar 008.ogg",100
Sample,67687,0,"string 015.ogg",100
Sample,67750,0,"tamb3.ogg",100
Sample,67750,0,"hat.ogg",100
Sample,67750,0,"string 016.ogg",100
Sample,67812,0,"string 017.ogg",100
Sample,67875,0,"string 018.ogg",100
Sample,67875,0,"tamb4.ogg",100
Sample,67937,0,"string 019.ogg",100
Sample,68000,0,"kick.ogg",100
Sample,68000,0,"tamb1.ogg",100
Sample,68000,0,"hat.ogg",100
Sample,68000,0,"brass 043.ogg",100
Sample,68000,0,"bass-05.ogg",100
Sample,68000,0,"4-ep-01.ogg",100
Sample,68000,0,"string 020.ogg",100
Sample,68125,0,"tamb2.ogg",100
Sample,68250,0,"guitar 001.ogg",100
Sample,68250,0,"tamb3.ogg",100
Sample,68250,0,"hat.ogg",100
Sample,68375,0,"tamb4.ogg",100
Sample,68375,0,"brass 044.ogg",100
Sample,68375,0,"guitar 002.ogg",100
Sample,68500,0,"snare.ogg",100
Sample,68500,0,"tamb1.ogg",100
Sample,68500,0,"hat.ogg",100
Sample,68500,0,"bass-02.ogg",100
Sample,68625,0,"tamb2.ogg",100
Sample,68625,0,"guitar 003.ogg",100
Sample,68625,0,"brass 045.ogg",100
Sample,68750,0,"guitar 004.ogg",100
Sample,68750,0,"tamb3.ogg",100
Sample,68750,0,"hat.ogg",100
Sample,68750,0,"brass 046.ogg",100
Sample,68875,0,"kick2.ogg",100
Sample,68875,0,"tamb4.ogg",100
Sample,69000,0,"tamb1.ogg",100
Sample,69000,0,"guitar 005.ogg",100
Sample,69000,0,"kick.ogg",100
Sample,69000,0,"bass-03.ogg",100
Sample,69000,0,"hat.ogg",100
Sample,69000,0,"brass 047.ogg",100
Sample,69125,0,"tamb2.ogg",100
Sample,69250,0,"tamb3.ogg",100
Sample,69250,0,"guitar 002.ogg",100
Sample,69250,0,"kick.ogg",100
Sample,69250,0,"hat.ogg",100
Sample,69375,0,"tamb4.ogg",100
Sample,69375,0,"brass 048.ogg",100
Sample,69500,0,"bass-02.ogg",100
Sample,69500,0,"snare.ogg",100
Sample,69500,0,"guitar 003.ogg",100
Sample,69500,0,"hat.ogg",100
Sample,69500,0,"2-ep-16.ogg",100
Sample,69500,0,"tamb1.ogg",100
Sample,69625,0,"guitar 004.ogg",100
Sample,69625,0,"tamb2.ogg",100
Sample,69750,0,"brass 049.ogg",100
Sample,69750,0,"hat.ogg",100
Sample,69750,0,"tamb3.ogg",100
Sample,69875,0,"tamb4.ogg",100
Sample,69875,0,"brass 050.ogg",100
Sample,70000,0,"bass-07.ogg",100
Sample,70000,0,"hat.ogg",100
Sample,70000,0,"string 021.ogg",100
Sample,70000,0,"4-ep-02.ogg",100
Sample,70000,0,"tamb1.ogg",100
Sample,70000,0,"brass 051.ogg",100
Sample,70000,0,"kick.ogg",100
Sample,70125,0,"tamb2.ogg",100
Sample,70250,0,"guitar 001.ogg",100
Sample,70250,0,"tamb3.ogg",100
Sample,70250,0,"hat.ogg",100
Sample,70375,0,"guitar 002.ogg",100
Sample,70375,0,"brass 052.ogg",100
Sample,70375,0,"tamb4.ogg",100
Sample,70500,0,"tamb1.ogg",100
Sample,70500,0,"hat.ogg",100
Sample,70500,0,"snare.ogg",100
Sample,70500,0,"bass-06.ogg",100
Sample,70625,0,"tamb2.ogg",100
Sample,70625,0,"brass 053.ogg",100
Sample,70625,0,"guitar 003.ogg",100
Sample,70750,0,"brass 054.ogg",100
Sample,70750,0,"hat.ogg",100
Sample,70750,0,"guitar 004.ogg",100
Sample,70750,0,"tamb3.ogg",100
Sample,70875,0,"tamb4.ogg",100
Sample,70875,0,"kick2.ogg",100
Sample,71000,0,"tamb1.ogg",100
Sample,71000,0,"guitar 005.ogg",100
Sample,71000,0,"brass 055.ogg",100
Sample,71000,0,"kick.ogg",100
Sample,71000,0,"bass-07.ogg",100
Sample,71000,0,"hat.ogg",100
Sample,71125,0,"tamb2.ogg",100
Sample,71250,0,"guitar 002.ogg",100
Sample,71250,0,"kick.ogg",100
Sample,71250,0,"hat.ogg",100
Sample,71250,0,"tamb3.ogg",100
Sample,71375,0,"brass 056.ogg",100
Sample,71375,0,"tamb4.ogg",100
Sample,71500,0,"bass-06.ogg",100
Sample,71500,0,"snare.ogg",100
Sample,71500,0,"guitar 003.ogg",100
Sample,71500,0,"4-ep-03.ogg",100
Sample,71500,0,"tamb1.ogg",100
Sample,71500,0,"hat.ogg",100
Sample,71625,0,"tamb2.ogg",100
Sample,71625,0,"guitar 004.ogg",100
Sample,71750,0,"tamb3.ogg",100
Sample,71750,0,"brass 057.ogg",100
Sample,71750,0,"hat.ogg",100
Sample,71875,0,"tamb4.ogg",100
Sample,72000,0,"kick.ogg",100
Sample,72000,0,"hat.ogg",100
Sample,72000,0,"brass 058.ogg",100
Sample,72000,0,"4-ep-08.ogg",100
Sample,72000,0,"tamb1.ogg",100
Sample,72000,0,"bass-01.ogg",100
Sample,72125,0,"tamb2.ogg",100
Sample,72250,0,"tamb3.ogg",100
Sample,72250,0,"hat.ogg",100
Sample,72250,0,"brass 059.ogg",100
Sample,72250,0,"guitar 001.ogg",100
Sample,72375,0,"tamb4.ogg",100
Sample,72375,0,"guitar 002.ogg",100
Sample,72375,0,"brass 060.ogg",100
Sample,72500,0,"hat.ogg",100
Sample,72500,0,"bass-07.ogg",100
Sample,72500,0,"tamb1.ogg",100
Sample,72500,0,"snare.ogg",100
Sample,72625,0,"tamb2.ogg",100
Sample,72625,0,"guitar 003.ogg",100
Sample,72750,0,"hat.ogg",100
Sample,72750,0,"guitar 004.ogg",100
Sample,72750,0,"brass 061.ogg",100
Sample,72750,0,"tamb3.ogg",100
Sample,72875,0,"kick2.ogg",100
Sample,72875,0,"tamb4.ogg",100
Sample,73000,0,"brass 062.ogg",100
Sample,73000,0,"tamb1.ogg",100
Sample,73000,0,"hat.ogg",100
Sample,73000,0,"4-ep-09.ogg",100
Sample,73000,0,"string 022.ogg",100
Sample,73000,0,"bass-03.ogg",100
Sample,73000,0,"guitar 005.ogg",100
Sample,73000,0,"kick.ogg",100
Sample,73125,0,"tamb2.ogg",100
Sample,73250,0,"brass 063.ogg",100
Sample,73250,0,"kick.ogg",100
Sample,73250,0,"hat.ogg",100
Sample,73250,0,"tamb3.ogg",100
Sample,73250,0,"guitar 002.ogg",100
Sample,73375,0,"tamb4.ogg",100
Sample,73375,0,"brass 064.ogg",100
Sample,73500,0,"tamb1.ogg",100
Sample,73500,0,"snare.ogg",100
Sample,73500,0,"hat.ogg",100
Sample,73500,0,"guitar 003.ogg",100
Sample,73500,0,"bass-04.ogg",100
Sample,73625,0,"guitar 004.ogg",100
Sample,73625,0,"tamb2.ogg",100
Sample,73750,0,"hat.ogg",100
Sample,73750,0,"brass 065.ogg",100
Sample,73750,0,"tamb3.ogg",100
Sample,73875,0,"tamb4.ogg",100
Sample,74000,0,"kick.ogg",100
Sample,74000,0,"hat.ogg",100
Sample,74000,0,"bass-05.ogg",100
Sample,74000,0,"3-ep-06.ogg",100
Sample,74000,0,"tamb1.ogg",100
Sample,74000,0,"brass 073.ogg",100
Sample,74125,0,"brass 074.ogg",100
Sample,74125,0,"tamb2.ogg",100
Sample,74250,0,"tamb3.ogg",100
Sample,74250,0,"guitar 001.ogg",100
Sample,74250,0,"hat.ogg",100
Sample,74375,0,"tamb4.ogg",100
Sample,74375,0,"brass 075.ogg",100
Sample,74375,0,"guitar 002.ogg",100
Sample,74500,0,"snare.ogg",100
Sample,74500,0,"bass-03.ogg",100
Sample,74500,0,"tamb1.ogg",100
Sample,74500,0,"hat.ogg",100
Sample,74625,0,"guitar 003.ogg",100
Sample,74625,0,"tamb2.ogg",100
Sample,74750,0,"brass 076.ogg",100
Sample,74750,0,"guitar 004.ogg",100
Sample,74750,0,"tamb3.ogg",100
Sample,74750,0,"hat.ogg",100
Sample,74875,0,"kick2.ogg",100
Sample,74875,0,"tamb4.ogg",100
Sample,75000,0,"tamb1.ogg",100
Sample,75000,0,"2-ep-16.ogg",100
Sample,75000,0,"hat.ogg",100
Sample,75000,0,"kick.ogg",100
Sample,75000,0,"guitar 005.ogg",100
Sample,75000,0,"brass 077.ogg",100
Sample,75000,0,"bass-02.ogg",100
Sample,75125,0,"tamb2.ogg",100
Sample,75250,0,"hat.ogg",100
Sample,75250,0,"tamb3.ogg",100
Sample,75250,0,"kick.ogg",100
Sample,75375,0,"tamb4.ogg",100
Sample,75500,0,"tamb1.ogg",100
Sample,75500,0,"snare.ogg",100
Sample,75500,0,"bass-05.ogg",100
Sample,75500,0,"hat.ogg",100
Sample,75625,0,"tamb2.ogg",100
Sample,75750,0,"tamb3.ogg",100
Sample,75750,0,"hat.ogg",100
Sample,75750,0,"1-03.ogg",100
Sample,75875,0,"tamb4.ogg",100
Sample,75875,0,"1-04.ogg",100
Sample,76000,0,"kick.ogg",100
Sample,76000,0,"bell-E.ogg",100
Sample,76000,0,"bass-09.ogg",100
Sample,76000,0,"crash.ogg",100
Sample,76000,0,"hat.ogg",100
Sample,76000,0,"string 023.ogg",100
Sample,76000,0,"5-vc-01.ogg",100
Sample,76250,0,"guitar 001.ogg",100
Sample,76250,0,"hat.ogg",100
Sample,76375,0,"5-vc-02.ogg",100
Sample,76375,0,"guitar 002.ogg",100
Sample,76500,0,"string 023.ogg",100
Sample,76500,0,"hat.ogg",100
Sample,76625,0,"guitar 003.ogg",100
Sample,76687,0,"5-vc-03.ogg",100
Sample,76750,0,"hat.ogg",100
Sample,76750,0,"guitar 004.ogg",100
Sample,76875,0,"kick2.ogg",100
Sample,76968,0,"7-vc-01.ogg",100
Sample,77000,0,"guitar 005.ogg",100
Sample,77000,0,"bass-10.ogg",100
Sample,77000,0,"kick.ogg",100
Sample,77000,0,"hat.ogg",100
Sample,77000,0,"brass 078.ogg",100
Sample,77000,0,"string 023.ogg",100
Sample,77250,0,"guitar 002.ogg",100
Sample,77250,0,"clap.ogg",100
Sample,77250,0,"hat.ogg",100
Sample,77312,0,"7-vc-02.ogg",100
Sample,77375,0,"kick.ogg",100
Sample,77375,0,"bass-11.ogg",100
Sample,77375,0,"brass 079.ogg",100
Sample,77500,0,"hat.ogg",100
Sample,77500,0,"clap.ogg",100
Sample,77500,0,"guitar 003.ogg",100
Sample,77500,0,"string 023.ogg",100
Sample,77625,0,"guitar 004.ogg",100
Sample,77750,0,"5-vc-06.ogg",100
Sample,77750,0,"hat.ogg",100
Sample,77906,0,"5-vc-07.ogg",100
Sample,78000,0,"bell-E.ogg",100
Sample,78000,0,"hat.ogg",100
Sample,78000,0,"bass-12.ogg",100
Sample,78000,0,"kick.ogg",100
Sample,78000,0,"5-vc-08.ogg",100
Sample,78000,0,"string 023.ogg",100
Sample,78250,0,"guitar 001.ogg",100
Sample,78250,0,"hat.ogg",100
Sample,78375,0,"guitar 002.ogg",100
Sample,78375,0,"5-vc-09.ogg",100
Sample,78500,0,"string 023.ogg",100
Sample,78500,0,"hat.ogg",100
Sample,78625,0,"guitar 003.ogg",100
Sample,78718,0,"5-vc-10.ogg",100
Sample,78750,0,"hat.ogg",100
Sample,78750,0,"guitar 004.ogg",100
Sample,78875,0,"kick2.ogg",100
Sample,78937,0,"7-vc-03.ogg",100
Sample,79000,0,"guitar 005.ogg",100
Sample,79000,0,"kick.ogg",100
Sample,79000,0,"bass-13.ogg",100
Sample,79000,0,"string 023.ogg",100
Sample,79000,0,"hat.ogg",100
Sample,79000,0,"bell-E.ogg",100
Sample,79000,0,"brass 078.ogg",100
Sample,79250,0,"hat.ogg",100
Sample,79250,0,"guitar 002.ogg",100
Sample,79250,0,"clap.ogg",100
Sample,79375,0,"bass-14.ogg",100
Sample,79375,0,"brass 079.ogg",100
Sample,79375,0,"kick.ogg",100
Sample,79375,0,"bell-G#.ogg",100
Sample,79375,0,"7-vc-04.ogg",100
Sample,79500,0,"guitar 003.ogg",100
Sample,79500,0,"hat.ogg",100
Sample,79500,0,"clap.ogg",100
Sample,79500,0,"string 023.ogg",100
Sample,79625,0,"guitar 004.ogg",100
Sample,79718,0,"5-vc-13.ogg",100
Sample,79750,0,"hat.ogg",100
Sample,79875,0,"5-vc-14.ogg",100
Sample,80000,0,"kick.ogg",100
Sample,80000,0,"hat.ogg",100
Sample,80000,0,"bass-15.ogg",100
Sample,80000,0,"string 023.ogg",100
Sample,80031,0,"5-vc-15.ogg",100
Sample,80250,0,"hat.ogg",100
Sample,80250,0,"guitar 001.ogg",100
Sample,80375,0,"5-vc-16.ogg",100
Sample,80375,0,"guitar 002.ogg",100
Sample,80500,0,"hat.ogg",100
Sample,80500,0,"string 023.ogg",100
Sample,80562,0,"5-vc-17.ogg",100
Sample,80625,0,"guitar 003.ogg",100
Sample,80718,0,"5-vc-18.ogg",100
Sample,80750,0,"guitar 004.ogg",100
Sample,80750,0,"hat.ogg",100
Sample,80875,0,"kick2.ogg",100
Sample,81000,0,"brass 078.ogg",100
Sample,81000,0,"kick.ogg",100
Sample,81000,0,"bass-16.ogg",100
Sample,81000,0,"5-vc-19.ogg",100
Sample,81000,0,"hat.ogg",100
Sample,81000,0,"string 023.ogg",100
Sample,81000,0,"guitar 005.ogg",100
Sample,81250,0,"5-vc-20.ogg",100
Sample,81250,0,"hat.ogg",100
Sample,81250,0,"guitar 002.ogg",100
Sample,81375,0,"brass 079.ogg",100
Sample,81375,0,"kick.ogg",100
Sample,81375,0,"bass-17.ogg",100
Sample,81500,0,"string 023.ogg",100
Sample,81500,0,"hat.ogg",100
Sample,81500,0,"guitar 003.ogg",100
Sample,81500,0,"5-vc-21.ogg",100
Sample,81625,0,"5-vc-22.ogg",100
Sample,81625,0,"guitar 004.ogg",100
Sample,81750,0,"5-vc-23.ogg",100
Sample,81750,0,"hat.ogg",100
Sample,81937,0,"7-vc-05.ogg",100
Sample,82000,0,"hat.ogg",100
Sample,82000,0,"bell-E.ogg",100
Sample,82000,0,"kick.ogg",100
Sample,82000,0,"string 023.ogg",100
Sample,82000,0,"bass-18.ogg",100
Sample,82250,0,"guitar 001.ogg",100
Sample,82250,0,"hat.ogg",100
Sample,82375,0,"7-vc-06.ogg",100
Sample,82375,0,"bell-E.ogg",100
Sample,82375,0,"guitar 002.ogg",100
Sample,82500,0,"string 023.ogg",100
Sample,82500,0,"hat.ogg",100
Sample,82625,0,"guitar 003.ogg",100
Sample,82625,0,"7-vc-07.ogg",100
Sample,82625,0,"bell-E.ogg",100
Sample,82750,0,"bell-C#2.ogg",100
Sample,82750,0,"guitar 004.ogg",100
Sample,82750,0,"hat.ogg",100
Sample,82750,0,"7-vc-08.ogg",100
Sample,82875,0,"kick2.ogg",100
Sample,83000,0,"guitar 005.ogg",100
Sample,83000,0,"hat.ogg",100
Sample,83000,0,"7-vc-09.ogg",100
Sample,83000,0,"string 023.ogg",100
Sample,83000,0,"kick.ogg",100
Sample,83000,0,"bell-G#.ogg",100
Sample,83000,0,"bass-19.ogg",100
Sample,83250,0,"clap.ogg",100
Sample,83250,0,"hat.ogg",100
Sample,83250,0,"guitar 002.ogg",100
Sample,83250,0,"kick.ogg",100
Sample,83500,0,"clap.ogg",100
Sample,83500,0,"hat.ogg",100
Sample,83500,0,"guitar 003.ogg",100
Sample,83500,0,"string 023.ogg",100
Sample,83500,0,"brass 042.ogg",100
Sample,83625,0,"guitar 004.ogg",100
Sample,83718,0,"7-vc-11.ogg",100
Sample,83750,0,"hat.ogg",100
Sample,83812,0,"7-vc-12.ogg",100
Sample,83968,0,"7-vc-13.ogg",100
Sample,84000,0,"bass-09.ogg",100
Sample,84000,0,"bell-E.ogg",100
Sample,84000,0,"hat.ogg",100
Sample,84000,0,"string 023.ogg",100
Sample,84000,0,"kick.ogg",100
Sample,84250,0,"guitar 001.ogg",100
Sample,84250,0,"hat.ogg",100
Sample,84375,0,"7-vc-14.ogg",100
Sample,84375,0,"guitar 002.ogg",100
Sample,84500,0,"hat.ogg",100
Sample,84500,0,"string 023.ogg",100
Sample,84625,0,"guitar 003.ogg",100
Sample,84687,0,"7-vc-15.ogg",100
Sample,84750,0,"guitar 004.ogg",100
Sample,84750,0,"hat.ogg",100
Sample,84875,0,"kick2.ogg",100
Sample,84968,0,"7-vc-16.ogg",100
Sample,85000,0,"hat.ogg",100
Sample,85000,0,"kick.ogg",100
Sample,85000,0,"guitar 005.ogg",100
Sample,85000,0,"bass-10.ogg",100
Sample,85000,0,"brass 078.ogg",100
Sample,85000,0,"string 023.ogg",100
Sample,85000,0,"bell-E.ogg",100
Sample,85250,0,"clap.ogg",100
Sample,85250,0,"hat.ogg",100
Sample,85250,0,"guitar 002.ogg",100
Sample,85343,0,"7-vc-17.ogg",100
Sample,85375,0,"bass-11.ogg",100
Sample,85375,0,"brass 079.ogg",100
Sample,85375,0,"bell-E.ogg",100
Sample,85375,0,"kick.ogg",100
Sample,85500,0,"string 023.ogg",100
Sample,85500,0,"guitar 003.ogg",100
Sample,85500,0,"hat.ogg",100
Sample,85500,0,"clap.ogg",100
Sample,85625,0,"guitar 004.ogg",100
Sample,85750,0,"hat.ogg",100
Sample,85750,0,"7-vc-18.ogg",100
Sample,85843,0,"7-vc-19.ogg",100
Sample,85968,0,"7-vc-20.ogg",100
Sample,86000,0,"bass-12.ogg",100
Sample,86000,0,"bell-E.ogg",100
Sample,86000,0,"hat.ogg",100
Sample,86000,0,"string 023.ogg",100
Sample,86000,0,"kick.ogg",100
Sample,86250,0,"hat.ogg",100
Sample,86250,0,"guitar 001.ogg",100
Sample,86375,0,"guitar 002.ogg",100
Sample,86406,0,"7-vc-21.ogg",100
Sample,86500,0,"hat.ogg",100
Sample,86500,0,"string 023.ogg",100
Sample,86625,0,"guitar 003.ogg",100
Sample,86750,0,"hat.ogg",100
Sample,86750,0,"7-vc-22.ogg",100
Sample,86750,0,"guitar 004.ogg",100
Sample,86875,0,"kick2.ogg",100
Sample,86968,0,"7-vc-23.ogg",100
Sample,87000,0,"bass-13.ogg",100
Sample,87000,0,"kick.ogg",100
Sample,87000,0,"guitar 005.ogg",100
Sample,87000,0,"brass 080.ogg",100
Sample,87000,0,"hat.ogg",100
Sample,87000,0,"bell-G#.ogg",100
Sample,87000,0,"string 023.ogg",100
Sample,87250,0,"hat.ogg",100
Sample,87250,0,"guitar 002.ogg",100
Sample,87250,0,"clap.ogg",100
Sample,87343,0,"7-vc-24.ogg",100
Sample,87375,0,"kick.ogg",100
Sample,87375,0,"bell-E.ogg",100
Sample,87375,0,"brass 081.ogg",100
Sample,87375,0,"bass-14.ogg",100
Sample,87500,0,"string 023.ogg",100
Sample,87500,0,"clap.ogg",100
Sample,87500,0,"guitar 003.ogg",100
Sample,87500,0,"hat.ogg",100
Sample,87625,0,"guitar 004.ogg",100
Sample,87750,0,"7-vc-25.ogg",100
Sample,87750,0,"hat.ogg",100
Sample,87875,0,"7-vc-26.ogg",100
Sample,87968,0,"7-vc-27.ogg",100
Sample,88000,0,"bass-15.ogg",100
Sample,88000,0,"bell-E.ogg",100
Sample,88000,0,"hat.ogg",100
Sample,88000,0,"string 023.ogg",100
Sample,88000,0,"kick.ogg",100
Sample,88250,0,"guitar 001.ogg",100
Sample,88250,0,"hat.ogg",100
Sample,88375,0,"guitar 002.ogg",100
Sample,88375,0,"7-vc-28.ogg",100
Sample,88500,0,"hat.ogg",100
Sample,88500,0,"string 023.ogg",100
Sample,88625,0,"guitar 003.ogg",100
Sample,88625,0,"7-vc-29.ogg",100
Sample,88750,0,"7-vc-30.ogg",100
Sample,88750,0,"hat.ogg",100
Sample,88750,0,"guitar 004.ogg",100
Sample,88875,0,"kick2.ogg",100
Sample,88906,0,"7-vc-31.ogg",100
Sample,89000,0,"kick.ogg",100
Sample,89000,0,"bass-16.ogg",100
Sample,89000,0,"hat.ogg",100
Sample,89000,0,"string 023.ogg",100
Sample,89000,0,"guitar 005.ogg",100
Sample,89250,0,"guitar 002.ogg",100
Sample,89250,0,"hat.ogg",100
Sample,89375,0,"kick.ogg",100
Sample,89375,0,"bass-17.ogg",100
Sample,89375,0,"7-vc-32.ogg",100
Sample,89500,0,"guitar 003.ogg",100
Sample,89500,0,"hat.ogg",100
Sample,89500,0,"string 023.ogg",100
Sample,89625,0,"7-vc-33.ogg",100
Sample,89625,0,"guitar 004.ogg",100
Sample,89750,0,"hat.ogg",100
Sample,89750,0,"7-vc-34.ogg",100
Sample,90000,0,"snare.ogg",100
Sample,90000,0,"bell-E.ogg",100
Sample,90000,0,"bass-20.ogg",100
Sample,90000,0,"2-ep-16.ogg",100
Sample,90000,0,"kick.ogg",100
Sample,90000,0,"string 023.ogg",100
Sample,90000,0,"guitar 001.ogg",100

[TimingPoints]
0,500.000000000004,4,2,0,100,1,0

[HitObjects]
128,192,2843,128,0,3468:0:0:0:0:1-01.ogg
384,192,3468,1,0,0:0:0:0:1-02.ogg
25,192,4000,1,0,0:0:0:0:2-ep-01.ogg
486,192,5000,1,0,0:0:0:0:2-ep-02.ogg
486,192,5375,1,0,0:0:0:0:2-ep-03.ogg
128,192,6000,1,0,0:0:0:0:2-ep-04.ogg
384,192,7000,1,0,0:0:0:0:2-ep-05.ogg
384,192,7375,1,0,0:0:0:0:2-ep-06.ogg
179,192,8000,1,0,0:0:0:0:2-ep-07.ogg
332,192,9000,1,0,0:0:0:0:2-ep-08.ogg
332,192,9375,1,0,0:0:0:0:2-ep-09.ogg
76,192,10000,1,0,0:0:0:0:2-ep-10.ogg
435,192,11000,1,0,0:0:0:0:2-ep-11.ogg
486,192,12000,1,0,0:0:0:0:2-ep-01.ogg
128,192,12500,1,0,0:0:0:0:snare.ogg
384,192,13000,1,0,0:0:0:0:2-ep-02.ogg
384,192,13375,1,0,0:0:0:0:2-ep-03.ogg
128,192,13500,1,0,0:0:0:0:snare.ogg
332,192,14000,1,0,0:0:0:0:2-ep-12.ogg
128,192,14500,1,0,0:0:0:0:snare.ogg
435,192,15000,1,0,0:0:0:0:2-ep-05.ogg
435,192,15375,1,0,0:0:0:0:2-ep-06.ogg
128,192,15500,1,0,0:0:0:0:snare.ogg
384,192,16000,1,0,0:0:0:0:2-ep-13.ogg
128,192,16500,1,0,0:0:0:0:snare.ogg
332,192,17000,1,0,0:0:0:0:2-ep-14.ogg
128,192,17500,1,0,0:0:0:0:snare.ogg
281,192,18000,1,0,0:0:0:0:2-ep-12.ogg
128,192,18500,1,0,0:0:0:0:snare.ogg
486,192,19000,1,0,0:0:0:0:2-ep-11.ogg
128,192,19500,1,0,0:0:0:0:snare.ogg
486,192,19500,1,0,0:0:0:0:2-ep-15.ogg
230,192,20000,1,0,0:0:0:0:2-ep-01.ogg
384,192,20500,1,0,0:0:0:0:snare.ogg
128,192,21000,1,0,0:0:0:0:2-ep-02.ogg
128,192,21375,1,0,0:0:0:0:2-ep-03.ogg
384,192,21500,1,0,0:0:0:0:snare.ogg
76,192,22000,1,0,0:0:0:0:2-ep-12.ogg
384,192,22500,1,0,0:0:0:0:snare.ogg
179,192,23000,1,0,0:0:0:0:2-ep-05.ogg
179,192,23375,1,0,0:0:0:0:2-ep-06.ogg
384,192,23500,1,0,0:0:0:0:snare.ogg
128,192,24000,1,0,0:0:0:0:2-ep-13.ogg
384,192,24500,1,0,0:0:0:0:snare.ogg
76,192,25000,1,0,0:0:0:0:2-ep-14.ogg
384,192,25500,1,0,0:0:0:0:snare.ogg
25,192,26000,1,0,0:0:0:0:2-ep-12.ogg
384,192,26500,1,0,0:0:0:0:snare.ogg
25,192,27000,1,0,0:0:0:0:2-ep-16.ogg
384,192,27500,1,0,0:0:0:0:snare.ogg
128,192,28500,1,0,0:0:0:0:snare.ogg
332,192,29250,1,0,0:0:0:0:brass 034.ogg
128,192,29500,1,0,0:0:0:0:snare.ogg
435,192,29500,1,0,0:0:0:0:brass 035.ogg
128,192,30500,1,0,0:0:0:0:snare.ogg
384,192,31250,1,0,0:0:0:0:brass 036.ogg
128,192,31500,1,0,0:0:0:0:snare.ogg
486,192,31500,1,0,0:0:0:0:brass 037.ogg
128,192,32500,1,0,0:0:0:0:snare.ogg
332,192,33250,1,0,0:0:0:0:brass 034.ogg
128,192,33500,1,0,0:0:0:0:snare.ogg
435,192,33500,1,0,0:0:0:0:brass 035.ogg
128,192,34500,1,0,0:0:0:0:snare.ogg
384,192,35250,1,0,0:0:0:0:brass 038.ogg
128,192,35500,1,0,0:0:0:0:snare.ogg
281,192,35500,1,0,0:0:0:0:brass 039.ogg
384,192,36500,1,0,0:0:0:0:snare.ogg
76,192,37250,1,0,0:0:0:0:brass 034.ogg
179,192,37500,1,0,0:0:0:0:brass 035.ogg
384,192,37500,1,0,0:0:0:0:snare.ogg
384,192,38500,1,0,0:0:0:0:snare.ogg
128,192,39250,1,0,0:0:0:0:brass 036.ogg
230,192,39500,1,0,0:0:0:0:brass 037.ogg
384,192,39500,1,0,0:0:0:0:snare.ogg
384,192,40500,1,0,0:0:0:0:snare.ogg
76,192,41250,1,0,0:0:0:0:brass 034.ogg
179,192,41500,1,0,0:0:0:0:brass 035.ogg
384,192,41500,1,0,0:0:0:0:snare.ogg
384,192,42500,1,0,0:0:0:0:snare.ogg
128,192,43250,1,0,0:0:0:0:brass 040.ogg
25,192,43500,1,0,0:0:0:0:brass 041.ogg
384,192,43500,1,0,0:0:0:0:snare.ogg
332,192,43937,1,0,0:0:0:0:fuwafuwa 001.ogg
76,192,44250,1,0,0:0:0:0:fuwafuwa 002.ogg
332,192,44500,1,0,0:0:0:0:fuwafuwa 003.ogg
76,192,44750,1,0,0:0:0:0:fuwafuwa 004.ogg
332,192,45000,1,0,0:0:0:0:fuwafuwa 005.ogg
179,192,45437,1,0,0:0:0:0:fuwafuwa 006.ogg
435,192,45750,1,0,0:0:0:0:fuwafuwa 007.ogg
179,192,46000,1,0,0:0:0:0:fuwafuwa 008.ogg
435,192,46250,1,0,0:0:0:0:fuwafuwa 009.ogg
179,192,46500,1,0,0:0:0:0:fuwafuwa 010.ogg
486,192,47000,1,0,0:0:0:0:fuwafuwa 011.ogg
384,192,47250,1,0,0:0:0:0:fuwafuwa 012.ogg
128,192,47500,1,0,0:0:0:0:fuwafuwa 013.ogg
230,192,47750,1,0,0:0:0:0:fuwafuwa 014.ogg
332,192,48000,1,0,0:0:0:0:3-ep-01.ogg
25,192,48500,1,0,0:0:0:0:snare.ogg
281,192,49000,1,0,0:0:0:0:3-ep-05.ogg
25,192,49500,1,0,0:0:0:0:snare.ogg
384,192,50000,1,0,0:0:0:0:3-ep-06.ogg
25,192,50500,1,0,0:0:0:0:snare.ogg
384,192,51000,1,0,0:0:0:0:3-ep-07.ogg
25,192,51500,1,0,0:0:0:0:snare.ogg
76,192,51937,1,0,0:0:0:0:fuwafuwa 031.ogg
332,192,52250,1,0,0:0:0:0:fuwafuwa 032.ogg
76,192,52500,1,0,0:0:0:0:fuwafuwa 033.ogg
332,192,52750,1,0,0:0:0:0:fuwafuwa 034.ogg
76,192,53000,1,0,0:0:0:0:fuwafuwa 035.ogg
435,192,53500,1,0,0:0:0:0:fuwafuwa 036.ogg
179,192,53750,1,0,0:0:0:0:fuwafuwa 037.ogg
435,192,54000,1,0,0:0:0:0:fuwafuwa 038.ogg
179,192,54250,1,0,0:0:0:0:fuwafuwa 039.ogg
435,192,54500,1,0,0:0:0:0:fuwafuwa 040.ogg
486,192,55000,1,0,0:0:0:0:fuwafuwa 041.ogg
384,192,55250,1,0,0:0:0:0:fuwafuwa 042.ogg
128,192,55500,1,0,0:0:0:0:fuwafuwa 043.ogg
230,192,55750,1,0,0:0:0:0:fuwafuwa 044.ogg
76,192,56000,1,0,0:0:0:0:3-ep-01.ogg
486,192,56500,1,0,0:0:0:0:snare.ogg
179,192,57000,1,0,0:0:0:0:3-ep-05.ogg
486,192,57500,1,0,0:0:0:0:snare.ogg
25,192,58000,1,0,0:0:0:0:3-ep-06.ogg
486,192,58500,1,0,0:0:0:0:snare.ogg
486,192,59500,1,0,0:0:0:0:snare.ogg
230,192,60000,1,0,0:0:0:0:bell-B.ogg
179,192,60500,1,0,0:0:0:0:bell-G#.ogg
128,192,61000,1,0,0:0:0:0:bell-F#.ogg
384,192,61500,1,0,0:0:0:0:bell-G#.ogg
384,192,61750,1,0,0:0:0:0:bell-G#.ogg
76,192,62000,1,0,0:0:0:0:bell-F#.ogg
25,192,62250,1,0,0:0:0:0:bell-E.ogg
281,192,62500,1,0,0:0:0:0:bell-F#.ogg
332,192,62750,1,0,0:0:0:0:bell-G#.ogg
230,192,63750,1,0,0:0:0:0:bell-G#.ogg
486,192,64000,1,0,0:0:0:0:bell-C#.ogg
435,192,64500,1,0,0:0:0:0:bell-G#.ogg
384,192,65000,1,0,0:0:0:0:bell-F#.ogg
179,192,65500,1,0,0:0:0:0:bell-E.ogg
179,192,65750,1,0,0:0:0:0:bell-E.ogg
179,192,66000,1,0,0:0:0:0:bell-E.ogg
281,192,66250,1,0,0:0:0:0:bell-F#.ogg
332,192,66500,1,0,0:0:0:0:bell-G#.ogg
76,192,66750,1,0,0:0:0:0:bell-F#.ogg
230,192,68000,1,0,0:0:0:0:bell-B.ogg
179,192,68500,1,0,0:0:0:0:bell-G#.ogg
128,192,69000,1,0,0:0:0:0:bell-F#.ogg
384,192,69500,1,0,0:0:0:0:bell-G#.ogg
384,192,69750,1,0,0:0:0:0:bell-G#.ogg
76,192,70000,1,0,0:0:0:0:bell-F#.ogg
25,192,70250,1,0,0:0:0:0:bell-E.ogg
281,192,70500,1,0,0:0:0:0:bell-F#.ogg
332,192,70750,1,0,0:0:0:0:bell-G#.ogg
230,192,71750,1,0,0:0:0:0:bell-G#.ogg
486,192,72000,1,0,0:0:0:0:bell-C#.ogg
384,192,72500,1,0,0:0:0:0:bell-G#.ogg
128,192,73000,1,0,0:0:0:0:bell-E.ogg
230,192,73500,1,0,0:0:0:0:bell-G#.ogg
128,192,74000,1,0,0:0:0:0:bell-E.ogg
486,192,76000,1,0,0:0:0:0:2-ep-01.ogg
128,192,76500,1,0,0:0:0:0:snare.ogg
384,192,77000,1,0,0:0:0:0:2-ep-02.ogg
384,192,77375,1,0,0:0:0:0:2-ep-03.ogg
128,192,77500,1,0,0:0:0:0:snare.ogg
384,192,78000,1,0,0:0:0:0:2-ep-04.ogg
128,192,78500,1,0,0:0:0:0:snare.ogg
435,192,79000,1,0,0:0:0:0:2-ep-05.ogg
435,192,79375,1,0,0:0:0:0:2-ep-06.ogg
128,192,79500,1,0,0:0:0:0:snare.ogg
332,192,80000,1,0,0:0:0:0:2-ep-07.ogg
128,192,80500,1,0,0:0:0:0:snare.ogg
332,192,81000,1,0,0:0:0:0:2-ep-08.ogg
332,192,81375,1,0,0:0:0:0:2-ep-09.ogg
128,192,81500,1,0,0:0:0:0:snare.ogg
281,192,82000,1,0,0:0:0:0:2-ep-10.ogg
128,192,82500,1,0,0:0:0:0:snare.ogg
384,192,83000,1,0,0:0:0:0:2-ep-11.ogg
128,192,83500,1,0,0:0:0:0:snare.ogg
230,192,84000,1,0,0:0:0:0:2-ep-01.ogg
384,192,84500,1,0,0:0:0:0:snare.ogg
128,192,85000,1,0,0:0:0:0:2-ep-02.ogg
128,192,85375,1,0,0:0:0:0:2-ep-03.ogg
384,192,85500,1,0,0:0:0:0:snare.ogg
128,192,86000,1,0,0:0:0:0:2-ep-04.ogg
384,192,86500,1,0,0:0:0:0:snare.ogg
179,192,87000,1,0,0:0:0:0:2-ep-05.ogg
179,192,87375,1,0,0:0:0:0:2-ep-06.ogg
384,192,87500,1,0,0:0:0:0:snare.ogg
25,192,88000,1,0,0:0:0:0:2-ep-07.ogg
384,192,88500,1,0,0:0:0:0:snare.ogg
76,192,89000,1,0,0:0:0:0:2-ep-08.ogg
76,192,89375,1,0,0:0:0:0:2-ep-09.ogg
384,192,89500,1,0,0:0:0:0:snare.ogg
128,192,90000,1,0,0:0:0:0:7-vc-35.ogg
128,192,90375,1,0,0:0:0:0:7-vc-36.ogg
384,192,90625,128,0,91031:0:0:0:0:7-vc-37.ogg
128,192,91031,1,0,0:0:0:0:7-vc-38.ogg
