osu file format v14

[General]
AudioFilename: audio.mp3
AudioLeadIn: 0
PreviewTime: -1
Countdown: 0
SampleSet: Soft
StackLeniency: 0.4
Mode: 0
LetterboxInBreaks: 0
WidescreenStoryboard: 1

[Editor]
Bookmarks: 7834,36866,63318,63962,73640,76543
DistanceSpacing: 2.3
BeatDivisor: 4
GridSize: 32
TimelineZoom: 2.2

[Metadata]
Title:Mission! Health First!
TitleUnicode:Mission! Health First!
Artist:Kana Hanazawa
ArtistUnicode:Kana Hanazawa
Creator:Rdzeniu
Version:Extra
Source:Cells at Work! はたらく細胞 Hataraku Saibō
Tags:
BeatmapID:1758048
BeatmapSetID:839871

[Difficulty]
HPDrainRate:6.5
CircleSize:4
OverallDifficulty:9
ApproachRate:9
SliderMultiplier:2
SliderTickRate:1

[Events]
//Background and Video events
0,0,"platelet-cells-at-work-anime-4814-hd-1920x1080.jpg",0,0
//Break Periods
//Storyboard Layer 0 (Background)
//Storyboard Layer 1 (Fail)
//Storyboard Layer 2 (Pass)
//Storyboard Layer 3 (Foreground)
//Storyboard Sound Samples

[TimingPoints]
737,322.58064516129,4,2,0,50,1,0
1705,-66.6666666666667,4,2,0,50,0,0
3640,-76.9230769230769,4,2,0,50,0,0
4286,-66.6666666666667,4,2,0,50,0,0
8802,-100,4,2,0,50,0,0
9124,-83.3333333333333,4,2,0,50,0,0
9447,-66.6666666666667,4,2,0,50,0,0
9769,-66.6666666666667,4,1,0,50,0,0
10737,-66.6666666666667,4,2,0,50,0,0
11705,-100,4,2,0,50,0,0
12995,-76.9230769230769,4,2,0,50,0,0
13640,-100,4,2,0,50,0,0
18157,-76.9230769230769,4,2,0,50,0,0
19286,-100,4,2,0,50,0,0
23479,-100,4,2,0,5,0,0
23802,-100,4,2,0,50,0,0
26382,-100,4,2,0,5,0,0
26544,-100,4,2,0,50,0,0
27028,-100,4,1,0,50,0,0
28318,-100,4,2,0,50,0,0
28640,-100,4,1,0,50,0,0
29608,-100,4,2,0,50,0,0
29931,-100,4,3,0,50,0,0
31060,-100,4,1,0,50,0,0
31866,-100,4,2,0,50,0,0
32350,-100,4,2,0,50,0,0
33640,-76.9230769230769,4,2,0,50,0,0
34769,-100,4,2,0,50,0,0
37028,-76.9230769230769,4,2,0,50,0,0
37673,-100,4,2,0,50,0,0
38802,-76.9230769230769,4,2,0,50,0,0
39931,-100,4,2,0,50,0,0
44124,-100,4,2,0,5,0,0
44608,-100,4,2,0,50,0,0
47350,-100,4,2,0,5,0,0
47995,-100,4,1,0,50,0,0
48963,-100,4,2,0,50,0,0
49286,-100,4,1,0,50,0,0
50253,-200,4,2,0,50,0,0
50576,-200,4,3,0,50,0,0
51705,-200,4,1,0,50,0,0
52511,-200,4,2,0,50,0,0
52995,-200,4,2,0,50,0,0
56866,-333.333333333333,4,2,0,50,0,0
57833,-100,4,2,0,50,0,0
64124,-76.9230769230769,4,2,0,50,0,0
78801,-100,4,2,0,50,0,0

[HitObjects]
83,91,899,5,0,0:0:0:0:
125,78,979,1,0,0:0:0:0:
164,97,1060,1,0,0:0:0:0:
181,138,1140,1,0,0:0:0:0:
198,179,1221,1,0,0:0:0:0:
237,198,1302,1,0,0:0:0:0:
279,186,1382,2,0,P|324:152|345:102,1,100
109,162,1705,6,0,B|102:196|102:196|126:267|126:267|108:333,1,150.000005722046
231,362,2028,1,0,0:0:0:0:
347,304,2189,1,0,0:0:0:0:
203,166,2350,6,0,B|196:200|196:200|220:271|220:271|202:337,1,150.000005722046
318,237,2673,1,0,0:0:0:0:
204,167,2834,1,0,0:0:0:0:
318,74,2995,6,0,B|284:81|284:81|213:57|213:57|147:75,1,150.000005722046
174,243,3318,6,0,B|208:250|208:250|279:226|279:226|345:244,1,150.000005722046
423,353,3640,2,0,P|447:298|474:354,1,129.999994049073
319,336,3963,1,0,0:0:0:0:
393,193,4124,1,0,0:0:0:0:
319,50,4286,6,0,B|357:60|357:60|428:36|428:36|462:43,1,150.000005722046
393,193,4608,1,0,0:0:0:0:
393,193,4769,1,0,0:0:0:0:
462,342,4931,6,0,B|423:352|423:352|352:328|352:328|318:335,1,150.000005722046
50,346,5253,6,0,B|124:314|124:314|206:315,1,150.000005722046
50,189,5576,1,0,0:0:0:0:
238,234,5737,1,0,0:0:0:0:
53,96,5898,2,0,B|127:128|127:128|196:127,1,150.000005722046
351,30,6221,1,0,0:0:0:0:
324,56,6301,1,0,0:0:0:0:
312,91,6382,1,0,0:0:0:0:
317,128,6462,1,0,0:0:0:0:
342,159,6544,2,0,B|394:143|394:143|399:196|360:260,1,150.000005722046
183,121,6866,6,0,B|157:81|162:28|162:28|214:44,1,150.000005722046
212,238,7189,1,0,0:0:0:0:
93,134,7350,1,0,0:0:0:0:
83,298,7511,2,0,B|31:314|31:314|26:261|51:221,1,150.000005722046
123,86,7834,1,0,0:0:0:0:
213,219,7995,1,0,0:0:0:0:
50,222,8157,2,0,B|-2:207|-2:207|22:159|64:140,1,150.000005722046
244,65,8479,2,0,B|296:79|296:79|271:127|229:146,1,150.000005722046
377,33,8802,2,0,P|384:80|351:160,1,100
250,247,9124,6,0,P|244:309|283:382,1,119.999996337891
463,234,9447,2,0,P|443:177|364:128,1,150.000005722046
425,349,9769,1,0,0:0:0:0:
297,128,9931,1,0,0:0:0:0:
170,349,10092,1,0,0:0:0:0:
27,65,10253,1,0,0:0:0:0:
255,191,10737,6,0,B|329:221|362:152|312:73|226:57|154:106|124:168|109:254|200:323|312:310|375:272|396:210|387:147,1,600.000022888185
124,114,11544,5,0,0:0:0:0:
108,147,11624,1,0,0:0:0:0:
106,189,11705,2,0,P|119:248|156:296,1,100
251,347,12028,1,0,0:0:0:0:
122,349,12189,1,0,0:0:0:0:
250,258,12350,1,0,0:0:0:0:
377,347,12511,1,0,0:0:0:0:
250,258,12673,2,0,P|291:219|351:208,1,100
489,207,12995,6,0,P|463:145|396:83,1,129.999994049073
489,207,13318,5,0,0:0:0:0:
380,277,13479,2,0,P|406:339|474:402,1,129.999994049073
380,277,13802,5,0,0:0:0:0:
271,349,13963,1,0,0:0:0:0:
250,223,14124,6,0,P|202:238|168:273,1,100
247,133,14447,2,0,P|294:144|331:177,2,100
180,201,14931,1,0,0:0:0:0:
112,133,15092,1,0,0:0:0:0:
180,66,15253,1,0,0:0:0:0:
247,133,15415,1,0,0:0:0:0:
180,201,15576,2,0,L|98:276,1,100
230,299,15898,2,0,L|312:224,1,100
432,268,16221,2,0,L|350:343,1,100
485,330,16544,1,8,0:0:0:0:
417,154,16705,1,8,0:0:0:0:
255,28,17028,5,0,0:0:0:0:
165,123,17189,1,0,0:0:0:0:
294,104,17350,1,0,0:0:0:0:
165,123,17511,1,0,0:0:0:0:
280,186,17673,1,0,0:0:0:0:
165,123,17834,1,0,0:0:0:0:
59,193,17995,1,0,0:0:0:0:
177,265,18157,2,0,L|292:186,1,129.999994049073
177,265,18478,5,0,0:0:0:0:
320,272,18640,2,0,L|212:345,1,129.999994049073
320,272,18963,5,0,0:0:0:0:
273,81,19286,6,0,P|348:62|423:113,1,150
409,94,19608,1,0,0:0:0:0:
362,181,19769,1,0,0:0:0:0:
407,269,19931,1,0,0:0:0:0:
334,332,20092,1,0,0:0:0:0:
261,269,20253,1,0,0:0:0:0:
163,353,20415,1,0,0:0:0:0:
118,202,20576,1,0,0:0:0:0:
261,269,20737,6,0,P|275:217|264:151,1,100
107,284,21060,1,0,0:0:0:0:
14,111,21221,1,0,0:0:0:0:
104,297,21382,1,0,0:0:0:0:
267,184,21544,1,0,0:0:0:0:
12,123,21866,1,0,0:0:0:0:
256,192,21947,12,0,23479,0:0:0:0:
135,151,23802,5,0,0:0:0:0:
135,151,23882,1,0,0:0:0:0:
135,151,23963,1,0,0:0:0:0:
230,63,24124,1,0,0:0:0:0:
256,192,24447,5,0,0:0:0:0:
256,192,24528,12,0,26383,0:0:0:0:
256,192,26544,5,0,0:0:0:0:
166,252,26705,1,0,0:0:0:0:
258,98,26866,1,0,0:0:0:0:
346,252,27028,1,0,0:0:0:0:
135,307,27350,5,0,0:0:0:0:
139,67,27511,1,0,0:0:0:0:
379,71,27672,1,0,0:0:0:0:
374,311,27834,1,0,0:0:0:0:
256,192,28318,5,0,0:0:0:0:
82,189,28640,5,0,0:0:0:0:
254,22,28801,1,0,0:0:0:0:
421,194,28962,1,0,0:0:0:0:
248,360,29124,1,0,0:0:0:0:
256,192,29608,5,0,0:0:0:0:
97,120,29931,5,0,0:0:0:0:
415,120,30092,1,0,0:0:0:0:
96,264,30253,1,0,0:0:0:0:
414,264,30414,1,0,0:0:0:0:
256,192,30737,5,0,0:0:0:0:
256,192,30898,1,0,0:0:0:0:
192,32,31060,5,0,0:0:0:0:
192,352,31221,1,0,0:0:0:0:
320,32,31382,1,0,0:0:0:0:
320,352,31543,1,0,0:0:0:0:
256,192,31866,1,0,0:0:0:0:
256,192,31947,1,0,0:0:0:0:
256,192,32028,1,0,0:0:0:0:
93,30,32350,6,0,P|51:61|24:128,1,100
87,179,32673,1,0,0:0:0:0:
29,255,32834,1,0,0:0:0:0:
87,331,32995,1,0,0:0:0:0:
145,255,33157,1,0,0:0:0:0:
203,331,33318,1,0,0:0:0:0:
261,255,33479,1,0,0:0:0:0:
87,179,33640,2,0,L|202:100,1,129.999994049073
87,179,33963,5,0,0:0:0:0:
261,255,34124,2,0,L|223:120,1,129.999994049073
261,255,34447,5,0,0:0:0:0:
383,319,34769,6,0,P|396:217|331:141,1,200
464,173,35253,1,0,0:0:0:0:
413,91,35415,1,0,0:0:0:0:
324,61,35576,1,0,0:0:0:0:
236,91,35738,1,0,0:0:0:0:
148,121,35898,1,0,0:0:0:0:
59,91,36059,1,0,0:0:0:0:
147,202,36221,2,0,L|52:251,1,100
223,201,36544,2,0,L|318:250,1,100
183,353,36866,1,0,0:0:0:0:
183,353,37028,6,0,L|138:288,1,64.9999970245363
392,351,37350,2,0,L|428:297,1,64.9999970245363
287,174,37673,5,0,0:0:0:0:
236,257,37834,1,0,0:0:0:0:
287,340,37995,1,0,0:0:0:0:
336,257,38157,2,0,L|279:163,1,100
236,257,38479,2,0,L|184:342,1,100
169,175,38802,2,0,L|241:67,1,129.999994049073
169,175,39124,1,0,0:0:0:0:
343,175,39286,2,0,L|270:67,1,129.999994049073
343,175,39608,1,0,0:0:0:0:
254,318,39769,1,0,0:0:0:0:
191,207,39931,6,0,P|151:243|125:320,1,100
29,190,40253,1,0,0:0:0:0:
154,137,40415,2,0,P|131:92|93:60,1,100
293,63,40737,2,0,P|255:95|232:139,1,100
277,273,41060,2,0,P|254:317|216:349,1,100
126,207,41382,1,0,0:0:0:0:
317,250,41544,1,0,0:0:0:0:
144,160,41705,1,0,0:0:0:0:
301,299,41866,1,0,0:0:0:0:
189,137,42028,1,0,0:0:0:0:
260,333,42189,1,0,0:0:0:0:
255,190,42511,5,0,0:0:0:0:
256,192,42592,12,0,44124,0:0:0:0:
368,122,44608,5,0,0:0:0:0:
368,122,44688,1,0,0:0:0:0:
368,122,44769,1,0,0:0:0:0:
244,67,44930,1,0,0:0:0:0:
256,192,45092,5,0,0:0:0:0:
256,192,45173,12,0,47350,0:0:0:0:
255,192,47673,5,0,0:0:0:0:
115,64,47995,5,0,0:0:0:0:
374,192,48157,1,0,0:0:0:0:
115,320,48318,1,0,0:0:0:0:
374,192,48480,1,0,0:0:0:0:
257,192,48963,5,0,0:0:0:0:
397,64,49285,5,0,0:0:0:0:
138,192,49447,1,0,0:0:0:0:
397,320,49608,1,0,0:0:0:0:
138,192,49770,1,0,0:0:0:0:
257,192,50253,6,0,L|349:192,1,75
332,192,50576,1,0,0:0:0:0:
254,28,50737,1,0,0:0:0:0:
256,350,50898,1,0,0:0:0:0:
255,62,51060,5,0,0:0:0:0:
176,292,51221,1,0,0:0:0:0:
374,152,51382,1,0,0:0:0:0:
132,148,51544,1,0,0:0:0:0:
325,294,51705,5,0,0:0:0:0:
78,148,51866,1,0,0:0:0:0:
428,153,52028,1,0,0:0:0:0:
255,191,52189,1,0,0:0:0:0:
263,197,52511,5,0,0:0:0:0:
263,197,52592,1,0,0:0:0:0:
263,197,52673,1,0,0:0:0:0:
256,34,52995,6,0,P|307:39|361:78,1,100
361,184,53640,2,0,P|310:179|256:140,1,100
194,24,54285,2,0,P|168:66|164:116,1,100
212,197,54930,2,0,P|237:239|241:289,1,100
162,340,55414,1,0,0:0:0:0:
162,340,55575,2,0,P|121:311|96:269,1,100
95,173,56059,1,0,0:0:0:0:
95,173,56220,2,0,P|119:130|160:102,1,100
254,87,56866,2,0,B|292:100|295:129|298:156|338:181,1,119.999996337891
486,155,57833,5,0,0:0:0:0:
436,309,57995,1,0,0:0:0:0:
365,164,58156,5,0,0:0:0:0:
356,140,58236,1,0,0:0:0:0:
343,119,58317,1,0,0:0:0:0:
325,101,58397,1,0,0:0:0:0:
305,87,58478,1,0,0:0:0:0:
282,77,58559,1,0,0:0:0:0:
257,73,58639,1,0,0:0:0:0:
232,73,58720,1,0,0:0:0:0:
211,78,58801,5,0,0:0:0:0:
196,97,58881,1,0,0:0:0:0:
187,121,58962,1,0,0:0:0:0:
188,146,59042,1,0,0:0:0:0:
193,170,59123,1,0,0:0:0:0:
197,195,59204,1,0,0:0:0:0:
197,220,59284,1,0,0:0:0:0:
192,245,59365,1,0,0:0:0:0:
187,265,59446,5,0,0:0:0:0:
176,287,59526,1,0,0:0:0:0:
158,303,59607,1,0,0:0:0:0:
134,310,59687,1,0,0:0:0:0:
109,307,59768,1,0,0:0:0:0:
89,293,59849,1,0,0:0:0:0:
75,272,59929,1,0,0:0:0:0:
72,247,60010,1,0,0:0:0:0:
80,226,60091,5,0,0:0:0:0:
95,206,60171,1,0,0:0:0:0:
115,191,60252,1,0,0:0:0:0:
137,180,60332,1,0,0:0:0:0:
162,176,60413,1,0,0:0:0:0:
187,177,60494,1,0,0:0:0:0:
211,184,60574,1,0,0:0:0:0:
232,197,60655,1,0,0:0:0:0:
250,213,60736,5,0,0:0:0:0:
267,230,60817,1,0,0:0:0:0:
289,243,60898,1,0,0:0:0:0:
313,250,60978,1,0,0:0:0:0:
338,251,61059,1,0,0:0:0:0:
362,247,61140,1,0,0:0:0:0:
385,237,61220,1,0,0:0:0:0:
404,221,61301,1,0,0:0:0:0:
416,201,61382,5,0,0:0:0:0:
425,177,61462,1,0,0:0:0:0:
428,153,61543,1,0,0:0:0:0:
424,128,61623,1,0,0:0:0:0:
414,105,61704,1,0,0:0:0:0:
399,85,61785,1,0,0:0:0:0:
379,70,61865,1,0,0:0:0:0:
356,61,61946,1,0,0:0:0:0:
331,58,62027,1,0,0:0:0:0:
257,238,62188,5,0,0:0:0:0:
165,59,62349,1,0,0:0:0:0:
257,285,62511,1,0,0:0:0:0:
328,58,62672,1,0,0:0:0:0:
176,253,62995,6,0,P|257:202|341:272,1,200
244,64,63478,1,0,0:0:0:0:
288,308,63640,5,0,0:0:0:0:
317,87,63801,1,0,0:0:0:0:
364,308,63962,1,0,0:0:0:0:
254,140,64124,6,0,L|216:272,1,129.999994049073
193,77,64446,1,0,0:0:0:0:
288,308,64607,5,0,0:0:0:0:
337,121,64769,1,0,0:0:0:0:
334,371,64930,5,0,0:0:0:0:
285,184,65092,1,0,0:0:0:0:
406,372,65253,5,0,0:0:0:0:
455,185,65415,1,0,0:0:0:0:
299,298,65575,2,0,L|278:134,1,129.999994049073
150,28,65898,2,0,L|133:156,1,129.999994049073
362,28,66220,2,0,L|379:156,1,129.999994049073
126,27,66543,2,0,L|109:155,1,129.999994049073
386,27,66866,2,0,L|403:155,1,129.999994049073
163,221,67188,5,0,0:0:0:0:
317,342,67349,1,0,0:0:0:0:
349,221,67511,5,0,0:0:0:0:
195,342,67672,1,0,0:0:0:0:
134,202,67833,5,0,0:0:0:0:
317,342,67994,1,0,0:0:0:0:
378,202,68156,5,0,0:0:0:0:
195,342,68317,1,0,0:0:0:0:
189,139,68478,2,0,P|128:122|53:177,1,129.999994049073
323,139,68801,2,0,P|384:122|459:177,1,129.999994049073
189,263,69124,2,0,P|128:280|53:225,1,129.999994049073
323,263,69446,2,0,P|384:280|459:225,1,129.999994049073
135,194,69769,5,0,0:0:0:0:
377,194,69930,1,0,0:0:0:0:
136,116,70091,5,0,0:0:0:0:
378,116,70252,1,0,0:0:0:0:
136,41,70414,5,0,0:0:0:0:
378,41,70575,1,0,0:0:0:0:
256,195,70736,2,0,L|256:337,1,129.999994049073
256,325,70978,1,0,0:0:0:0:
256,325,71059,5,0,0:0:0:0:
33,34,71382,1,0,0:0:0:0:
479,34,71704,1,0,0:0:0:0:
33,350,72027,1,0,0:0:0:0:
479,350,72349,5,0,0:0:0:0:
256,191,72511,1,0,0:0:0:0:
33,350,72672,1,0,0:0:0:0:
256,191,72833,2,0,L|256:54,1,129.999994049073
365,127,73156,1,0,0:0:0:0:
147,127,73317,1,0,0:0:0:0:
256,318,73478,1,0,0:0:0:0:
448,192,73640,5,0,0:0:0:0:
254,60,73801,1,0,0:0:0:0:
492,124,73962,5,0,0:0:0:0:
298,256,74123,1,0,0:0:0:0:
489,264,74285,5,0,0:0:0:0:
295,132,74446,1,0,0:0:0:0:
448,192,74607,5,0,0:0:0:0:
254,324,74768,1,0,0:0:0:0:
60,192,74930,5,0,0:0:0:0:
254,324,75091,1,0,0:0:0:0:
29,266,75253,5,0,0:0:0:0:
223,134,75414,1,0,0:0:0:0:
68,67,75575,5,0,0:0:0:0:
262,199,75736,1,0,0:0:0:0:
60,192,75898,5,0,0:0:0:0:
254,60,76059,1,0,0:0:0:0:
285,282,76220,2,0,P|334:236|339:166,1,129.999994049073
192,263,76543,2,0,P|201:326|248:368,1,129.999994049073
430,194,76866,2,0,P|420:130|373:88,1,129.999994049073
138,88,77188,2,0,P|91:130|82:194,1,129.999994049073
257,30,77511,5,0,0:0:0:0:
165,332,77672,1,0,0:0:0:0:
416,142,77833,1,0,0:0:0:0:
101,147,77995,1,0,0:0:0:0:
359,328,78156,1,0,0:0:0:0:
257,30,78317,1,0,0:0:0:0:
165,332,78478,1,0,0:0:0:0:
416,142,78640,1,0,0:0:0:0:
256,192,78801,6,0,L|136:158,1,100
259,291,79124,2,0,L|379:325,1,100
256,192,79446,2,0,L|136:226,1,100
259,93,79769,2,0,L|379:59,1,100
259,291,80091,6,0,L|162:318,1,100
162,65,80414,2,0,L|259:93,1,100
449,159,80736,1,0,0:0:0:0:
254,221,80898,1,0,0:0:0:0:
475,161,81059,1,0,0:0:0:0:
259,93,81220,1,0,0:0:0:0:
254,221,81382,2,0,L|254:352,1,100
254,221,81704,1,0,0:0:0:0:
256,124,82027,2,0,L|256:-7,1,100
256,124,82349,1,0,0:0:0:0:
114,306,82672,5,0,0:0:0:0:
114,140,82833,1,0,0:0:0:0:
256,223,82995,1,0,0:0:0:0:
398,306,83317,5,0,0:0:0:0:
398,140,83478,1,0,0:0:0:0:
256,223,83640,1,0,0:0:0:0:
256,24,83801,2,0,L|257:150,1,100
254,298,84124,1,0,0:0:0:0:
351,213,84285,5,0,0:0:0:0:
254,353,84446,1,0,0:0:0:0:
160,212,84607,2,0,L|215:111,2,100
352,212,85091,2,0,L|297:111,1,100
208,285,85414,2,0,L|322:286,2,100
49,285,85898,1,0,0:0:0:0:
208,128,86059,1,0,0:0:0:0:
51,128,86220,2,0,L|139:52,1,100
321,63,86543,5,0,0:0:0:0:
384,129,86704,1,0,0:0:0:0:
448,193,86866,1,0,0:0:0:0:
384,129,87027,1,0,0:0:0:0:
191,321,87188,5,0,0:0:0:0:
128,255,87349,1,0,0:0:0:0:
64,191,87511,1,0,0:0:0:0:
128,255,87672,1,0,0:0:0:0:
321,321,87833,5,0,0:0:0:0:
448,191,87995,1,0,0:0:0:0:
450,321,88156,1,0,0:0:0:0:
323,191,88318,1,0,0:0:0:0:
151,298,88478,5,0,0:0:0:0:
361,88,88640,1,0,0:0:0:0:
151,87,88801,1,0,0:0:0:0:
360,298,88962,1,0,0:0:0:0:
