osu file format v14

[General]
AudioFilename: Take Me Anywhere.mp3
AudioLeadIn: 0
PreviewTime: 34891
Countdown: 0
SampleSet: Soft
StackLeniency: 0.7
Mode: 0
LetterboxInBreaks: 0
WidescreenStoryboard: 0

[Editor]
Bookmarks: 33332,35554
DistanceSpacing: 1
BeatDivisor: 4
GridSize: 4
TimelineZoom: 1.5

[Metadata]
Title:Take Me Anywhere
TitleUnicode:Take Me Anywhere
Artist:Kan R. Gao
ArtistUnicode:Kan R. Gao
Creator:ego_17
Version:Easy
Source:To the Moon
Tags:games soundtrack freebird ost piano reives
BeatmapID:1430761
BeatmapSetID:205118

[Difficulty]
HPDrainRate:2
CircleSize:2.5
OverallDifficulty:3
ApproachRate:3
SliderMultiplier:1.2
SliderTickRate:1

[Events]
//Background and Video events
0,0,"ss (2014-07-23 at 11.46.02).jpg",0,0
//Break Periods
//Storyboard Layer 0 (Background)
//Storyboard Layer 1 (Fail)
//Storyboard Layer 2 (Pass)
//Storyboard Layer 3 (Foreground)
//Storyboard Sound Samples

[TimingPoints]
2253,555.555555555556,4,2,2,55,1,0
33364,-100,4,2,1,40,0,0
35586,-100,4,2,1,40,0,1
55586,-100,4,2,1,40,0,0
59753,-100,4,2,1,15,0,0

[Colours]
Combo1 : 105,0,210
Combo2 : 0,128,255
Combo3 : 0,155,0
Combo4 : 164,164,0
Combo5 : 255,102,28

[HitObjects]
80,244,2253,6,0,P|107:178|151:125,1,120
259,146,3364,2,0,P|256:204|280:272,1,120
393,291,4475,5,2,0:0:0:0:
452,188,5030,1,2,0:0:0:0:
444,68,5586,2,0,P|385:61|318:84,1,120,8|2,0:0|0:0,0:0:0:0:
276,188,6697,2,0,P|247:249|184:287,1,120,8|2,0:0|0:0,0:0:0:0:
108,212,7808,2,0,P|137:150|198:113,1,120,8|2,0:0|0:0,0:0:0:0:
292,88,8919,5,2,0:0:0:0:
264,204,9475,2,0,P|280:262|331:304,1,120,2|8,0:0|0:0,0:0:0:0:
444,320,10586,1,2,0:0:0:0:
404,208,11141,2,0,L|427:81,2,120,10|2|8,0:0|0:0|0:0,0:0:0:0:
321,297,12808,1,0,0:0:0:0:
200,297,13364,5,2,0:0:0:0:
136,196,13919,2,0,L|61:196,2,60,2|0|8,0:0|0:0|0:0,0:0:0:0:
256,196,15030,1,2,0:0:0:0:
200,92,15586,2,0,P|162:57|90:49,2,120,8|2|8,0:0|0:0|0:0,0:0:0:0:
256,196,17253,1,2,0:0:0:0:
308,304,17808,5,2,0:0:0:0:
368,200,18364,2,0,P|406:165|478:157,2,120,2|8|2,0:0|0:0|0:0,0:0:0:0:
292,292,20030,2,0,L|292:364,2,60,8|0|2,0:0|0:0|0:0,0:0:0:0:
172,272,21141,1,8,0:0:0:0:
80,196,21697,1,0,0:0:0:0:
44,80,22253,6,0,P|92:48|152:48,1,120,8|2,0:0|0:0,0:0:0:0:
256,108,23364,1,8,0:0:0:0:
360,168,23919,2,0,P|424:168|476:124,2,120,2|8|0,0:0|0:0|0:0,0:0:0:0:
256,108,25586,1,8,0:0:0:0:
256,228,26141,6,0,L|256:368,2,120,2|8|2,0:0|0:0|0:0,0:0:0:0:
208,116,27808,2,0,P|156:156|136:208,1,120,8|2,0:0|0:0,0:0:0:0:
196,311,28919,1,8,0:0:0:0:
316,311,29475,1,2,0:0:0:0:
376,205,30030,2,0,P|352:150|304:115,1,120,8|2,0:0|0:0,0:0:0:0:
256,192,30864,12,10,33364,0:0:0:0:
349,236,35586,6,0,B|385:258|385:258|442:242|457:195,2,120,8|2|2,0:0|0:0|0:0,0:0:0:0:
256,160,37253,1,8,0:0:0:0:
164,84,37808,2,0,B|128:63|128:63|71:79|56:126,2,120,8|2|2,0:0|0:0|0:0,0:0:0:0:
256,160,39475,1,2,0:0:0:0:
256,278,40030,6,0,L|256:346,2,60,10|8|0,0:0|0:0|0:0,0:0:0:0:
370,318,41141,2,0,P|429:289|445:227,1,120,8|0,0:0|0:0,0:0:0:0:
366,155,42253,2,0,P|346:100|366:36,2,120,10|0|0,0:0|0:0|0:0,0:0:0:0:
256,195,43919,1,2,0:0:0:0:
144,155,44475,6,0,P|164:100|144:36,2,120,10|2|2,0:0|0:0|0:0,0:0:0:0:
60,240,46141,1,8,0:0:0:0:
132,336,46697,2,0,P|183:347|244:296,1,120,8|8,0:0|0:0,0:0:0:0:
256,192,47808,1,2,0:0:0:0:
256,72,48364,1,2,0:0:0:0:
364,120,48919,6,0,B|396:136|396:136|448:104|496:144,2,120,8|8|2,0:0|0:0|0:0,0:0:0:0:
256,176,50586,1,2,0:0:0:0:
148,120,51141,2,0,B|116:136|116:136|64:104|16:144,1,120,10|2,0:0|0:0,0:0:0:0:
52,248,52253,2,0,P|108:316|152:320,1,120,8|8,0:0|0:0,0:0:0:0:
256,308,53364,5,10,0:0:0:0:
377,321,53919,2,0,P|433:301|460:228,1,120,2|2,0:0|0:0,0:0:0:0:
406,143,55030,1,2,0:0:0:0:
314,67,55586,2,0,B|256:32|201:67,1,120,10|0,0:0|0:0,0:0:0:0:
256,192,56419,12,8,58919,0:0:0:0:
