osu file format v14

[General]
AudioFilename: Take Me Anywhere.mp3
AudioLeadIn: 0
PreviewTime: 34891
Countdown: 0
SampleSet: Soft
StackLeniency: 0.7
Mode: 0
LetterboxInBreaks: 0
WidescreenStoryboard: 0

[Editor]
Bookmarks: 33332,35554
DistanceSpacing: 1.2
BeatDivisor: 4
GridSize: 4
TimelineZoom: 1.5

[Metadata]
Title:Take Me Anywhere
TitleUnicode:Take Me Anywhere
Artist:Kan R. Gao
ArtistUnicode:Kan R. Gao
Creator:ego_17
Version:Normal
Source:To the Moon
Tags:games soundtrack freebird ost piano reives
BeatmapID:484310
BeatmapSetID:205118

[Difficulty]
HPDrainRate:4
CircleSize:3
OverallDifficulty:4
ApproachRate:5
SliderMultiplier:1.4
SliderTickRate:1

[Events]
//Background and Video events
0,0,"ss (2014-07-23 at 11.46.02).jpg",0,0
//Break Periods
//Storyboard Layer 0 (Background)
//Storyboard Layer 1 (Fail)
//Storyboard Layer 2 (Pass)
//Storyboard Layer 3 (Foreground)
//Storyboard Sound Samples

[TimingPoints]
2253,555.555555555556,4,2,2,55,1,0
33364,-100,4,2,1,40,0,0
35586,-100,4,2,1,40,0,1
55586,-100,4,2,1,40,0,0
59753,-100,4,2,1,15,0,0

[Colours]
Combo1 : 105,0,210
Combo2 : 0,128,255
Combo3 : 0,155,0
Combo4 : 164,164,0
Combo5 : 255,102,28

[HitObjects]
408,148,2253,5,0,0:0:0:0:
254,74,2808,1,0,0:0:0:0:
100,148,3364,1,0,0:0:0:0:
100,316,3919,6,0,L|172:316,1,70
256,316,4475,1,2,0:0:0:0:
412,256,5030,5,2,0:0:0:0:
456,184,5308,1,0,0:0:0:0:
420,108,5586,2,0,P|397:81|366:66,1,70,8|0,0:0|0:0,0:0:0:0:
284,44,6141,1,2,0:0:0:0:
200,60,6419,1,0,0:0:0:0:
236,136,6697,2,0,P|249:168|246:202,1,70,8|0,0:0|0:0,0:0:0:0:
166,178,7252,6,0,P|132:185|109:210,1,70,2|0,0:0|0:0,0:0:0:0:
73,286,7808,2,0,P|46:266|27:236,1,70,8|0,0:0|0:0,0:0:0:0:
20,151,8364,1,2,0:0:0:0:
72,84,8641,1,0,0:0:0:0:
148,48,8919,1,2,0:0:0:0:
232,64,9197,6,0,P|264:96|308:108,1,70,0|2,0:0|0:0,0:0:0:0:
364,140,9753,2,0,P|400:160|420:192,1,70,0|8,0:0|0:0,0:0:0:0:
284,288,10586,2,0,P|272:316|228:348,1,70,2|0,0:0|0:0,0:0:0:0:
204,268,11141,2,0,P|176:280|128:280,1,70,10|0,0:0|0:0,0:0:0:0:
156,200,11697,6,0,P|108:192|76:164,1,70,2|0,0:0|0:0,0:0:0:0:
148,120,12253,2,0,P|124:88|120:52,1,70,8|0,0:0|0:0,0:0:0:0:
204,56,12808,1,0,0:0:0:0:
256,213,13364,1,2,0:0:0:0:
317,57,13919,5,2,0:0:0:0:
396,84,14197,1,0,0:0:0:0:
464,132,14475,2,0,P|480:168|460:224,1,70,8|2,0:0|0:0,0:0:0:0:
424,264,15030,1,2,0:0:0:0:
341,281,15308,1,0,0:0:0:0:
276,228,15586,2,0,P|232:224|196:236,1,70,8|0,0:0|0:0,0:0:0:0:
144,284,16141,5,2,0:0:0:0:
76,132,16697,1,8,0:0:0:0:
144,284,17253,2,0,P|184:300|228:292,1,70,2|0,0:0|0:0,0:0:0:0:
292,276,17808,2,0,P|324:272|376:292,1,70,2|0,0:0|0:0,0:0:0:0:
420,224,18364,6,0,L|420:136,1,70,2|0,0:0|0:0,0:0:0:0:
452,76,18919,2,0,B|418:67|418:67|372:80,1,70,8|0,0:0|0:0,0:0:0:0:
324,136,19475,1,2,0:0:0:0:
164,80,20030,2,0,B|130:71|130:71|84:84,1,70,8|0,0:0|0:0,0:0:0:0:
132,156,20586,5,2,0:0:0:0:
232,288,21141,1,8,0:0:0:0:
260,124,21697,1,0,0:0:0:0:
344,272,22253,2,0,P|380:280|424:265,1,70,8|0,0:0|0:0,0:0:0:0:
460,204,22808,6,0,P|452:160|432:136,1,70,2|0,0:0|0:0,0:0:0:0:
375,85,23364,1,8,0:0:0:0:
296,112,23641,2,0,P|264:120|216:104,1,70,0|2,0:0|0:0,0:0:0:0:
148,84,24197,1,0,0:0:0:0:
84,140,24475,1,8,0:0:0:0:
56,220,24753,6,0,L|0:240,2,35,0|0|2,0:0|0:0|0:0,0:0:0:0:
220,180,25586,2,0,P|260:172|296:188,1,70,8|0,0:0|0:0,0:0:0:0:
348,240,26141,1,2,0:0:0:0:
408,300,26419,1,2,0:0:0:0:
468,240,26697,2,0,P|496:200|504:152,1,70,8|0,0:0|0:0,0:0:0:0:
436,128,27253,6,0,P|400:140|348:128,1,70,2|0,0:0|0:0,0:0:0:0:
287,120,27808,1,8,0:0:0:0:
276,204,28086,2,0,P|272:240|236:284,1,70,0|2,0:0|0:0,0:0:0:0:
192,324,28642,1,0,0:0:0:0:
117,284,28920,1,8,0:0:0:0:
69,214,29198,6,0,L|20:236,2,35,0|0|2,0:0|0:0|0:0,0:0:0:0:
226,160,30030,1,8,0:0:0:0:
384,112,30586,6,0,P|414:146|424:192,1,70,2|0,0:0|0:0,0:0:0:0:
465,240,31141,2,0,P|425:251|381:242,1,70,2|0,0:0|0:0,0:0:0:0:
324,204,31697,1,2,0:0:0:0:
256,252,31975,1,0,0:0:0:0:
180,288,32253,6,0,P|145:290|112:268,1,70,8|0,0:0|0:0,0:0:0:0:
76,200,32808,1,2,0:0:0:0:
76,116,33086,1,0,0:0:0:0:
256,192,33364,12,8,34475,0:0:0:0:
257,72,35586,5,8,0:0:0:0:
328,120,35864,2,0,L|383:137,2,35,0|0|2,0:0|0:0|0:0,0:0:0:0:
260,168,36419,2,0,L|207:151,2,35,0|0|2,0:0|0:0|0:0,0:0:0:0:
324,224,36975,1,0,0:0:0:0:
372,292,37253,2,0,P|352:320|308:340,1,70,8|0,0:0|0:0,0:0:0:0:
238,339,37808,1,8,0:0:0:0:
180,279,38086,6,0,L|146:268,2,35,0|0|2,0:0|0:0|0:0,0:0:0:0:
248,231,38641,2,0,L|281:241,2,35,0|0|2,0:0|0:0|0:0,0:0:0:0:
179,182,39197,1,0,0:0:0:0:
153,102,39475,2,0,P|177:82|221:74,1,70,2|0,0:0|0:0,0:0:0:0:
299,74,40030,2,0,P|348:87|376:119,1,70,10|8,0:0|0:0,0:0:0:0:
452,244,40864,5,8,0:0:0:0:
452,244,41141,2,0,L|399:336,2,105,8|0|0,0:0|0:0|0:0,0:0:0:0:
404,176,42253,2,0,B|364:164|328:192,1,70,10|0,0:0|0:0,0:0:0:0:
308,265,42808,2,0,P|256:273|184:252,1,105,0|8,0:0|0:0,0:0:0:0:
120,172,43641,6,0,P|84:136|84:104,2,70,0|2|0,0:0|0:0|0:0,0:0:0:0:
197,139,44475,1,10,0:0:0:0:
272,100,44753,5,0,0:0:0:0:
345,59,45030,2,0,P|381:95|385:119,1,70,2|0,0:0|0:0,0:0:0:0:
384,195,45586,1,2,0:0:0:0:
352,272,45864,1,0,0:0:0:0:
288,326,46141,2,0,P|256:338|212:314,1,70,8|0,0:0|0:0,0:0:0:0:
163,268,46697,1,8,0:0:0:0:
140,188,46975,6,0,L|76:188,2,35,0|0|8,0:0|0:0|0:0,0:0:0:0:
152,104,47530,2,0,L|99:87,2,35,0|0|2,0:0|0:0|0:0,0:0:0:0:
230,140,48086,1,8,0:0:0:0:
276,212,48364,2,0,L|276:284,1,70,2|0,0:0|0:0,0:0:0:0:
340,336,48919,1,8,0:0:0:0:
412,292,49197,5,0,0:0:0:0:
460,224,49475,2,0,P|484:176|480:144,1,70,8|0,0:0|0:0,0:0:0:0:
440,88,50030,2,0,P|404:84|368:60,1,70,2|0,0:0|0:0,0:0:0:0:
295,38,50586,1,2,0:0:0:0:
231,93,50864,1,10,0:0:0:0:
148,108,51141,1,10,0:0:0:0:
86,164,51419,6,0,P|54:178|20:176,2,70,0|2|0,0:0|0:0|0:0,0:0:0:0:
144,224,52253,2,0,P|152:260|180:284,1,70,8|0,0:0|0:0,0:0:0:0:
260,276,52808,2,0,L|260:184,1,70,8|0,0:0|0:0,0:0:0:0:
260,120,53364,1,10,0:0:0:0:
218,48,53641,6,0,L|162:48,2,35,0|0|2,0:0|0:0|0:0,0:0:0:0:
302,48,54197,2,0,L|354:49,2,35,0|0|2,0:0|0:0|0:0,0:0:0:0:
260,120,54753,1,8,0:0:0:0:
296,196,55030,2,0,L|340:280,1,70,2|2,0:0|0:0,0:0:0:0:
411,273,55586,1,10,0:0:0:0:
164,316,56419,5,0,0:0:0:0:
108,252,56697,1,8,0:0:0:0:
184,104,57253,1,0,0:0:0:0:
256,60,57530,1,0,0:0:0:0:
328,104,57808,1,8,0:0:0:0:
256,192,57947,12,8,59753,0:0:0:0:
