osu file format v14

[General]
AudioFilename: Take Me Anywhere.mp3
AudioLeadIn: 0
PreviewTime: 34891
Countdown: 0
SampleSet: Soft
StackLeniency: 0.7
Mode: 0
LetterboxInBreaks: 0
WidescreenStoryboard: 0

[Editor]
Bookmarks: 4998,13887,22221,33332,35554,42776
DistanceSpacing: 1
BeatDivisor: 4
GridSize: 4
TimelineZoom: 0.9999996

[Metadata]
Title:Take Me Anywhere
TitleUnicode:Take Me Anywhere
Artist:Kan R. Gao
ArtistUnicode:Kan R. Gao
Creator:ego_17
Version:Hard
Source:To the Moon
Tags:games soundtrack freebird ost piano reives
BeatmapID:1436968
BeatmapSetID:205118

[Difficulty]
HPDrainRate:6
CircleSize:4
OverallDifficulty:5
ApproachRate:7
SliderMultiplier:1.7
SliderTickRate:1

[Events]
//Background and Video events
0,0,"ss (2014-07-23 at 11.46.02).jpg",0,0
//Break Periods
//Storyboard Layer 0 (Background)
//Storyboard Layer 1 (Fail)
//Storyboard Layer 2 (Pass)
//Storyboard Layer 3 (Foreground)
//Storyboard Sound Samples

[TimingPoints]
2253,555.555555555556,4,2,2,55,1,0
33364,-100,4,2,1,40,0,0
35586,-100,4,2,1,40,0,1
55586,-100,4,2,1,40,0,0
59753,-100,4,2,1,15,0,0

[Colours]
Combo1 : 105,0,210
Combo2 : 0,128,255
Combo3 : 0,155,0
Combo4 : 164,164,0
Combo5 : 255,102,28

[HitObjects]
420,180,2253,5,0,0:0:0:0:
256,228,2808,1,0,0:0:0:0:
84,180,3364,1,0,0:0:0:0:
212,64,3919,6,0,P|260:56|312:72,1,85
364,112,4475,1,2,0:0:0:0:
256,168,5030,5,2,0:0:0:0:
300,240,5308,1,0,0:0:0:0:
216,240,5586,1,8,0:0:0:0:
256,316,5864,2,0,L|256:368,2,42.5,0|0|2,0:0|0:0|0:0,0:0:0:0:
328,272,6419,1,0,0:0:0:0:
360,244,6558,1,0,0:0:0:0:
372,204,6697,1,8,0:0:0:0:
368,120,6975,5,0,0:0:0:0:
340,88,7114,1,0,0:0:0:0:
304,68,7253,2,0,P|260:56|208:76,1,85,2|0,0:0|0:0,0:0:0:0:
167,135,7808,1,8,0:0:0:0:
332,212,8364,1,2,0:0:0:0:
256,176,8641,1,0,0:0:0:0:
180,212,8919,1,2,0:0:0:0:
256,257,9197,5,0,0:0:0:0:
256,301,9336,1,0,0:0:0:0:
256,345,9475,1,2,0:0:0:0:
172,360,9753,1,0,0:0:0:0:
172,360,10030,1,8,0:0:0:0:
116,296,10308,1,0,0:0:0:0:
96,260,10447,1,0,0:0:0:0:
88,220,10586,1,2,0:0:0:0:
76,136,10864,1,0,0:0:0:0:
76,136,11141,1,10,0:0:0:0:
144,84,11419,5,0,0:0:0:0:
177,60,11558,1,0,0:0:0:0:
216,48,11697,2,0,P|260:40|312:56,1,85,2|0,0:0|0:0,0:0:0:0:
372,88,12252,1,8,0:0:0:0:
124,163,12808,1,0,0:0:0:0:
383,199,13364,1,2,0:0:0:0:
255,88,13919,5,2,0:0:0:0:
215,164,14197,1,0,0:0:0:0:
299,164,14475,1,8,0:0:0:0:
255,236,14753,1,2,0:0:0:0:
255,280,14891,1,0,0:0:0:0:
255,324,15030,1,2,0:0:0:0:
340,312,15308,1,0,0:0:0:0:
376,288,15447,1,0,0:0:0:0:
400,252,15586,1,8,0:0:0:0:
429,169,15864,5,0,0:0:0:0:
406,83,16141,2,0,P|366:63|302:71,1,85,2|0,0:0|0:0,0:0:0:0:
256,117,16697,1,8,0:0:0:0:
257,282,17253,1,2,0:0:0:0:
320,336,17530,1,0,0:0:0:0:
245,362,17808,1,2,0:0:0:0:
245,362,18364,5,2,0:0:0:0:
179,311,18641,1,0,0:0:0:0:
257,282,18919,1,8,0:0:0:0:
265,197,19197,1,0,0:0:0:0:
285,161,19336,1,0,0:0:0:0:
321,137,19475,1,2,0:0:0:0:
297,57,19752,1,2,0:0:0:0:
257,45,19891,1,0,0:0:0:0:
217,57,20030,1,8,0:0:0:0:
166,128,20308,5,0,0:0:0:0:
166,128,20586,1,2,0:0:0:0:
256,276,21141,1,8,0:0:0:0:
386,67,21697,1,0,0:0:0:0:
124,71,22253,1,8,0:0:0:0:
124,71,22808,5,2,0:0:0:0:
256,176,23364,1,8,0:0:0:0:
172,176,23641,1,0,0:0:0:0:
144,208,23780,1,0,0:0:0:0:
148,252,23919,1,2,0:0:0:0:
212,308,24197,1,0,0:0:0:0:
297,308,24475,1,8,0:0:0:0:
364,252,24753,5,0,0:0:0:0:
368,208,24891,1,0,0:0:0:0:
340,176,25030,1,2,0:0:0:0:
256,324,25586,1,8,0:0:0:0:
256,240,25864,1,0,0:0:0:0:
256,197,26003,1,0,0:0:0:0:
256,154,26141,1,2,0:0:0:0:
340,128,26419,1,2,0:0:0:0:
296,56,26697,2,0,P|256:44|196:76,1,85,8|0,0:0|0:0,0:0:0:0:
172,128,27253,5,2,0:0:0:0:
172,128,27808,1,8,0:0:0:0:
216,200,28086,1,0,0:0:0:0:
256,216,28225,1,0,0:0:0:0:
296,200,28364,1,2,0:0:0:0:
348,136,28641,1,0,0:0:0:0:
416,184,28919,1,8,0:0:0:0:
396,268,29197,5,0,0:0:0:0:
360,288,29336,1,0,0:0:0:0:
320,276,29475,1,2,0:0:0:0:
256,124,30030,1,8,0:0:0:0:
256,124,30586,5,2,0:0:0:0:
230,89,30725,1,0,0:0:0:0:
189,78,30864,1,0,0:0:0:0:
100,84,31141,2,0,P|64:100|36:132,1,42.5,2|0,0:0|0:0,0:0:0:0:
92,180,31558,2,0,P|72:188|44:216,1,42.5
100,272,31975,1,0,0:0:0:0:
172,316,32253,1,8,0:0:0:0:
256,324,32530,6,0,L|256:376,2,42.5,0|0|2,0:0|0:0|0:0,0:0:0:0:
340,316,33086,1,0,0:0:0:0:
412,272,33364,1,10,0:0:0:0:
256,192,33641,12,8,34475,0:0:0:0:
196,64,34891,5,0,0:0:0:0:
196,64,35030,1,8,0:0:0:0:
272,100,35308,1,0,0:0:0:0:
336,156,35586,1,8,0:0:0:0:
404,204,35864,6,0,L|448:204,2,42.5,0|0|2,0:0|0:0|0:0,0:0:0:0:
348,268,36419,2,0,L|348:312,2,42.5,0|0|2,0:0|0:0|0:0,0:0:0:0:
292,204,36975,1,0,0:0:0:0:
232,264,37253,1,2,0:0:0:0:
196,286,37391,2,0,P|148:290|124:262,1,85,8|0,0:0|0:0,0:0:0:0:
112,224,37808,1,8,0:0:0:0:
100,140,38086,6,0,L|56:140,2,42.5,0|0|2,0:0|0:0|0:0,0:0:0:0:
156,76,38641,2,0,L|156:32,2,42.5,0|0|2,0:0|0:0|0:0,0:0:0:0:
216,136,39197,1,0,0:0:0:0:
248,56,39475,1,2,0:0:0:0:
284,80,39614,1,8,0:0:0:0:
308,116,39753,1,0,0:0:0:0:
344,92,39891,1,0,0:0:0:0:
384,76,40030,1,10,0:0:0:0:
392,160,40308,1,8,0:0:0:0:
252,60,40864,5,8,0:0:0:0:
252,60,41141,1,8,0:0:0:0:
152,108,41512,1,0,0:0:0:0:
96,208,41882,1,0,0:0:0:0:
80,320,42253,1,10,0:0:0:0:
249,320,42808,5,0,0:0:0:0:
176,276,43086,1,0,0:0:0:0:
176,276,43225,1,8,0:0:0:0:
132,156,43641,5,0,0:0:0:0:
179,86,43919,1,2,0:0:0:0:
216,66,44058,2,0,P|258:53|300:70,1,85,8|0,0:0|0:0,0:0:0:0:
333,85,44475,1,10,0:0:0:0:
416,108,44753,6,0,L|460:64,2,42.5,0|0|2,0:0|0:0|0:0,0:0:0:0:
356,168,45308,2,0,L|310:215,2,42.5,0|0|2,0:0|0:0|0:0,0:0:0:0:
436,192,45864,1,0,0:0:0:0:
480,264,46141,1,2,0:0:0:0:
488,304,46280,2,0,P|480:340|416:364,1,85,8|0,0:0|0:0,0:0:0:0:
400,376,46697,1,8,0:0:0:0:
336,316,46975,6,0,L|336:260,2,42.5,0|0|8,0:0|0:0|0:0,0:0:0:0:
256,340,47530,2,0,L|256:404,2,42.5,0|0|2,0:0|0:0|0:0,0:0:0:0:
184,292,48086,1,0,0:0:0:0:
256,248,48364,1,2,0:0:0:0:
256,204,48503,2,0,L|256:107,1,85,2|0,0:0|0:0,0:0:0:0:
256,75,48919,1,8,0:0:0:0:
171,68,49197,5,0,0:0:0:0:
131,84,49336,1,0,0:0:0:0:
99,112,49475,2,0,P|75:140|63:196,1,85,8|0,0:0|0:0,0:0:0:0:
99,261,50030,1,2,0:0:0:0:
179,237,50308,2,0,L|179:173,2,42.5,0|0|2,0:0|0:0|0:0,0:0:0:0:
247,289,50864,1,10,0:0:0:0:
315,237,51141,1,10,0:0:0:0:
383,289,51419,6,0,P|427:285|455:233,1,85,0|2,0:0|0:0,0:0:0:0:
391,205,51975,1,0,0:0:0:0:
391,205,52253,1,8,0:0:0:0:
317,154,52530,1,0,0:0:0:0:
285,126,52669,1,0,0:0:0:0:
257,94,52808,2,0,L|257:44,2,42.5,8|0|0,0:0|0:0|0:0,0:0:0:0:
229,126,53224,1,0,0:0:0:0:
197,154,53363,1,10,0:0:0:0:
117,239,53641,6,0,L|74:284,2,42.5,0|0|2,0:0|0:0|0:0,0:0:0:0:
255,257,54197,2,0,L|255:313,2,42.5,0|0|2,0:0|0:0|0:0,0:0:0:0:
395,239,54752,1,8,0:0:0:0:
395,239,55030,1,2,0:0:0:0:
292,144,55308,1,2,0:0:0:0:
256,123,55447,1,0,0:0:0:0:
220,144,55586,1,10,0:0:0:0:
120,136,56419,5,0,0:0:0:0:
147,217,56697,1,0,0:0:0:0:
147,217,56836,1,8,0:0:0:0:
212,328,57253,1,0,0:0:0:0:
300,328,57530,1,0,0:0:0:0:
256,256,57808,1,8,0:0:0:0:
326,202,58086,6,0,P|319:128|303:96,1,85
259,52,58641,1,0,0:0:0:0:
219,127,58919,2,0,L|236:243,1,85,8|0,0:0|0:0,0:0:0:0:
181,279,59475,2,0,P|157:259|149:219,2,42.5,0|0|8,0:0|0:0|0:0,0:0:0:0:
