osu file format v14

[General]
AudioFilename: lollipop.mp3
AudioLeadIn: 0
PreviewTime: 77424
Countdown: 0
SampleSet: Normal
StackLeniency: 0.7
Mode: 1
LetterboxInBreaks: 0
WidescreenStoryboard: 0

[Editor]
Bookmarks: 47510,64264,171381,194546,233498
DistanceSpacing: 1
BeatDivisor: 8
GridSize: 32
TimelineZoom: 2

[Metadata]
Title:lollipop
TitleUnicode:lollipop
Artist:kamome sano
ArtistUnicode:kamome sano
Creator:Kith190
Version:Shy Oni
Source:
Tags:happy ending POPOVER+TEATIME 2 Kawaii C90 LLMR-058 comiket 90 Lilium Records
BeatmapID:1513375
BeatmapSetID:716292

[Difficulty]
HPDrainRate:6
CircleSize:5
OverallDifficulty:6
ApproachRate:6
SliderMultiplier:1.4
SliderTickRate:1

[Events]
//Background and Video events
0,0,"18tag.jpg",0,0
//Break Periods
//Storyboard Layer 0 (Background)
//Storyboard Layer 1 (Fail)
//Storyboard Layer 2 (Pass)
//Storyboard Layer 3 (Foreground)
//Storyboard Sound Samples

[TimingPoints]
5,483.870967741935,4,1,0,75,1,0
5,-90.9090909090908,4,1,0,75,0,0
13311,-83.3333333333333,4,1,0,75,0,0
14884,-80,4,1,0,75,0,0
15488,-76.9230769230769,4,1,0,75,0,0
27585,-80,4,1,0,75,0,0
27827,-83.3333333333333,4,1,0,75,0,0
28069,-86.9565217391306,4,1,0,75,0,0
28311,-90.9090909090908,4,1,0,75,0,0
28553,-95.238095238095,4,1,0,75,0,0
28795,-100,4,1,0,75,0,0
29279,-105.263157894737,4,1,0,5,0,0
30609,-74.0740740740741,4,1,0,75,0,0
46456,-71.4285714285714,4,1,0,75,0,0
58553,-70.4225352112676,4,1,0,75,0,0
58795,-69.4444444444444,4,1,0,75,0,0
59037,-68.4931506849315,4,1,0,75,0,0
59279,-67.5675675675676,4,1,0,75,0,0
59521,-66.6666666666667,4,1,0,75,0,0
59763,-65.7894736842105,4,1,0,75,0,0
60004,-64.9350649350649,4,1,0,75,0,0
60246,-64.1025641025641,4,1,0,75,0,0
60488,-63.2911392405063,4,1,0,75,0,0
60730,-62.5,4,1,0,75,0,0
62908,-71.4285714285714,4,1,0,75,0,0
63875,-71.4285714285714,4,1,0,75,0,0
64117,-71.4285714285714,4,1,0,75,0,0
77424,-66.6666666666667,4,1,0,100,0,1
91214,-66.2251655629139,4,1,0,100,0,1
91335,-65.7894736842105,4,1,0,100,0,1
91456,-65.359477124183,4,1,0,100,0,1
91577,-64.9350649350649,4,1,0,100,0,1
91698,-64.5161290322581,4,1,0,100,0,1
91819,-64.1025641025641,4,1,0,100,0,1
91940,-63.6942675159236,4,1,0,100,0,1
92061,-63.2911392405063,4,1,0,100,0,1
92182,-62.8930817610063,4,1,0,100,0,1
92303,-62.5,4,1,0,100,0,1
92545,-61.7283950617284,4,1,0,100,0,1
92666,-61.3496932515337,4,1,0,100,0,1
92908,-60.6060606060606,4,1,0,100,0,1
93150,-66.6666666666667,4,1,0,100,0,1
107182,-66.2251655629139,4,1,0,100,0,1
107303,-65.7894736842105,4,1,0,100,0,1
107424,-65.359477124183,4,1,0,100,0,1
107545,-64.9350649350649,4,1,0,100,0,1
107666,-64.5161290322581,4,1,0,100,0,1
107787,-64.1025641025641,4,1,0,100,0,1
107908,-63.6942675159236,4,1,0,100,0,1
108029,-63.2911392405063,4,1,0,100,0,1
108271,-62.5,4,1,0,100,0,1
108392,-62.111801242236,4,1,0,100,0,0
108634,-76.9230769230769,4,1,0,75,0,0
125932,-71.4285714285714,4,1,0,75,0,0
128230,-76.9230769230769,4,1,0,75,0,0
129803,-71.4285714285714,4,1,0,75,0,0
131859,-76.9230769230769,4,1,0,75,0,0
133674,-71.4285714285714,4,1,0,75,0,0
135972,-76.9230769230769,4,1,0,75,0,0
138271,-76.9230769230769,4,1,0,75,0,0
138392,-77.5193798449612,4,1,0,75,0,0
138513,-78.125,4,1,0,75,0,0
138634,-78.7401574803149,4,1,0,75,0,0
138754,-79.3650793650794,4,1,0,75,0,0
138875,-80,4,1,0,75,0,0
139359,-82.6446280991736,4,1,0,75,0,0
141295,-83.3333333333333,4,1,0,75,0,0
154843,-76.9230769230769,4,1,0,75,0,0
170327,-80,4,1,0,75,0,0
170569,-83.3333333333333,4,1,0,75,0,0
170811,-86.9565217391306,4,1,0,75,0,0
171172,-90.9090909090908,4,1,0,75,0,0
182424,-86.9565217391306,4,1,0,75,0,0
182787,-83.3333333333333,4,1,0,75,0,0
183392,-80,4,1,0,75,0,0
183754,-76.9230769230769,4,1,0,75,0,0
185327,-76.3358778625954,4,1,0,75,0,0
185408,-75.7575757575758,4,1,0,75,0,0
185488,-75.187969924812,4,1,0,75,0,0
185569,-74.6268656716418,4,1,0,75,0,0
185650,-74.0740740740741,4,1,0,75,0,0
185730,-73.5294117647059,4,1,0,75,0,0
185811,-72.992700729927,4,1,0,75,0,0
186053,-76.9230769230769,4,1,0,75,0,0
189924,-74.0740740740741,4,1,0,75,0,0
193795,-71.4285714285714,4,1,0,75,0,0
199359,-70.4225352112676,4,1,0,75,0,0
199601,-69.4444444444444,4,1,0,75,0,0
199843,-68.4931506849315,4,1,0,75,0,0
200085,-67.5675675675676,4,1,0,75,0,0
201295,-71.4285714285714,4,1,0,75,0,0
218835,-68.9655172413793,4,1,0,75,0,0
220650,-71.4285714285714,4,1,0,75,0,0
222706,-68.9655172413793,4,1,0,75,0,0
224521,-71.4285714285714,4,1,0,75,0,0
226577,-68.9655172413793,4,1,0,75,0,0
228392,-71.4285714285714,4,1,0,75,0,0
228875,-70.4225352112676,4,1,0,75,0,0
229117,-69.4444444444444,4,1,0,75,0,0
229359,-68.4931506849315,4,1,0,75,0,0
229601,-67.5675675675676,4,1,0,75,0,0
229843,-66.6666666666667,4,1,0,75,0,0
230085,-65.7894736842105,4,1,0,75,0,0
230326,-64.9350649350649,4,1,0,75,0,0
230568,-64.1025641025641,4,1,0,75,0,0
230810,-63.2911392405063,4,1,0,75,0,0
231052,-62.5,4,1,0,75,0,0
232263,-66.6666666666667,4,1,0,100,0,1
246053,-66.2251655629139,4,1,0,100,0,1
246174,-65.7894736842105,4,1,0,100,0,1
246295,-65.359477124183,4,1,0,100,0,1
246416,-64.9350649350649,4,1,0,100,0,1
246537,-64.5161290322581,4,1,0,100,0,1
246658,-64.1025641025641,4,1,0,100,0,1
246779,-63.6942675159236,4,1,0,100,0,1
246900,-63.2911392405063,4,1,0,100,0,1
247021,-62.8930817610063,4,1,0,100,0,1
247142,-62.5,4,1,0,100,0,1
247384,-61.7283950617284,4,1,0,100,0,1
247505,-61.3496932515337,4,1,0,100,0,1
247747,-60.6060606060606,4,1,0,100,0,1
247988,-66.6666666666667,4,1,0,100,0,1
262021,-66.2251655629139,4,1,0,100,0,1
262142,-65.7894736842105,4,1,0,100,0,1
262263,-65.359477124183,4,1,0,100,0,1
262384,-64.9350649350649,4,1,0,100,0,1
262505,-64.5161290322581,4,1,0,100,0,1
262626,-64.1025641025641,4,1,0,100,0,1
262747,-63.6942675159236,4,1,0,100,0,1
262867,-63.2911392405063,4,1,0,100,0,1
263230,-62.111801242236,4,1,0,75,0,0
265166,-76.9230769230769,4,1,0,75,0,0
276658,-76.3358778625954,4,1,0,75,0,0
276779,-75.7575757575758,4,1,0,75,0,0
276900,-75.187969924812,4,1,0,75,0,0
277021,-74.6268656716418,4,1,0,75,0,0
277142,-74.0740740740741,4,1,0,75,0,0
277263,-73.5294117647059,4,1,0,75,0,0
277504,-72.463768115942,4,1,0,75,0,0
277625,-71.9424460431655,4,1,0,75,0,0
277746,-71.4285714285714,4,1,0,75,0,0
277867,-70.9219858156028,4,1,0,75,0,0
277988,-70.4225352112676,4,1,0,75,0,0
278109,-69.9300699300699,4,1,0,75,0,0
278230,-69.4444444444444,4,1,0,75,0,0
278714,-90.9090909090908,4,1,0,75,0,0
294682,-90.9090909090908,4,1,0,20,0,0

[HitObjects]
256,192,5,5,8,0:0:0:0:
256,192,1698,1,0,0:0:0:0:
256,192,2666,1,8,0:0:0:0:
256,192,3876,1,8,0:0:0:0:
256,192,5569,1,0,0:0:0:0:
256,192,6537,1,0,0:0:0:0:
256,192,7747,1,8,0:0:0:0:
256,192,9440,1,0,0:0:0:0:
256,192,10408,1,8,0:0:0:0:
256,192,11617,1,8,0:0:0:0:
256,192,12343,1,0,0:0:0:0:
256,192,13311,12,0,14279,0:0:0:0:
256,192,14884,5,8,0:0:0:0:
256,192,15488,1,0,0:0:0:0:
256,192,15972,1,8,0:0:0:0:
256,192,16335,1,0,0:0:0:0:
256,192,16698,1,0,0:0:0:0:
256,192,16940,1,8,0:0:0:0:
256,192,17182,1,0,0:0:0:0:
256,192,17666,1,0,0:0:0:0:
256,192,17908,1,0,0:0:0:0:
256,192,18150,1,8,0:0:0:0:
256,192,18634,1,0,0:0:0:0:
256,192,18876,1,0,0:0:0:0:
256,192,19359,1,0,0:0:0:0:
256,192,19843,1,8,0:0:0:0:
256,192,20206,1,0,0:0:0:0:
256,192,20569,1,0,0:0:0:0:
256,192,20811,1,8,0:0:0:0:
256,192,21053,1,8,0:0:0:0:
256,192,21537,1,0,0:0:0:0:
256,192,21779,1,0,0:0:0:0:
256,192,22021,1,8,0:0:0:0:
256,192,22505,1,0,0:0:0:0:
256,192,22747,1,8,0:0:0:0:
256,192,23230,1,0,0:0:0:0:
256,192,23714,1,8,0:0:0:0:
256,192,24077,1,0,0:0:0:0:
256,192,24440,1,0,0:0:0:0:
256,192,24682,1,8,0:0:0:0:
256,192,24924,1,0,0:0:0:0:
256,192,25408,1,0,0:0:0:0:
256,192,25650,1,0,0:0:0:0:
256,192,25892,1,8,0:0:0:0:
256,192,26376,1,0,0:0:0:0:
256,192,26617,1,8,0:0:0:0:
256,192,27101,1,0,0:0:0:0:
256,192,27585,1,8,0:0:0:0:
256,192,27948,1,0,0:0:0:0:
256,160,28311,1,0,0:0:0:0:
256,160,28553,1,8,0:0:0:0:
224,160,28916,1,8,0:0:0:0:
256,192,29279,12,8,30488,0:0:0:0:
256,192,30972,5,0,0:0:0:0:
256,192,31214,1,0,0:0:0:0:
256,192,31456,1,8,0:0:0:0:
256,192,31517,1,8,0:0:0:0:
256,192,31819,1,0,0:0:0:0:
256,192,32424,1,8,0:0:0:0:
280,195,32484,1,8,0:0:0:0:
256,192,32787,1,0,0:0:0:0:
256,192,33029,1,0,0:0:0:0:
256,192,33089,1,0,0:0:0:0:
256,192,33150,1,8,0:0:0:0:
256,192,33392,1,0,0:0:0:0:
256,192,33513,1,8,0:0:0:0:
256,192,33755,1,8,0:0:0:0:
256,192,33996,1,0,0:0:0:0:
266,197,34057,1,0,0:0:0:0:
256,192,34117,1,8,0:0:0:0:
256,192,34238,1,0,0:0:0:0:
256,192,34359,1,8,0:0:0:0:
256,192,34480,1,8,0:0:0:0:
256,192,34722,1,0,0:0:0:0:
256,192,35327,1,8,0:0:0:0:
280,195,35388,1,8,0:0:0:0:
256,192,35690,1,0,0:0:0:0:
256,192,36295,1,8,0:0:0:0:
280,195,36355,1,8,0:0:0:0:
256,192,36658,1,0,0:0:0:0:
256,192,36900,1,8,0:0:0:0:
256,192,36960,1,8,0:0:0:0:
256,192,37021,1,0,0:0:0:0:
256,192,37142,1,8,0:0:0:0:
256,192,37263,1,0,0:0:0:0:
256,192,37384,1,0,0:0:0:0:
256,192,37505,1,8,0:0:0:0:
256,192,37626,1,8,0:0:0:0:
256,192,37867,1,8,0:0:0:0:
256,192,37988,1,0,0:0:0:0:
256,192,38109,1,0,0:0:0:0:
256,192,38230,1,8,0:0:0:0:
256,192,38351,1,0,0:0:0:0:
256,192,38472,1,8,0:0:0:0:
256,192,38593,1,0,0:0:0:0:
256,192,38956,1,0,0:0:0:0:
275,189,39198,1,8,0:0:0:0:
176,144,39259,1,8,0:0:0:0:
256,192,39561,1,0,0:0:0:0:
256,192,40166,1,8,0:0:0:0:
176,144,40226,1,8,0:0:0:0:
256,192,40529,1,0,0:0:0:0:
256,192,40771,1,0,0:0:0:0:
256,192,40831,1,0,0:0:0:0:
256,192,40892,1,8,0:0:0:0:
256,192,41134,1,0,0:0:0:0:
256,192,41255,1,8,0:0:0:0:
256,192,41496,1,8,0:0:0:0:
256,192,41738,1,0,0:0:0:0:
256,192,41799,1,0,0:0:0:0:
256,192,41859,1,8,0:0:0:0:
256,192,41980,1,0,0:0:0:0:
256,192,42101,1,8,0:0:0:0:
256,192,42222,1,8,0:0:0:0:
256,192,42464,1,0,0:0:0:0:
256,192,43069,1,8,0:0:0:0:
176,144,43129,1,8,0:0:0:0:
256,192,43432,1,8,0:0:0:0:
256,192,44037,1,8,0:0:0:0:
176,144,44097,1,8,0:0:0:0:
256,192,44400,1,0,0:0:0:0:
256,192,44642,1,0,0:0:0:0:
256,192,44702,1,0,0:0:0:0:
256,192,44763,1,8,0:0:0:0:
256,192,44884,1,0,0:0:0:0:
256,192,45005,1,0,0:0:0:0:
256,192,45126,1,8,0:0:0:0:
256,192,45246,1,8,0:0:0:0:
256,192,45367,1,0,0:0:0:0:
256,192,45609,1,8,0:0:0:0:
256,192,45730,1,0,0:0:0:0:
256,192,45851,1,8,0:0:0:0:
256,192,46093,1,0,0:0:0:0:
256,192,46456,1,0,0:0:0:0:
256,192,46698,1,0,0:0:0:0:
256,192,46819,1,0,0:0:0:0:
256,192,46940,1,8,0:0:0:0:
256,192,47182,1,8,0:0:0:0:
256,192,47303,1,0,0:0:0:0:
256,192,47545,1,8,0:0:0:0:
256,192,47666,1,0,0:0:0:0:
256,192,47787,1,0,0:0:0:0:
256,192,47908,1,8,0:0:0:0:
256,192,48150,1,8,0:0:0:0:
256,192,48271,1,0,0:0:0:0:
256,192,48513,1,0,0:0:0:0:
245,191,48573,1,0,0:0:0:0:
256,192,48634,1,8,0:0:0:0:
256,192,48755,1,0,0:0:0:0:
256,192,48876,1,0,0:0:0:0:
256,192,48996,1,8,0:0:0:0:
256,192,49238,1,8,0:0:0:0:
244,191,49480,1,0,0:0:0:0:
241,200,49541,1,0,0:0:0:0:
256,192,49601,1,8,0:0:0:0:
256,192,49722,1,0,0:0:0:0:
256,192,49843,1,8,0:0:0:0:
256,192,49964,1,8,0:0:0:0:
256,192,50085,1,8,0:0:0:0:
256,192,50206,1,0,0:0:0:0:
256,192,50569,1,0,0:0:0:0:
256,192,50690,1,0,0:0:0:0:
256,192,50811,1,8,0:0:0:0:
256,192,51053,1,8,0:0:0:0:
256,192,51174,1,8,0:0:0:0:
256,192,51416,1,8,0:0:0:0:
256,192,51537,1,0,0:0:0:0:
256,192,51658,1,0,0:0:0:0:
256,192,51779,1,8,0:0:0:0:
256,192,52021,1,8,0:0:0:0:
256,192,52142,1,0,0:0:0:0:
256,192,52384,1,8,0:0:0:0:
247,187,52444,1,8,0:0:0:0:
256,192,52505,1,0,0:0:0:0:
256,192,52626,1,8,0:0:0:0:
256,192,52746,1,0,0:0:0:0:
256,192,52867,1,0,0:0:0:0:
256,192,52988,1,8,0:0:0:0:
256,192,53109,1,8,0:0:0:0:
256,192,53351,1,8,0:0:0:0:
256,192,53472,1,0,0:0:0:0:
256,192,53593,1,0,0:0:0:0:
256,192,53714,1,8,0:0:0:0:
256,192,53835,1,0,0:0:0:0:
256,192,53956,1,8,0:0:0:0:
256,192,54077,1,0,0:0:0:0:
5,321,54198,1,0,0:0:0:0:
256,192,54440,1,0,0:0:0:0:
256,192,54682,1,8,0:0:0:0:
176,144,54742,1,8,0:0:0:0:
256,192,55045,1,0,0:0:0:0:
256,192,55650,1,8,0:0:0:0:
176,144,55710,1,8,0:0:0:0:
256,192,56013,1,0,0:0:0:0:
256,192,56255,1,0,0:0:0:0:
228,187,56315,1,0,0:0:0:0:
256,192,56376,1,8,0:0:0:0:
256,192,56617,1,0,0:0:0:0:
256,192,56738,1,8,0:0:0:0:
256,192,56980,1,8,0:0:0:0:
256,192,57222,1,0,0:0:0:0:
228,187,57283,1,0,0:0:0:0:
256,192,57343,1,8,0:0:0:0:
256,192,57464,1,0,0:0:0:0:
256,192,57585,1,8,0:0:0:0:
256,192,57706,1,8,0:0:0:0:
256,192,57948,1,0,0:0:0:0:
256,192,58069,1,0,0:0:0:0:
256,192,58553,1,0,0:0:0:0:
256,192,59037,1,0,0:0:0:0:
256,192,59521,1,0,0:0:0:0:
256,192,59763,1,0,0:0:0:0:
256,192,60005,1,8,0:0:0:0:
256,192,60246,1,8,0:0:0:0:
256,192,60488,1,8,0:0:0:0:
256,192,60730,1,8,0:0:0:0:
256,192,60851,1,8,0:0:0:0:
256,192,60972,1,0,0:0:0:0:
256,192,61093,1,8,0:0:0:0:
256,192,61214,1,0,0:0:0:0:
256,192,61335,1,0,0:0:0:0:
256,192,61456,1,8,0:0:0:0:
256,192,61940,1,4,0:0:0:0:
274,193,62908,1,8,0:0:0:0:
268,200,63029,1,0,0:0:0:0:
268,200,63150,1,8,0:0:0:0:
268,200,63271,1,8,0:0:0:0:
256,192,63755,1,4,0:0:0:0:
256,192,64117,1,8,0:0:0:0:
256,192,64238,1,8,0:0:0:0:
256,192,64359,1,0,0:0:0:0:
256,192,64480,1,0,0:0:0:0:
256,192,64601,1,8,0:0:0:0:
256,192,64722,1,8,0:0:0:0:
256,192,64843,1,0,0:0:0:0:
256,192,65206,1,8,0:0:0:0:
256,192,65327,1,8,0:0:0:0:
256,192,65569,1,8,0:0:0:0:
256,192,65690,1,8,0:0:0:0:
256,192,65811,1,0,0:0:0:0:
256,192,66053,1,8,0:0:0:0:
256,192,66174,1,8,0:0:0:0:
256,192,66295,1,0,0:0:0:0:
256,192,66416,1,0,0:0:0:0:
256,192,66537,1,8,0:0:0:0:
256,192,66658,1,8,0:0:0:0:
256,192,66779,1,8,0:0:0:0:
256,192,67021,1,0,0:0:0:0:
256,192,67142,1,8,0:0:0:0:
224,192,67384,1,0,0:0:0:0:
256,192,67505,1,8,0:0:0:0:
256,192,67626,1,8,0:0:0:0:
256,192,67746,1,0,0:0:0:0:
256,192,67988,1,8,0:0:0:0:
256,192,68109,1,8,0:0:0:0:
256,192,68230,1,0,0:0:0:0:
256,192,68351,1,0,0:0:0:0:
256,192,68472,1,8,0:0:0:0:
256,192,68593,1,0,0:0:0:0:
256,192,68714,1,0,0:0:0:0:
256,192,69077,1,8,0:0:0:0:
256,192,69198,1,8,0:0:0:0:
256,192,69440,1,8,0:0:0:0:
256,192,69561,1,8,0:0:0:0:
256,192,69682,1,0,0:0:0:0:
256,192,69924,1,8,0:0:0:0:
256,192,70045,1,0,0:0:0:0:
256,192,70166,1,8,0:0:0:0:
256,192,70287,1,8,0:0:0:0:
256,192,70408,1,0,0:0:0:0:
256,192,70650,1,0,0:0:0:0:
256,192,70771,1,8,0:0:0:0:
288,192,71013,1,8,0:0:0:0:
320,192,71134,1,0,0:0:0:0:
288,192,71254,1,0,0:0:0:0:
288,192,71375,1,0,0:0:0:0:
288,192,71496,1,8,0:0:0:0:
288,192,71617,1,8,0:0:0:0:
288,192,71859,1,8,0:0:0:0:
288,192,71980,1,8,0:0:0:0:
288,192,72101,1,0,0:0:0:0:
288,192,72222,1,0,0:0:0:0:
288,192,72343,1,8,0:0:0:0:
288,192,72464,1,8,0:0:0:0:
288,192,72585,1,0,0:0:0:0:
288,192,72948,1,8,0:0:0:0:
288,192,73069,1,8,0:0:0:0:
288,192,73311,1,8,0:0:0:0:
288,192,73432,1,8,0:0:0:0:
288,192,73553,1,0,0:0:0:0:
256,192,73795,1,0,0:0:0:0:
256,192,73916,1,0,0:0:0:0:
256,192,74037,1,8,0:0:0:0:
256,192,74158,1,0,0:0:0:0:
256,192,74279,1,0,0:0:0:0:
256,192,74400,1,8,0:0:0:0:
256,192,74521,1,0,0:0:0:0:
256,192,74884,1,0,0:0:0:0:
256,192,75005,1,0,0:0:0:0:
256,192,75367,1,8,0:0:0:0:
288,192,75488,1,8,0:0:0:0:
288,192,75730,1,8,0:0:0:0:
256,192,75972,1,8,0:0:0:0:
256,192,76214,1,0,0:0:0:0:
256,192,76335,1,8,0:0:0:0:
256,192,76456,1,8,0:0:0:0:
256,192,76577,1,0,0:0:0:0:
256,192,76698,1,8,0:0:0:0:
256,192,76819,1,0,0:0:0:0:
256,192,76940,1,8,0:0:0:0:
256,192,77021,1,8,0:0:0:0:
241,180,77101,1,0,0:0:0:0:
256,160,77182,1,8,0:0:0:0:
256,192,77424,1,4,0:0:0:0:
256,192,77666,1,0,0:0:0:0:
256,192,77787,1,0,0:0:0:0:
256,192,77908,1,8,0:0:0:0:
256,192,78150,1,8,0:0:0:0:
256,192,78271,1,0,0:0:0:0:
256,192,78513,1,8,0:0:0:0:
256,192,78634,1,0,0:0:0:0:
256,192,78755,1,0,0:0:0:0:
256,192,78876,1,8,0:0:0:0:
256,192,79118,1,8,0:0:0:0:
256,192,79239,1,0,0:0:0:0:
264,180,79480,1,0,0:0:0:0:
256,192,79541,1,0,0:0:0:0:
256,192,79602,1,8,0:0:0:0:
256,192,79723,1,0,0:0:0:0:
256,192,79844,1,0,0:0:0:0:
256,192,79964,1,8,0:0:0:0:
256,192,80206,1,8,0:0:0:0:
256,192,80448,1,0,0:0:0:0:
256,192,80569,1,8,0:0:0:0:
256,192,80690,1,0,0:0:0:0:
256,192,80811,1,8,0:0:0:0:
256,192,80932,1,8,0:0:0:0:
256,192,81053,1,8,0:0:0:0:
256,192,81174,1,0,0:0:0:0:
256,192,81537,1,0,0:0:0:0:
256,192,81658,1,0,0:0:0:0:
256,192,81779,1,8,0:0:0:0:
256,192,82021,1,8,0:0:0:0:
256,192,82142,1,8,0:0:0:0:
256,192,82384,1,8,0:0:0:0:
256,192,82505,1,0,0:0:0:0:
256,192,82626,1,0,0:0:0:0:
256,192,82747,1,8,0:0:0:0:
256,192,82989,1,8,0:0:0:0:
256,192,83110,1,0,0:0:0:0:
256,192,83352,1,8,0:0:0:0:
250,180,83412,1,8,0:0:0:0:
256,192,83473,1,0,0:0:0:0:
256,192,83594,1,8,0:0:0:0:
256,192,83714,1,0,0:0:0:0:
256,192,83835,1,0,0:0:0:0:
256,192,83956,1,8,0:0:0:0:
256,192,84077,1,8,0:0:0:0:
256,192,84319,1,8,0:0:0:0:
256,192,84440,1,0,0:0:0:0:
256,192,84561,1,0,0:0:0:0:
256,192,84682,1,0,0:0:0:0:
256,192,84803,1,8,0:0:0:0:
256,192,84924,1,8,0:0:0:0:
256,192,85045,1,0,0:0:0:0:
256,192,85408,1,0,0:0:0:0:
256,192,85529,1,0,0:0:0:0:
256,192,85650,1,8,0:0:0:0:
256,192,85892,1,8,0:0:0:0:
256,192,86013,1,0,0:0:0:0:
256,192,86255,1,8,0:0:0:0:
256,192,86376,1,0,0:0:0:0:
256,192,86497,1,0,0:0:0:0:
256,192,86618,1,8,0:0:0:0:
256,192,86860,1,8,0:0:0:0:
256,192,86981,1,0,0:0:0:0:
256,192,87223,1,0,0:0:0:0:
250,180,87283,1,0,0:0:0:0:
256,192,87344,1,8,0:0:0:0:
256,192,87465,1,0,0:0:0:0:
256,192,87586,1,0,0:0:0:0:
256,192,87706,1,8,0:0:0:0:
256,192,87948,1,8,0:0:0:0:
256,192,88190,1,0,0:0:0:0:
256,192,88311,1,8,0:0:0:0:
256,192,88432,1,0,0:0:0:0:
256,192,88553,1,8,0:0:0:0:
256,192,88674,1,8,0:0:0:0:
256,192,88795,1,8,0:0:0:0:
256,192,88916,1,0,0:0:0:0:
256,192,89279,1,0,0:0:0:0:
256,192,89400,1,0,0:0:0:0:
256,192,89521,1,8,0:0:0:0:
256,192,89763,1,8,0:0:0:0:
256,192,89884,1,8,0:0:0:0:
256,192,90126,1,8,0:0:0:0:
256,192,90247,1,0,0:0:0:0:
256,192,90368,1,0,0:0:0:0:
256,192,90489,1,8,0:0:0:0:
256,192,90731,1,8,0:0:0:0:
256,192,90852,1,0,0:0:0:0:
256,192,91094,1,8,0:0:0:0:
250,180,91154,1,8,0:0:0:0:
256,192,91215,1,0,0:0:0:0:
256,192,91336,1,8,0:0:0:0:
256,192,91456,1,0,0:0:0:0:
256,192,91577,1,8,0:0:0:0:
256,192,91698,1,8,0:0:0:0:
256,192,91819,1,8,0:0:0:0:
256,192,91940,1,0,0:0:0:0:
256,192,92061,1,8,0:0:0:0:
256,192,92182,1,0,0:0:0:0:
256,192,92303,1,8,0:0:0:0:
256,192,92545,1,8,0:0:0:0:
256,192,92666,1,8,0:0:0:0:
256,192,92908,1,4,0:0:0:0:
256,192,93150,1,0,0:0:0:0:
256,192,93271,1,0,0:0:0:0:
256,192,93392,1,8,0:0:0:0:
256,192,93634,1,8,0:0:0:0:
256,192,93755,1,0,0:0:0:0:
256,192,93997,1,8,0:0:0:0:
256,192,94118,1,0,0:0:0:0:
256,192,94239,1,0,0:0:0:0:
256,192,94360,1,8,0:0:0:0:
256,192,94602,1,8,0:0:0:0:
256,192,94723,1,0,0:0:0:0:
251,187,94964,1,0,0:0:0:0:
256,192,95025,1,0,0:0:0:0:
256,192,95086,1,8,0:0:0:0:
256,192,95207,1,0,0:0:0:0:
256,192,95328,1,0,0:0:0:0:
256,192,95448,1,8,0:0:0:0:
256,192,95690,1,8,0:0:0:0:
256,192,95932,1,0,0:0:0:0:
251,187,95992,1,0,0:0:0:0:
256,192,96053,1,8,0:0:0:0:
256,192,96174,1,0,0:0:0:0:
256,192,96295,1,8,0:0:0:0:
256,192,96416,1,8,0:0:0:0:
256,192,96537,1,8,0:0:0:0:
256,192,96658,1,0,0:0:0:0:
256,192,97021,1,0,0:0:0:0:
256,192,97142,1,0,0:0:0:0:
256,192,97263,1,8,0:0:0:0:
256,192,97505,1,8,0:0:0:0:
256,192,97626,1,8,0:0:0:0:
256,192,97868,1,8,0:0:0:0:
256,192,97989,1,0,0:0:0:0:
256,192,98110,1,0,0:0:0:0:
256,192,98231,1,8,0:0:0:0:
256,192,98473,1,8,0:0:0:0:
256,192,98594,1,0,0:0:0:0:
256,192,98836,1,8,0:0:0:0:
254,197,98896,1,8,0:0:0:0:
256,192,98957,1,0,0:0:0:0:
256,192,99078,1,8,0:0:0:0:
256,192,99198,1,0,0:0:0:0:
256,192,99319,1,0,0:0:0:0:
256,192,99440,1,8,0:0:0:0:
256,192,99561,1,8,0:0:0:0:
256,192,99682,1,0,0:0:0:0:
256,192,99803,1,8,0:0:0:0:
256,192,99924,1,0,0:0:0:0:
256,192,100045,1,0,0:0:0:0:
256,192,100166,1,0,0:0:0:0:
256,192,100287,1,8,0:0:0:0:
256,192,100408,1,8,0:0:0:0:
256,192,100529,1,0,0:0:0:0:
261,190,100650,1,0,0:0:0:0:
256,192,100892,1,0,0:0:0:0:
256,192,101013,1,0,0:0:0:0:
256,192,101134,1,8,0:0:0:0:
256,192,101376,1,8,0:0:0:0:
256,192,101497,1,0,0:0:0:0:
256,192,101739,1,8,0:0:0:0:
256,192,101860,1,0,0:0:0:0:
256,192,101981,1,0,0:0:0:0:
256,192,102102,1,8,0:0:0:0:
256,192,102344,1,8,0:0:0:0:
256,192,102465,1,0,0:0:0:0:
256,192,102707,1,0,0:0:0:0:
261,191,102767,1,0,0:0:0:0:
256,192,102828,1,8,0:0:0:0:
256,192,102949,1,0,0:0:0:0:
256,192,103070,1,0,0:0:0:0:
256,192,103190,1,8,0:0:0:0:
256,192,103432,1,8,0:0:0:0:
256,192,103674,1,0,0:0:0:0:
256,192,103795,1,8,0:0:0:0:
256,192,103916,1,0,0:0:0:0:
256,192,104037,1,8,0:0:0:0:
256,192,104158,1,8,0:0:0:0:
256,192,104279,1,8,0:0:0:0:
256,192,104400,1,0,0:0:0:0:
256,192,104763,1,0,0:0:0:0:
256,192,104884,1,0,0:0:0:0:
256,192,105005,1,8,0:0:0:0:
256,192,105247,1,8,0:0:0:0:
256,192,105368,1,8,0:0:0:0:
256,192,105610,1,8,0:0:0:0:
256,192,105731,1,0,0:0:0:0:
256,192,105852,1,0,0:0:0:0:
256,192,105973,1,8,0:0:0:0:
256,192,106214,1,8,0:0:0:0:
256,192,106335,1,8,0:0:0:0:
256,192,106456,1,0,0:0:0:0:
256,192,106698,1,8,0:0:0:0:
256,192,106940,1,8,0:0:0:0:
256,192,107182,1,8,0:0:0:0:
256,192,107303,1,8,0:0:0:0:
256,192,107424,1,0,0:0:0:0:
256,192,107545,1,8,0:0:0:0:
256,192,107666,1,0,0:0:0:0:
256,192,107787,1,0,0:0:0:0:
256,192,107908,1,8,0:0:0:0:
256,192,108029,1,0,0:0:0:0:
256,192,108271,1,0,0:0:0:0:
242,178,108392,1,0,0:0:0:0:
256,192,108876,1,8,0:0:0:0:
256,192,109239,1,0,0:0:0:0:
256,192,109844,1,8,0:0:0:0:
256,192,110207,1,0,0:0:0:0:
256,192,110570,1,8,0:0:0:0:
288,192,110811,1,0,0:0:0:0:
256,192,110932,1,8,0:0:0:0:
256,192,111174,1,8,0:0:0:0:
256,192,111416,1,8,0:0:0:0:
256,192,111658,1,8,0:0:0:0:
256,192,111779,1,0,0:0:0:0:
256,192,111900,1,8,0:0:0:0:
256,192,112142,1,0,0:0:0:0:
252,175,112504,1,0,0:0:0:0:
256,192,112747,1,8,0:0:0:0:
256,192,113109,1,0,0:0:0:0:
256,192,113715,1,0,0:0:0:0:
256,192,114077,1,8,0:0:0:0:
256,192,114440,1,0,0:0:0:0:
256,192,114682,1,8,0:0:0:0:
256,192,114924,1,8,0:0:0:0:
256,192,115045,1,8,0:0:0:0:
256,192,115166,1,0,0:0:0:0:
256,192,115287,1,8,0:0:0:0:
256,192,115408,1,0,0:0:0:0:
256,192,115529,1,0,0:0:0:0:
256,192,115650,1,8,0:0:0:0:
256,192,116134,1,0,0:0:0:0:
256,192,116376,1,0,0:0:0:0:
256,192,116617,1,8,0:0:0:0:
256,192,116981,1,0,0:0:0:0:
256,192,117586,1,8,0:0:0:0:
256,192,117949,1,0,0:0:0:0:
256,192,118312,1,8,0:0:0:0:
288,192,118553,1,0,0:0:0:0:
256,192,118674,1,8,0:0:0:0:
256,192,118916,1,8,0:0:0:0:
256,192,119158,1,8,0:0:0:0:
224,192,119400,1,8,0:0:0:0:
256,192,119521,1,0,0:0:0:0:
256,192,119642,1,8,0:0:0:0:
256,192,119884,1,0,0:0:0:0:
256,192,120246,1,0,0:0:0:0:
256,192,120489,1,8,0:0:0:0:
256,192,120852,1,0,0:0:0:0:
256,192,121456,1,0,0:0:0:0:
256,192,121820,1,8,0:0:0:0:
256,192,122183,1,8,0:0:0:0:
288,192,122424,1,0,0:0:0:0:
256,192,122545,1,8,0:0:0:0:
256,192,122787,1,8,0:0:0:0:
256,192,123029,1,0,0:0:0:0:
224,192,123271,1,8,0:0:0:0:
256,192,123392,1,0,0:0:0:0:
256,192,123513,1,0,0:0:0:0:
256,192,123634,1,0,0:0:0:0:
256,192,123754,1,8,0:0:0:0:
256,192,123876,1,0,0:0:0:0:
256,192,124359,1,12,0:0:0:0:
256,192,124723,1,0,0:0:0:0:
256,192,125328,1,8,0:0:0:0:
256,192,125691,1,0,0:0:0:0:
256,192,125933,1,0,0:0:0:0:
256,192,126054,1,8,0:0:0:0:
256,192,126296,1,0,0:0:0:0:
256,192,126417,1,8,0:0:0:0:
256,192,126659,1,8,0:0:0:0:
256,192,126900,1,0,0:0:0:0:
242,193,126960,1,0,0:0:0:0:
256,192,127021,1,8,0:0:0:0:
256,192,127142,1,0,0:0:0:0:
256,192,127263,1,8,0:0:0:0:
256,192,127384,1,8,0:0:0:0:
256,192,127626,1,0,0:0:0:0:
256,192,128231,1,8,0:0:0:0:
256,192,128593,1,0,0:0:0:0:
256,192,129199,1,0,0:0:0:0:
256,192,129562,1,8,0:0:0:0:
256,192,129803,1,8,0:0:0:0:
256,192,129924,1,0,0:0:0:0:
256,192,130045,1,8,0:0:0:0:
256,192,130165,1,0,0:0:0:0:
256,192,130286,1,0,0:0:0:0:
256,192,130407,1,8,0:0:0:0:
256,192,130528,1,8,0:0:0:0:
256,192,130770,1,8,0:0:0:0:
256,192,130891,1,0,0:0:0:0:
256,192,131012,1,0,0:0:0:0:
256,192,131133,1,0,0:0:0:0:
256,192,131254,1,8,0:0:0:0:
256,192,131375,1,8,0:0:0:0:
256,192,131496,1,0,0:0:0:0:
256,192,131860,1,0,0:0:0:0:
256,192,132102,1,8,0:0:0:0:
256,192,132465,1,0,0:0:0:0:
256,192,133070,1,8,0:0:0:0:
256,192,133433,1,0,0:0:0:0:
256,192,133675,1,0,0:0:0:0:
256,192,133796,1,8,0:0:0:0:
256,192,134038,1,0,0:0:0:0:
256,192,134159,1,8,0:0:0:0:
256,192,134400,1,8,0:0:0:0:
256,192,134642,1,0,0:0:0:0:
236,180,134702,1,0,0:0:0:0:
256,192,134763,1,8,0:0:0:0:
256,192,134884,1,0,0:0:0:0:
256,192,135005,1,8,0:0:0:0:
256,192,135126,1,8,0:0:0:0:
256,192,135368,1,0,0:0:0:0:
262,195,135488,1,8,0:0:0:0:
256,192,135972,1,8,0:0:0:0:
256,192,136214,1,0,0:0:0:0:
256,192,136456,1,8,0:0:0:0:
256,192,136698,1,0,0:0:0:0:
256,192,136940,1,8,0:0:0:0:
256,192,137182,1,8,0:0:0:0:
256,192,137424,1,0,0:0:0:0:
256,192,137666,1,8,0:0:0:0:
256,192,137908,1,0,0:0:0:0:
256,192,138150,1,8,0:0:0:0:
256,192,138271,1,8,0:0:0:0:
256,192,138392,1,0,0:0:0:0:
256,192,138513,1,8,0:0:0:0:
256,192,138634,1,0,0:0:0:0:
256,192,138755,1,0,0:0:0:0:
256,192,138876,1,8,0:0:0:0:
256,192,139359,1,8,0:0:0:0:
256,192,141295,1,0,0:0:0:0:
256,160,142142,1,0,0:0:0:0:
256,160,143230,1,8,0:0:0:0:
256,160,145166,1,0,0:0:0:0:
256,160,146013,1,0,0:0:0:0:
256,160,147101,1,8,0:0:0:0:
256,160,149037,1,0,0:0:0:0:
256,160,149884,1,0,0:0:0:0:
256,160,150972,1,8,0:0:0:0:
256,160,152908,1,0,0:0:0:0:
256,160,153755,1,0,0:0:0:0:
256,192,154843,1,0,0:0:0:0:
246,194,154964,1,8,0:0:0:0:
256,192,155085,1,0,0:0:0:0:
256,192,155206,1,0,0:0:0:0:
256,192,155327,1,8,0:0:0:0:
256,192,155569,1,0,0:0:0:0:
256,192,155690,1,8,0:0:0:0:
256,192,155932,1,8,0:0:0:0:
256,192,156053,1,0,0:0:0:0:
256,192,156174,1,0,0:0:0:0:
256,192,156295,1,8,0:0:0:0:
256,192,156537,1,0,0:0:0:0:
256,192,156658,1,8,0:0:0:0:
256,192,156900,1,8,0:0:0:0:
256,192,157021,1,8,0:0:0:0:
256,192,157142,1,0,0:0:0:0:
256,192,157263,1,8,0:0:0:0:
256,192,157504,1,0,0:0:0:0:
256,192,157625,1,8,0:0:0:0:
244,191,157867,1,0,0:0:0:0:
256,192,157988,1,0,0:0:0:0:
227,190,158109,1,0,0:0:0:0:
256,192,158230,1,8,0:0:0:0:
256,192,158351,1,8,0:0:0:0:
256,192,158472,1,0,0:0:0:0:
256,192,158593,1,8,0:0:0:0:
244,191,158714,1,0,0:0:0:0:
256,192,158956,1,0,0:0:0:0:
256,192,159077,1,0,0:0:0:0:
256,192,159198,1,8,0:0:0:0:
256,192,159440,1,0,0:0:0:0:
256,192,159561,1,8,0:0:0:0:
256,192,159803,1,8,0:0:0:0:
256,192,159924,1,0,0:0:0:0:
245,178,160045,1,0,0:0:0:0:
256,192,160166,1,8,0:0:0:0:
253,168,160287,1,8,0:0:0:0:
224,160,160408,5,0,0:0:0:0:
210,169,160468,1,0,0:0:0:0:
256,160,160529,1,8,0:0:0:0:
245,166,160589,1,8,0:0:0:0:
255,168,160650,1,0,0:0:0:0:
224,160,160892,1,0,0:0:0:0:
228,160,161013,1,0,0:0:0:0:
228,160,161134,1,8,0:0:0:0:
224,160,161376,1,0,0:0:0:0:
224,160,161496,1,8,0:0:0:0:
224,160,161738,1,8,0:0:0:0:
224,160,161859,1,0,0:0:0:0:
224,160,161980,1,0,0:0:0:0:
224,160,162101,1,8,0:0:0:0:
224,160,162222,1,0,0:0:0:0:
217,163,162283,1,0,0:0:0:0:
192,160,162343,1,8,0:0:0:0:
209,172,162404,1,0,0:0:0:0:
209,169,162464,1,8,0:0:0:0:
224,160,162585,1,0,0:0:0:0:
224,160,162827,1,0,0:0:0:0:
224,160,162948,1,0,0:0:0:0:
224,160,163069,1,8,0:0:0:0:
224,160,163311,1,0,0:0:0:0:
224,160,163432,1,8,0:0:0:0:
224,160,163674,1,8,0:0:0:0:
224,160,163795,1,0,0:0:0:0:
224,160,163916,1,0,0:0:0:0:
224,160,164037,1,8,0:0:0:0:
224,160,164279,1,0,0:0:0:0:
226,154,164400,1,8,0:0:0:0:
224,160,164642,1,8,0:0:0:0:
224,160,164763,1,8,0:0:0:0:
224,160,164884,1,0,0:0:0:0:
224,160,165005,1,8,0:0:0:0:
224,160,165246,1,0,0:0:0:0:
224,160,165367,1,8,0:0:0:0:
224,160,165609,1,0,0:0:0:0:
224,160,165730,1,0,0:0:0:0:
224,160,165851,1,0,0:0:0:0:
224,160,165972,1,8,0:0:0:0:
224,160,166093,1,0,0:0:0:0:
224,160,166214,1,8,0:0:0:0:
224,160,166335,1,8,0:0:0:0:
233,166,166456,1,0,0:0:0:0:
256,160,166698,1,0,0:0:0:0:
256,160,166819,1,0,0:0:0:0:
256,160,166940,1,8,0:0:0:0:
256,160,167182,1,0,0:0:0:0:
256,160,167303,1,8,0:0:0:0:
256,160,167545,1,8,0:0:0:0:
256,160,167666,1,0,0:0:0:0:
245,148,167787,1,0,0:0:0:0:
256,160,167908,1,8,0:0:0:0:
256,160,168029,1,8,0:0:0:0:
224,160,168150,1,0,0:0:0:0:
247,162,168210,1,0,0:0:0:0:
247,162,168271,1,8,0:0:0:0:
247,162,168331,1,8,0:0:0:0:
247,162,168392,1,0,0:0:0:0:
256,160,168634,1,0,0:0:0:0:
256,160,168755,1,0,0:0:0:0:
256,160,168876,1,8,0:0:0:0:
224,160,169118,1,0,0:0:0:0:
224,160,169238,1,8,0:0:0:0:
224,160,169480,1,0,0:0:0:0:
224,160,169601,1,8,0:0:0:0:
224,160,169722,1,8,0:0:0:0:
224,160,169843,1,0,0:0:0:0:
224,160,169964,1,0,0:0:0:0:
229,137,170025,1,0,0:0:0:0:
256,192,170085,1,8,0:0:0:0:
236,155,170146,1,0,0:0:0:0:
236,155,170206,1,8,0:0:0:0:
224,160,170327,1,0,0:0:0:0:
256,192,170569,1,0,0:0:0:0:
256,192,170811,1,8,0:0:0:0:
176,144,170871,1,8,0:0:0:0:
256,192,171174,1,0,0:0:0:0:
256,192,171779,1,8,0:0:0:0:
176,144,171839,1,8,0:0:0:0:
256,192,172142,1,0,0:0:0:0:
256,192,172384,1,0,0:0:0:0:
263,200,172444,1,0,0:0:0:0:
256,192,172505,1,8,0:0:0:0:
256,192,172746,1,0,0:0:0:0:
256,192,172867,1,8,0:0:0:0:
256,192,173109,1,8,0:0:0:0:
256,192,173351,1,0,0:0:0:0:
257,198,173412,1,0,0:0:0:0:
256,192,173472,1,8,0:0:0:0:
256,192,173593,1,0,0:0:0:0:
256,192,173714,1,8,0:0:0:0:
256,192,173835,1,8,0:0:0:0:
256,192,174077,1,0,0:0:0:0:
256,192,174682,1,8,0:0:0:0:
176,144,174742,1,8,0:0:0:0:
256,192,175045,1,0,0:0:0:0:
176,144,175650,1,8,0:0:0:0:
176,144,175710,1,8,0:0:0:0:
256,192,176013,1,8,0:0:0:0:
256,192,176254,1,8,0:0:0:0:
256,197,176315,1,8,0:0:0:0:
256,192,176375,1,0,0:0:0:0:
256,192,176496,1,8,0:0:0:0:
256,192,176616,1,0,0:0:0:0:
256,192,176737,1,0,0:0:0:0:
256,192,176858,1,8,0:0:0:0:
256,192,176979,1,8,0:0:0:0:
256,192,177221,1,8,0:0:0:0:
256,192,177342,1,0,0:0:0:0:
256,192,177463,1,0,0:0:0:0:
256,192,177584,1,0,0:0:0:0:
256,192,177705,1,8,0:0:0:0:
256,192,177826,1,8,0:0:0:0:
256,192,177947,1,0,0:0:0:0:
256,192,178311,1,0,0:0:0:0:
256,192,178553,1,8,0:0:0:0:
176,144,178613,1,8,0:0:0:0:
256,192,178916,1,0,0:0:0:0:
256,192,179521,1,8,0:0:0:0:
176,144,179581,1,8,0:0:0:0:
256,192,179884,1,0,0:0:0:0:
256,192,180126,1,0,0:0:0:0:
256,197,180186,1,0,0:0:0:0:
256,192,180247,1,8,0:0:0:0:
256,192,180489,1,0,0:0:0:0:
256,192,180610,1,8,0:0:0:0:
256,192,180851,1,8,0:0:0:0:
256,192,181093,1,0,0:0:0:0:
241,187,181154,1,0,0:0:0:0:
256,192,181214,1,8,0:0:0:0:
256,192,181335,1,0,0:0:0:0:
256,192,181456,1,8,0:0:0:0:
256,192,181577,1,8,0:0:0:0:
256,192,181819,1,0,0:0:0:0:
256,192,182424,1,8,0:0:0:0:
176,144,182484,1,8,0:0:0:0:
256,192,182787,1,8,0:0:0:0:
256,192,183392,1,8,0:0:0:0:
176,144,183452,1,8,0:0:0:0:
256,192,183755,1,0,0:0:0:0:
256,192,183996,1,8,0:0:0:0:
240,180,184057,1,8,0:0:0:0:
256,192,184117,1,0,0:0:0:0:
256,192,184238,1,8,0:0:0:0:
256,192,184358,1,0,0:0:0:0:
256,192,184479,1,0,0:0:0:0:
256,192,184600,1,8,0:0:0:0:
256,192,184721,1,8,0:0:0:0:
256,192,184963,1,8,0:0:0:0:
256,192,185084,1,0,0:0:0:0:
256,192,185205,1,8,0:0:0:0:
256,192,185326,1,0,0:0:0:0:
256,192,185408,1,0,0:0:0:0:
256,192,185488,1,8,0:0:0:0:
256,192,185568,1,8,0:0:0:0:
256,192,185650,1,8,0:0:0:0:
256,192,185730,1,8,0:0:0:0:
256,192,185811,1,0,0:0:0:0:
256,192,186053,1,0,0:0:0:0:
256,192,186174,1,0,0:0:0:0:
256,192,186295,1,8,0:0:0:0:
256,192,186537,1,8,0:0:0:0:
256,192,186658,1,0,0:0:0:0:
256,192,186900,1,8,0:0:0:0:
256,192,187021,1,0,0:0:0:0:
256,192,187142,1,0,0:0:0:0:
256,192,187263,1,8,0:0:0:0:
256,192,187505,1,8,0:0:0:0:
256,192,187626,1,0,0:0:0:0:
256,192,187868,1,0,0:0:0:0:
237,175,187928,1,0,0:0:0:0:
256,192,187989,1,8,0:0:0:0:
256,192,188110,1,0,0:0:0:0:
256,192,188231,1,0,0:0:0:0:
256,192,188351,1,8,0:0:0:0:
256,192,188593,1,8,0:0:0:0:
256,192,188835,1,0,0:0:0:0:
237,175,188896,1,0,0:0:0:0:
256,192,188956,1,8,0:0:0:0:
256,192,189077,1,0,0:0:0:0:
256,192,189198,1,8,0:0:0:0:
256,192,189319,1,8,0:0:0:0:
256,192,189440,1,8,0:0:0:0:
256,192,189561,1,0,0:0:0:0:
256,192,189924,1,0,0:0:0:0:
256,192,190045,1,0,0:0:0:0:
256,192,190166,1,8,0:0:0:0:
256,192,190408,1,8,0:0:0:0:
256,192,190529,1,8,0:0:0:0:
256,192,190771,1,8,0:0:0:0:
256,192,190892,1,0,0:0:0:0:
256,192,191013,1,0,0:0:0:0:
256,192,191134,1,8,0:0:0:0:
256,192,191376,1,8,0:0:0:0:
256,192,191497,1,0,0:0:0:0:
256,192,191739,1,8,0:0:0:0:
237,175,191799,1,8,0:0:0:0:
256,192,191860,1,0,0:0:0:0:
256,192,191981,1,8,0:0:0:0:
256,192,192101,1,0,0:0:0:0:
256,192,192222,1,0,0:0:0:0:
256,192,192343,1,8,0:0:0:0:
256,192,192464,1,8,0:0:0:0:
256,192,192706,1,8,0:0:0:0:
256,192,192827,1,0,0:0:0:0:
256,192,192948,1,0,0:0:0:0:
256,192,193069,1,0,0:0:0:0:
256,192,193190,1,8,0:0:0:0:
256,192,193311,1,8,0:0:0:0:
256,192,193432,1,0,0:0:0:0:
256,192,193553,1,0,0:0:0:0:
256,192,193795,1,0,0:0:0:0:
256,192,193916,1,0,0:0:0:0:
256,192,194037,1,8,0:0:0:0:
256,192,194279,1,0,0:0:0:0:
256,192,194521,1,8,0:0:0:0:
256,192,194642,1,0,0:0:0:0:
224,192,194763,1,0,0:0:0:0:
224,192,194884,1,0,0:0:0:0:
224,192,195005,1,8,0:0:0:0:
224,192,195246,1,0,0:0:0:0:
224,192,195488,1,8,0:0:0:0:
224,192,195730,1,0,0:0:0:0:
224,192,195851,1,0,0:0:0:0:
224,192,195972,1,8,0:0:0:0:
224,192,196214,1,0,0:0:0:0:
224,192,196456,1,8,0:0:0:0:
224,192,196577,1,8,0:0:0:0:
224,192,196698,1,0,0:0:0:0:
224,192,196819,1,0,0:0:0:0:
224,192,196940,1,8,0:0:0:0:
224,192,197182,1,0,0:0:0:0:
224,192,197424,1,8,0:0:0:0:
224,192,197666,1,0,0:0:0:0:
256,192,197787,1,0,0:0:0:0:
256,192,197908,1,8,0:0:0:0:
224,192,198150,1,0,0:0:0:0:
256,192,198392,1,8,0:0:0:0:
256,192,198513,1,8,0:0:0:0:
224,192,198634,1,8,0:0:0:0:
256,192,198755,1,0,0:0:0:0:
256,192,198876,1,8,0:0:0:0:
224,192,199117,1,0,0:0:0:0:
256,192,199359,1,8,0:0:0:0:
256,192,199601,1,8,0:0:0:0:
256,192,199843,1,8,0:0:0:0:
256,192,200085,1,0,0:0:0:0:
256,192,200206,1,0,0:0:0:0:
256,192,200448,1,0,0:0:0:0:
256,192,200569,1,0,0:0:0:0:
256,192,200811,1,8,0:0:0:0:
256,192,201295,1,0,0:0:0:0:
256,192,201375,1,0,0:0:0:0:
256,160,201456,1,0,0:0:0:0:
256,192,201537,1,0,0:0:0:0:
256,192,201658,1,0,0:0:0:0:
256,192,201778,1,8,0:0:0:0:
256,192,202142,1,0,0:0:0:0:
256,192,202747,1,8,0:0:0:0:
256,192,203110,1,0,0:0:0:0:
256,192,203473,1,8,0:0:0:0:
288,192,203714,1,0,0:0:0:0:
256,192,203835,1,8,0:0:0:0:
256,192,204077,1,8,0:0:0:0:
256,192,204319,1,8,0:0:0:0:
256,192,204561,1,8,0:0:0:0:
256,192,204682,1,0,0:0:0:0:
256,192,204803,1,8,0:0:0:0:
256,192,205045,1,8,0:0:0:0:
256,192,205166,1,0,0:0:0:0:
256,192,205407,1,0,0:0:0:0:
256,192,205650,1,8,0:0:0:0:
256,192,206013,1,0,0:0:0:0:
256,192,206617,1,0,0:0:0:0:
256,192,206980,1,8,0:0:0:0:
256,192,207343,1,8,0:0:0:0:
288,192,207585,1,0,0:0:0:0:
256,192,207706,1,8,0:0:0:0:
256,192,207948,1,8,0:0:0:0:
256,192,208190,1,8,0:0:0:0:
256,192,208432,1,8,0:0:0:0:
256,192,208553,1,0,0:0:0:0:
256,192,208674,1,8,0:0:0:0:
256,192,208795,1,8,0:0:0:0:
256,192,208916,1,8,0:0:0:0:
256,192,209037,1,0,0:0:0:0:
256,192,209279,1,0,0:0:0:0:
256,192,209520,1,8,0:0:0:0:
256,192,209884,1,0,0:0:0:0:
256,192,210489,1,8,0:0:0:0:
256,192,210852,1,0,0:0:0:0:
256,192,211215,1,8,0:0:0:0:
288,192,211456,1,0,0:0:0:0:
256,192,211577,1,8,0:0:0:0:
256,192,211819,1,8,0:0:0:0:
256,192,212061,1,8,0:0:0:0:
256,192,212303,1,8,0:0:0:0:
256,192,212424,1,0,0:0:0:0:
256,192,212545,1,8,0:0:0:0:
256,192,212787,1,8,0:0:0:0:
256,192,212908,1,0,0:0:0:0:
256,192,213150,1,0,0:0:0:0:
256,192,213392,1,8,0:0:0:0:
256,192,213755,1,0,0:0:0:0:
256,192,214359,1,0,0:0:0:0:
256,192,214723,1,8,0:0:0:0:
256,192,215086,1,8,0:0:0:0:
288,192,215327,1,0,0:0:0:0:
256,192,215448,1,8,0:0:0:0:
256,192,215690,1,8,0:0:0:0:
224,192,215932,1,8,0:0:0:0:
256,192,216174,1,8,0:0:0:0:
256,192,216295,1,0,0:0:0:0:
256,192,216416,1,8,0:0:0:0:
256,192,216537,1,8,0:0:0:0:
256,192,216658,1,8,0:0:0:0:
256,192,216779,1,0,0:0:0:0:
256,192,217021,1,0,0:0:0:0:
256,192,217263,1,8,0:0:0:0:
256,192,217626,1,0,0:0:0:0:
256,192,218231,1,8,0:0:0:0:
256,192,218594,1,0,0:0:0:0:
256,192,218836,1,0,0:0:0:0:
256,192,218957,1,8,0:0:0:0:
256,192,219199,1,0,0:0:0:0:
256,192,219320,1,8,0:0:0:0:
256,192,219562,1,8,0:0:0:0:
237,175,219803,1,0,0:0:0:0:
237,175,219863,1,0,0:0:0:0:
256,192,219924,1,8,0:0:0:0:
256,192,220045,1,0,0:0:0:0:
256,192,220166,1,8,0:0:0:0:
256,192,220287,1,8,0:0:0:0:
256,192,220529,1,0,0:0:0:0:
256,192,220892,1,0,0:0:0:0:
256,192,221134,1,8,0:0:0:0:
256,192,221497,1,0,0:0:0:0:
256,192,222102,1,0,0:0:0:0:
256,192,222465,1,8,0:0:0:0:
256,192,222706,1,8,0:0:0:0:
256,192,222827,1,0,0:0:0:0:
256,192,222948,1,8,0:0:0:0:
256,192,223068,1,0,0:0:0:0:
256,192,223189,1,0,0:0:0:0:
256,192,223310,1,8,0:0:0:0:
256,192,223431,1,8,0:0:0:0:
256,192,223673,1,8,0:0:0:0:
256,192,223794,1,0,0:0:0:0:
256,192,223915,1,0,0:0:0:0:
256,192,224036,1,0,0:0:0:0:
256,192,224157,1,8,0:0:0:0:
256,192,224278,1,8,0:0:0:0:
256,192,224399,1,0,0:0:0:0:
256,192,224763,1,0,0:0:0:0:
256,192,225005,1,8,0:0:0:0:
256,192,225368,1,0,0:0:0:0:
256,192,225973,1,8,0:0:0:0:
256,192,226336,1,0,0:0:0:0:
256,192,226578,1,0,0:0:0:0:
256,192,226699,1,8,0:0:0:0:
256,192,226941,1,0,0:0:0:0:
256,192,227062,1,8,0:0:0:0:
256,192,227303,1,8,0:0:0:0:
237,175,227545,1,0,0:0:0:0:
237,175,227605,1,0,0:0:0:0:
256,192,227666,1,8,0:0:0:0:
256,192,227787,1,0,0:0:0:0:
256,192,227908,1,8,0:0:0:0:
256,192,228029,1,8,0:0:0:0:
256,192,228271,1,0,0:0:0:0:
235,180,228392,1,8,0:0:0:0:
288,96,228634,1,0,0:0:0:0:
256,192,228876,1,8,0:0:0:0:
256,192,229117,1,0,0:0:0:0:
256,192,229359,1,8,0:0:0:0:
256,192,229601,1,0,0:0:0:0:
256,192,229844,1,8,0:0:0:0:
256,160,230085,1,8,0:0:0:0:
256,160,230327,1,0,0:0:0:0:
256,192,230569,1,8,0:0:0:0:
256,160,230811,1,0,0:0:0:0:
256,192,231053,1,8,0:0:0:0:
256,192,231174,1,8,0:0:0:0:
256,192,231295,1,0,0:0:0:0:
256,160,231416,1,8,0:0:0:0:
256,160,231537,1,0,0:0:0:0:
256,160,231658,1,0,0:0:0:0:
256,160,231779,1,8,0:0:0:0:
224,160,232263,1,4,0:0:0:0:
256,192,232505,1,0,0:0:0:0:
256,192,232626,1,0,0:0:0:0:
256,192,232747,1,8,0:0:0:0:
256,192,232989,1,8,0:0:0:0:
256,192,233110,1,0,0:0:0:0:
256,192,233352,1,8,0:0:0:0:
256,192,233473,1,0,0:0:0:0:
256,192,233594,1,0,0:0:0:0:
256,192,233715,1,8,0:0:0:0:
256,192,233957,1,8,0:0:0:0:
256,192,234078,1,0,0:0:0:0:
237,175,234319,1,0,0:0:0:0:
256,192,234379,1,0,0:0:0:0:
256,192,234441,1,8,0:0:0:0:
256,192,234562,1,0,0:0:0:0:
256,192,234683,1,0,0:0:0:0:
256,192,234803,1,8,0:0:0:0:
256,192,235045,1,8,0:0:0:0:
256,192,235287,1,0,0:0:0:0:
265,197,235347,1,0,0:0:0:0:
256,192,235408,1,8,0:0:0:0:
256,192,235529,1,0,0:0:0:0:
256,192,235650,1,8,0:0:0:0:
256,192,235771,1,8,0:0:0:0:
256,192,235892,1,8,0:0:0:0:
256,192,236013,1,0,0:0:0:0:
256,192,236376,1,0,0:0:0:0:
256,192,236497,1,0,0:0:0:0:
256,192,236618,1,8,0:0:0:0:
256,192,236860,1,8,0:0:0:0:
256,192,236981,1,8,0:0:0:0:
256,192,237223,1,8,0:0:0:0:
256,192,237344,1,0,0:0:0:0:
256,192,237465,1,0,0:0:0:0:
256,192,237586,1,8,0:0:0:0:
256,192,237828,1,8,0:0:0:0:
256,192,237949,1,0,0:0:0:0:
256,192,238191,1,8,0:0:0:0:
262,191,238250,1,8,0:0:0:0:
256,192,238312,1,0,0:0:0:0:
256,192,238433,1,8,0:0:0:0:
256,192,238553,1,0,0:0:0:0:
256,192,238674,1,0,0:0:0:0:
256,192,238795,1,8,0:0:0:0:
256,192,238916,1,8,0:0:0:0:
256,192,239158,1,8,0:0:0:0:
256,192,239279,1,0,0:0:0:0:
256,192,239400,1,0,0:0:0:0:
256,192,239521,1,0,0:0:0:0:
256,192,239642,1,8,0:0:0:0:
256,192,239763,1,8,0:0:0:0:
256,192,239884,1,0,0:0:0:0:
256,192,240247,1,0,0:0:0:0:
256,192,240368,1,0,0:0:0:0:
256,192,240489,1,8,0:0:0:0:
256,192,240731,1,8,0:0:0:0:
256,192,240852,1,0,0:0:0:0:
256,192,241094,1,8,0:0:0:0:
256,192,241215,1,0,0:0:0:0:
256,192,241336,1,0,0:0:0:0:
256,192,241457,1,8,0:0:0:0:
256,192,241699,1,8,0:0:0:0:
256,192,241820,1,0,0:0:0:0:
256,192,242062,1,0,0:0:0:0:
262,191,242121,1,0,0:0:0:0:
256,192,242183,1,8,0:0:0:0:
256,192,242304,1,0,0:0:0:0:
256,192,242425,1,0,0:0:0:0:
256,192,242545,1,8,0:0:0:0:
256,192,242787,1,8,0:0:0:0:
256,192,243029,1,0,0:0:0:0:
256,192,243150,1,8,0:0:0:0:
256,192,243271,1,0,0:0:0:0:
256,192,243392,1,8,0:0:0:0:
256,192,243513,1,8,0:0:0:0:
256,192,243634,1,8,0:0:0:0:
256,192,243755,1,0,0:0:0:0:
256,192,244118,1,0,0:0:0:0:
256,192,244239,1,0,0:0:0:0:
256,192,244360,1,8,0:0:0:0:
256,192,244602,1,8,0:0:0:0:
256,192,244723,1,8,0:0:0:0:
256,192,244965,1,8,0:0:0:0:
256,192,245086,1,0,0:0:0:0:
256,192,245207,1,0,0:0:0:0:
256,192,245328,1,8,0:0:0:0:
256,192,245570,1,8,0:0:0:0:
256,192,245691,1,0,0:0:0:0:
256,192,245933,1,8,0:0:0:0:
262,191,245992,1,8,0:0:0:0:
256,192,246054,1,0,0:0:0:0:
256,192,246175,1,8,0:0:0:0:
256,192,246295,1,0,0:0:0:0:
256,192,246416,1,8,0:0:0:0:
256,192,246537,1,8,0:0:0:0:
256,192,246658,1,8,0:0:0:0:
256,192,246779,1,0,0:0:0:0:
256,192,246900,1,8,0:0:0:0:
256,192,247021,1,0,0:0:0:0:
256,192,247142,1,8,0:0:0:0:
256,192,247384,1,8,0:0:0:0:
256,192,247505,1,8,0:0:0:0:
256,192,247747,1,4,0:0:0:0:
256,192,247989,1,0,0:0:0:0:
256,192,248110,1,0,0:0:0:0:
256,192,248231,1,8,0:0:0:0:
256,192,248473,1,8,0:0:0:0:
256,192,248594,1,0,0:0:0:0:
256,192,248836,1,8,0:0:0:0:
256,192,248957,1,0,0:0:0:0:
256,192,249078,1,0,0:0:0:0:
256,192,249199,1,8,0:0:0:0:
256,192,249441,1,8,0:0:0:0:
256,192,249562,1,0,0:0:0:0:
256,192,249804,1,0,0:0:0:0:
262,191,249863,1,0,0:0:0:0:
256,192,249925,1,8,0:0:0:0:
256,192,250046,1,0,0:0:0:0:
256,192,250167,1,0,0:0:0:0:
256,192,250287,1,8,0:0:0:0:
256,192,250529,1,8,0:0:0:0:
256,192,250771,1,0,0:0:0:0:
256,192,250892,1,8,0:0:0:0:
256,192,251013,1,0,0:0:0:0:
256,192,251134,1,8,0:0:0:0:
256,192,251255,1,8,0:0:0:0:
256,192,251376,1,8,0:0:0:0:
256,192,251497,1,0,0:0:0:0:
256,192,251860,1,0,0:0:0:0:
256,192,251981,1,0,0:0:0:0:
256,192,252102,1,8,0:0:0:0:
256,192,252344,1,8,0:0:0:0:
256,192,252465,1,8,0:0:0:0:
256,192,252707,1,8,0:0:0:0:
256,192,252828,1,0,0:0:0:0:
256,192,252949,1,0,0:0:0:0:
256,192,253070,1,8,0:0:0:0:
256,192,253312,1,8,0:0:0:0:
256,192,253433,1,0,0:0:0:0:
256,192,253675,1,8,0:0:0:0:
262,191,253734,1,8,0:0:0:0:
256,192,253796,1,0,0:0:0:0:
256,192,253917,1,8,0:0:0:0:
256,192,254037,1,0,0:0:0:0:
256,192,254158,1,0,0:0:0:0:
256,192,254279,1,8,0:0:0:0:
256,192,254400,1,8,0:0:0:0:
256,192,254521,1,0,0:0:0:0:
256,192,254642,1,8,0:0:0:0:
256,192,254763,1,0,0:0:0:0:
256,192,254884,1,0,0:0:0:0:
256,192,255005,1,0,0:0:0:0:
256,192,255126,1,8,0:0:0:0:
256,192,255247,1,8,0:0:0:0:
256,192,255368,1,0,0:0:0:0:
257,184,255488,1,0,0:0:0:0:
256,192,255731,1,0,0:0:0:0:
256,192,255852,1,0,0:0:0:0:
256,192,255973,1,8,0:0:0:0:
256,192,256215,1,8,0:0:0:0:
256,192,256336,1,0,0:0:0:0:
256,192,256578,1,8,0:0:0:0:
256,192,256699,1,0,0:0:0:0:
256,192,256820,1,0,0:0:0:0:
256,192,256941,1,8,0:0:0:0:
256,192,257183,1,8,0:0:0:0:
256,192,257304,1,0,0:0:0:0:
256,192,257546,1,0,0:0:0:0:
262,191,257605,1,0,0:0:0:0:
256,192,257667,1,8,0:0:0:0:
256,192,257788,1,0,0:0:0:0:
256,192,257909,1,0,0:0:0:0:
256,192,258029,1,8,0:0:0:0:
256,192,258271,1,8,0:0:0:0:
256,192,258513,1,0,0:0:0:0:
256,192,258634,1,8,0:0:0:0:
256,192,258755,1,0,0:0:0:0:
256,192,258876,1,8,0:0:0:0:
256,192,258997,1,8,0:0:0:0:
256,192,259118,1,8,0:0:0:0:
256,192,259239,1,0,0:0:0:0:
256,192,259602,1,0,0:0:0:0:
256,192,259723,1,0,0:0:0:0:
256,192,259844,1,8,0:0:0:0:
256,192,260086,1,8,0:0:0:0:
256,192,260207,1,8,0:0:0:0:
256,192,260449,1,8,0:0:0:0:
256,192,260570,1,0,0:0:0:0:
256,192,260691,1,0,0:0:0:0:
256,192,260812,1,8,0:0:0:0:
256,192,261053,1,8,0:0:0:0:
256,192,261174,1,0,0:0:0:0:
256,192,261295,1,8,0:0:0:0:
256,192,261537,1,8,0:0:0:0:
256,192,261779,1,8,0:0:0:0:
256,192,262021,1,8,0:0:0:0:
256,192,262142,1,8,0:0:0:0:
256,192,262263,1,0,0:0:0:0:
256,192,262384,1,8,0:0:0:0:
256,192,262505,1,0,0:0:0:0:
256,192,262626,1,0,0:0:0:0:
256,192,262747,1,8,0:0:0:0:
263,190,262867,1,0,0:0:0:0:
277,195,263109,1,0,0:0:0:0:
256,192,263230,12,0,264682,0:0:0:0:
258,195,265166,5,0,0:0:0:0:
258,195,265408,1,0,0:0:0:0:
258,195,265650,1,8,0:0:0:0:
258,195,266013,1,0,0:0:0:0:
258,195,266134,1,0,0:0:0:0:
258,195,266375,1,0,0:0:0:0:
263,217,266617,1,8,0:0:0:0:
256,192,267101,1,0,0:0:0:0:
248,193,267343,1,0,0:0:0:0:
256,192,267584,1,8,0:0:0:0:
256,192,267827,1,0,0:0:0:0:
256,192,267948,1,8,0:0:0:0:
253,185,268190,1,8,0:0:0:0:
253,185,268311,1,0,0:0:0:0:
256,192,268553,1,8,0:0:0:0:
252,182,268795,1,8,0:0:0:0:
256,192,268916,1,0,0:0:0:0:
256,192,269279,1,0,0:0:0:0:
288,192,269520,1,0,0:0:0:0:
256,192,269642,1,8,0:0:0:0:
256,192,269884,1,8,0:0:0:0:
256,192,270125,1,8,0:0:0:0:
256,192,270367,1,8,0:0:0:0:
256,192,270488,1,0,0:0:0:0:
256,192,270609,1,8,0:0:0:0:
256,192,270851,1,8,0:0:0:0:
256,192,270972,1,0,0:0:0:0:
256,192,271213,1,0,0:0:0:0:
256,192,271456,1,8,0:0:0:0:
256,192,271819,1,0,0:0:0:0:
256,192,271940,1,0,0:0:0:0:
256,192,272182,1,0,0:0:0:0:
268,189,272424,1,8,0:0:0:0:
262,204,272666,1,8,0:0:0:0:
271,190,272787,1,0,0:0:0:0:
256,192,273150,1,0,0:0:0:0:
255,193,273392,1,0,0:0:0:0:
255,193,273513,1,8,0:0:0:0:
278,204,273754,1,0,0:0:0:0:
278,204,273996,1,0,0:0:0:0:
278,204,274238,1,8,0:0:0:0:
278,204,274359,1,8,0:0:0:0:
253,200,274843,1,0,0:0:0:0:
253,200,275085,1,0,0:0:0:0:
253,200,275327,1,8,0:0:0:0:
253,200,275569,1,0,0:0:0:0:
253,200,275690,1,8,0:0:0:0:
253,200,275932,1,8,0:0:0:0:
253,200,276053,1,0,0:0:0:0:
253,200,276295,1,8,0:0:0:0:
288,160,276537,1,0,0:0:0:0:
288,160,276658,1,8,0:0:0:0:
288,160,276779,1,0,0:0:0:0:
288,160,276900,1,0,0:0:0:0:
288,160,277021,1,8,0:0:0:0:
288,160,277142,1,0,0:0:0:0:
288,160,277263,1,8,0:0:0:0:
288,160,277505,1,0,0:0:0:0:
288,160,277626,1,8,0:0:0:0:
288,160,277746,1,0,0:0:0:0:
288,160,277867,1,0,0:0:0:0:
288,160,277988,1,8,0:0:0:0:
288,160,278109,1,0,0:0:0:0:
288,160,278230,1,0,0:0:0:0:
288,160,278714,1,0,0:0:0:0:
288,160,279198,1,8,0:0:0:0:
274,182,279561,1,0,0:0:0:0:
267,168,279924,1,0,0:0:0:0:
256,160,280166,1,8,0:0:0:0:
273,166,280529,1,8,0:0:0:0:
273,166,280650,1,0,0:0:0:0:
272,165,280892,1,0,0:0:0:0:
256,160,281134,1,8,0:0:0:0:
274,168,281375,1,8,0:0:0:0:
256,160,281496,1,0,0:0:0:0:
248,164,281738,1,0,0:0:0:0:
256,160,281980,1,0,0:0:0:0:
272,165,282101,1,8,0:0:0:0:
256,160,282585,1,0,0:0:0:0:
256,160,283069,1,8,0:0:0:0:
273,166,283432,1,0,0:0:0:0:
256,160,284037,1,8,0:0:0:0:
263,173,284400,1,0,0:0:0:0:
273,166,284521,1,0,0:0:0:0:
273,166,284763,1,0,0:0:0:0:
269,160,285004,1,0,0:0:0:0:
268,173,285125,1,8,0:0:0:0:
256,160,285367,1,0,0:0:0:0:
256,160,285609,1,8,0:0:0:0:
268,152,285851,1,8,0:0:0:0:
256,160,285972,1,0,0:0:0:0:
268,152,286093,1,8,0:0:0:0:
268,152,286335,1,8,0:0:0:0:
256,160,286456,1,0,0:0:0:0:
259,157,286698,1,0,0:0:0:0:
256,160,286940,1,8,0:0:0:0:
256,160,287303,1,8,0:0:0:0:
256,160,287908,1,8,0:0:0:0:
256,160,288271,1,0,0:0:0:0:
256,160,288876,1,0,0:0:0:0:
256,160,289238,1,0,0:0:0:0:
256,160,289722,1,8,0:0:0:0:
256,160,290327,1,8,0:0:0:0:
256,160,290811,1,8,0:0:0:0:
256,160,291174,1,8,0:0:0:0:
256,160,291779,1,8,0:0:0:0:
256,160,292142,1,0,0:0:0:0:
256,160,292746,1,0,0:0:0:0:
256,160,293109,1,8,0:0:0:0:
256,160,293593,1,0,0:0:0:0:
255,184,293835,1,8,0:0:0:0:
261,188,293956,1,0,0:0:0:0:
261,188,294017,1,0,0:0:0:0:
261,188,294077,1,8,0:0:0:0:
256,192,294198,12,0,301698,0:0:0:0:
