osu file format v14

[General]
AudioFilename: audio.mp3
AudioLeadIn: 0
PreviewTime: 60411
Countdown: 0
SampleSet: Soft
StackLeniency: 0.7
Mode: 2
LetterboxInBreaks: 0
WidescreenStoryboard: 1

[Editor]
DistanceSpacing: 1.5
BeatDivisor: 8
GridSize: 8
TimelineZoom: 2.4

[Metadata]
Title:Choux a la creme
TitleUnicode:Choux a la creme
Artist:Kamome Sano
ArtistUnicode:Kamome Sano
Creator:Vincs
Version:smol fruits
Source:SOUND VOLTEX II -infinite infection-
Tags:
BeatmapID:1561084
BeatmapSetID:732021

[Difficulty]
HPDrainRate:6
CircleSize:4.2
OverallDifficulty:9
ApproachRate:9.6
SliderMultiplier:1.92
SliderTickRate:2

[Events]
//Background and Video events
0,0,"Choux.jpg",0,0
//Break Periods
//Storyboard Layer 0 (Background)
//Storyboard Layer 1 (Fail)
//Storyboard Layer 2 (Pass)
//Storyboard Layer 3 (Foreground)
//Storyboard Sound Samples

[TimingPoints]
600,312.5,4,2,1,75,1,0
600,-142.857142857143,4,2,1,50,0,0
5600,-142.857142857143,4,2,1,30,0,0
6459,-142.857142857143,4,2,1,50,0,0
7396,-142.857142857143,4,2,1,30,0,0
8490,-142.857142857143,4,2,1,50,0,0
9318,312.5,4,2,1,75,1,0
9318,-100,4,2,1,75,0,0
15568,-100,4,3,1,30,0,0
15880,-100,4,3,1,35,0,0
16193,-100,4,3,1,40,0,0
16505,-100,4,3,1,45,0,0
16818,-100,4,3,1,50,0,0
17130,-100,4,3,1,55,0,0
17443,-100,4,3,1,60,0,0
17755,-100,4,3,1,65,0,0
18068,-100,4,3,1,70,0,0
18380,-100,4,3,1,75,0,0
18693,-100,4,3,1,80,0,0
20255,-100,4,2,20,80,0,0
20568,-40,4,2,1,85,0,1
20880,-100,4,2,1,85,0,1
21661,-41.6666666666667,4,2,1,85,0,1
22599,-100,4,2,1,85,0,1
24161,-40,4,2,1,85,0,1
25099,-100,4,2,1,85,0,1
25568,-40,4,2,1,85,0,1
25880,-100,4,2,1,85,0,1
26661,-40,4,2,1,85,0,1
27599,-100,4,2,1,85,0,1
29161,-100,4,2,1,75,0,0
30568,-40,4,2,1,85,0,1
32755,-76.9230769230769,4,2,1,85,0,1
33068,-40,4,2,1,85,0,1
33693,-100,4,2,1,85,0,1
34161,-40,4,2,1,85,0,1
34474,-100,4,2,1,85,0,1
34786,-40,4,2,1,85,0,1
35099,-100,4,2,1,85,0,1
35568,-40,4,2,1,85,0,1
36193,-35,4,2,1,85,0,1
36349,-30,4,2,1,85,0,1
36505,-25,4,2,1,85,0,1
36661,-40,4,2,1,85,0,1
37599,-100,4,2,1,85,0,1
39318,-100,4,2,1,60,0,0
40255,-100,4,2,3,60,0,0
40568,-100,4,2,1,60,0,0
51505,-40,4,2,1,60,0,0
51818,-100,4,2,1,60,0,0
56505,-40,4,2,1,60,0,0
56818,-76.9230769230769,4,2,1,60,0,0
57052,-100,4,2,1,60,0,0
59005,-40,4,2,1,60,0,0
59318,-100,4,2,1,60,0,0
61974,156.25,4,2,1,75,1,0
61974,-50,4,2,1,75,0,0
63067,312.5,4,2,1,75,1,0
63067,-100,4,2,1,75,0,0
63692,156.25,4,2,1,75,1,0
63692,-50,4,2,1,75,0,0
64317,312.5,4,2,1,75,1,0
64317,-100,4,2,1,75,0,0
64942,-50,4,2,1,75,0,0
65254,-100,4,2,1,75,0,0
65567,-40,4,2,1,75,0,0
65723,-100,4,2,1,75,0,0
66348,-40,4,2,1,75,0,0
66504,-100,4,2,1,75,0,0
67442,-40,4,2,1,75,0,0
68067,-100,4,2,1,75,0,0
69942,156.25,4,2,1,75,1,0
69942,-60.2409638554217,4,2,1,75,0,0
70410,312.5,4,2,1,75,1,0
70410,-100,4,2,1,75,0,0
71660,-50,4,2,1,75,0,0
71816,156.25,4,2,1,75,1,0
71816,-50,4,2,1,75,0,0
72987,312.5,4,2,1,75,1,0
72987,-40,4,2,1,75,0,0
73299,-100,4,2,1,75,0,0
74158,-50,4,2,1,75,0,0
74315,156.25,4,2,1,75,1,0
74315,-40,4,2,1,75,0,0
75565,312.5,4,2,1,75,1,0
75565,-50,4,2,1,75,0,0
76815,-40,4,2,1,75,0,0
77752,-100,4,2,1,75,0,0
80565,-142.857142857143,4,2,1,50,0,0
85565,-142.857142857143,4,2,1,30,0,0
88065,-142.857142857143,6,2,1,50,0,0
88068,312.5,6,2,1,75,1,0
89318,-62.5,6,2,1,75,0,0
89552,-100,6,2,1,75,0,0
89943,312.5,4,2,1,75,1,0
89943,-40,4,2,1,75,0,1
90255,-100,4,2,1,85,0,1
91036,-40,4,2,1,85,0,1
91974,-100,4,2,1,85,0,1
92755,-40,4,2,1,85,0,1
93068,-100,4,2,1,85,0,1
93536,-40,4,2,1,85,0,1
94474,-100,4,2,1,85,0,1
94943,-41.6666666666667,4,2,1,85,0,1
95255,-100,4,2,1,85,0,1
96036,-40,4,2,1,85,0,1
96349,-36.2694300518134,4,2,1,85,0,1
96661,312.5,4,2,1,85,1,1
96661,-40,4,2,1,85,0,1
98692,-100,4,2,1,85,0,0
99942,-40,4,2,1,75,0,1
101973,-100,4,2,1,85,0,1
102911,-40,4,2,1,85,0,1
103067,-35,4,2,1,85,0,1
103223,-30,4,2,1,85,0,1
103379,-25,4,2,1,85,0,1
103536,-40,4,2,1,85,0,1
103848,-25,4,2,1,85,0,1
104004,-30,4,2,1,85,0,1
104161,-40,4,2,1,85,0,1
104473,-100,4,2,1,85,0,1
104942,-40,4,2,1,85,0,1
105254,-100,4,2,1,85,0,1
105567,-40,4,2,1,85,0,1
105723,-30,4,2,1,85,0,1
105879,-20,4,2,1,85,0,1
106036,-40,4,2,1,85,0,1
106348,-36.2694300518134,4,2,1,85,0,1
106661,-40,4,2,1,85,0,1
106973,-100,4,2,1,85,0,1
107129,-76.9230769230769,4,2,1,85,0,1
107442,-100,4,2,1,85,0,1
108536,-40,4,2,1,85,0,1
108848,-40,4,2,1,85,0,1
109473,-40,4,2,1,85,0,1
109629,-35,4,2,1,85,0,1
109786,-30,4,2,1,85,0,1
109942,-25,4,2,1,85,0,1
110098,-100,4,2,1,85,0,1
111036,-40,4,2,1,85,0,1
111348,-100,4,2,1,85,0,1
111973,-40,4,2,1,85,0,1
112129,-25,4,2,1,85,0,1
112286,-100,4,2,1,85,0,1
112598,-66.6666666666667,4,2,1,85,0,1
112911,-58.8235294117647,4,2,1,85,0,1
113536,-40,4,2,1,85,0,1
114161,-100,4,2,1,85,0,1
114473,-66.6666666666667,4,2,1,85,0,1
114786,-100,4,2,1,85,0,1
114942,-40,4,2,1,85,0,1
115098,-30,4,2,1,85,0,1
115254,-22,4,2,1,85,0,1
115411,-100,4,2,1,85,0,1
116661,-100,4,2,1,75,0,0

[HitObjects]
184,208,600,6,0,L|256:216,2,67.1999979492188
288,88,1068,2,0,L|294:167,1,67.1999979492188
192,288,1381,1,0,0:0:0:0:
296,288,1537,1,0,0:0:0:0:
400,288,1693,6,0,L|393:208,1,67.1999979492188
128,192,2006,1,0,0:0:0:0:
232,192,2162,1,0,0:0:0:0:
128,128,2318,2,0,L|121:48,1,67.1999979492188
226,61,2631,5,0,0:0:0:0:
122,61,2787,1,0,0:0:0:0:
18,61,2943,1,0,0:0:0:0:
288,280,3100,6,0,L|192:271,1,67.1999979492188
328,208,3412,1,0,0:0:0:0:
224,198,3568,1,0,0:0:0:0:
488,216,3725,6,0,L|504:121,1,67.1999979492188
400,136,4037,1,0,0:0:0:0:
136,136,4193,6,0,L|120:41,1,67.1999979492188
232,72,4506,1,0,0:0:0:0:
128,48,4662,1,0,0:0:0:0:
232,208,4811,2,0,L|248:113,1,67.1999979492188
136,288,5131,5,0,0:0:0:0:
240,288,5287,1,0,0:0:0:0:
344,288,5443,1,0,0:0:0:0:
72,232,5600,6,0,L|64:208,7,16.7999994873047
72,232,5912,6,0,L|64:208,7,16.7999994873047
104,192,6225,6,0,L|127:189,2,22.3999993164063
48,168,6381,6,0,L|8:164,2,33.5999989746094
312,296,6693,2,0,L|320:224,1,67.1999979492188
216,216,7006,1,0,0:0:0:0:
112,216,7162,1,0,0:0:0:0:
384,168,7318,6,0,L|447:162,2,33.5999989746094
336,168,7553,6,0,L|296:164,2,22.3999993164063
376,232,7709,6,0,L|384:208,6,16.7999994873047
376,232,7982,6,0,L|384:208,6,16.7999994873047
344,168,8256,6,0,L|304:164,2,22.3999993164063
400,160,8412,6,0,L|463:154,2,33.5999989746094
112,152,8725,2,0,L|207:160,2,67.1999979492188
216,96,9193,1,0,0:0:0:0:
448,312,9318,6,0,L|456:288,1,24
240,256,9474,1,0,0:0:0:0:
368,224,9630,1,0,0:0:0:0:
80,232,9786,6,0,L|72:208,1,24
288,176,9942,1,0,0:0:0:0:
160,144,10098,1,0,0:0:0:0:
440,56,10255,5,0,0:0:0:0:
451,76,10294,1,0,0:0:0:0:
459,99,10333,1,0,0:0:0:0:
464,123,10372,1,0,0:0:0:0:
465,147,10411,1,0,0:0:0:0:
462,170,10450,1,0,0:0:0:0:
455,193,10489,1,0,0:0:0:0:
216,296,10568,5,0,0:0:0:0:
344,248,10724,2,0,L|336:200,1,48
144,208,10880,1,0,0:0:0:0:
232,192,10958,2,0,L|248:136,2,48
144,128,11193,6,0,L|192:128,1,48
280,64,11349,2,0,L|232:64,1,48
40,160,11505,2,0,L|16:216,2,48
136,280,11739,1,0,0:0:0:0:
328,240,11818,5,0,0:0:0:0:
200,200,11974,1,0,0:0:0:0:
368,176,12130,1,0,0:0:0:0:
72,104,12286,1,0,0:0:0:0:
200,72,12443,6,0,L|144:64,2,48
72,280,12755,2,0,L|60:216,1,48
160,224,12911,2,0,L|171:160,1,48
360,320,13068,5,0,0:0:0:0:
232,280,13224,1,0,0:0:0:0:
400,256,13380,2,0,L|411:192,1,48
216,176,13536,2,0,L|204:112,1,48
296,176,13693,6,0,L|307:112,1,48
112,120,13849,1,0,0:0:0:0:
240,40,14005,1,0,0:0:0:0:
72,48,14161,2,0,L|61:112,1,48
256,264,14318,1,0,0:0:0:0:
128,256,14474,1,0,0:0:0:0:
416,216,14630,6,0,L|424:192,1,24
208,216,14786,1,0,0:0:0:0:
80,208,14942,1,0,0:0:0:0:
368,168,15098,6,0,L|376:144,2,24
200,120,15255,6,0,L|192:96,2,24
408,80,15411,6,0,L|416:56,2,24
152,240,15568,5,0,0:0:0:0:
111,214,15646,1,0,0:0:0:0:
84,174,15724,1,0,0:0:0:0:
74,128,15802,1,0,0:0:0:0:
83,81,15880,1,0,0:0:0:0:
108,41,15958,1,0,0:0:0:0:
147,13,16036,1,0,0:0:0:0:
194,3,16114,1,0,0:0:0:0:
241,11,16193,5,0,0:0:0:0:
281,36,16271,1,0,0:0:0:0:
309,75,16349,1,0,0:0:0:0:
320,121,16427,1,0,0:0:0:0:
312,168,16505,1,0,0:0:0:0:
287,209,16583,1,0,0:0:0:0:
248,237,16661,1,0,0:0:0:0:
202,248,16739,1,0,0:0:0:0:
400,336,16818,5,0,0:0:0:0:
441,310,16896,1,0,0:0:0:0:
468,270,16974,1,0,0:0:0:0:
478,224,17052,1,0,0:0:0:0:
469,177,17130,1,0,0:0:0:0:
444,137,17208,1,0,0:0:0:0:
405,109,17286,1,0,0:0:0:0:
358,99,17364,1,0,0:0:0:0:
311,107,17443,5,0,0:0:0:0:
271,132,17521,1,0,0:0:0:0:
243,171,17599,1,0,0:0:0:0:
232,217,17677,1,0,0:0:0:0:
240,264,17755,1,0,0:0:0:0:
265,305,17833,1,0,0:0:0:0:
304,333,17911,1,0,0:0:0:0:
350,344,17989,1,0,0:0:0:0:
152,344,18068,6,0,L|136:288,1,48
360,344,18224,2,0,L|376:288,1,48
152,344,18380,2,0,L|165:298,1,48
360,344,18536,2,0,L|347:297,1,48
144,256,18693,6,0,L|96:256,1,48
368,256,18849,2,0,L|416:256,1,48
144,176,19005,2,0,L|153:120,1,48
400,112,19161,6,0,L|416:80,1,24,8|0,0:0|0:0,0:0:0:0:
152,80,19474,6,0,L|136:48,1,24,8|0,0:0|0:0,0:0:0:0:
400,112,19786,6,0,L|416:80,1,24,8|0,0:0|0:0,0:0:0:0:
88,80,20099,6,0,L|96:48,1,24,8|0,0:0|0:0,0:0:0:0:
496,48,20255,2,0,P|512:120|488:200,1,144,8|0,0:0|0:0,0:0:0:0:
496,240,20568,2,0,L|16:240,1,480
304,128,21036,1,0,0:0:0:0:
176,112,21193,6,0,L|168:80,1,24
392,240,21349,6,0,L|400:208,1,24
112,240,21505,6,0,L|104:208,1,24
320,344,21661,6,0,P|253:21|199:348,1,921.599971875001
255,20,21974,1,0,0:0:0:0:
188,343,22286,2,0,P|92:150|264:16,1,460.7999859375
392,144,22651,2,0,L|424:184,2,32
248,120,22911,5,0,0:0:0:0:
392,296,23068,2,0,L|400:256,1,24
176,272,23224,2,0,L|168:232,1,24
472,208,23380,6,0,L|480:168,1,24
264,200,23536,2,0,L|232:200,1,24
24,200,23693,6,0,L|32:160,1,24
376,144,23849,2,0,L|384:120,1,24
136,144,24005,2,0,L|128:120,1,24
392,368,24161,6,0,P|528:200|384:8,1,480
395,10,24474,2,0,L|130:10,1,240
155,10,24630,2,0,L|395:10,1,240
395,10,24786,2,0,P|258:187|388:369,1,480
408,360,25138,5,0,0:0:0:0:
136,320,25255,2,0,L|128:288,1,24
464,248,25411,2,0,L|472:216,1,24
16,240,25568,2,0,L|496:240,1,480
208,160,26036,6,0,L|192:128,1,24
416,120,26193,2,0,L|432:88,1,24
96,120,26349,2,0,L|112:80,1,24
416,120,26505,2,0,L|407:97,1,24
16,336,26661,6,0,L|504:336,1,480
496,336,26974,2,0,P|336:184|488:40,1,480
486,40,27286,2,0,L|6:40,1,480
296,280,27755,5,0,0:0:0:0:
152,224,27911,1,0,0:0:0:0:
464,208,28068,6,0,L|472:168,1,24
256,200,28224,2,0,L|248:160,1,24
40,200,28380,6,0,L|32:160,1,24
256,200,28536,2,0,L|264:160,1,24
40,200,28692,6,0,L|32:160,1,24
256,176,28849,2,0,L|256:200,1,24
468,184,29005,6,0,L|464:208,1,24
256,128,29161,2,0,L|320:128,1,48
104,272,29318,1,0,0:0:0:0:
232,256,29474,1,0,0:0:0:0:
80,208,29630,6,0,L|64:160,2,48
376,160,29943,6,0,L|440:160,1,48
208,160,30099,2,0,L|144:160,1,48
424,160,30255,6,0,L|352:160,1,48
160,160,30411,2,0,L|216:160,1,48
496,40,30568,6,0,L|16:40,1,480
288,216,31036,1,0,0:0:0:0:
144,312,31193,6,0,L|384:312,1,240
384,312,31349,2,0,L|144:312,1,240
376,360,31661,6,0,P|512:192|352:0,1,480
377,5,31974,2,0,P|512:183|376:360,1,480
375,360,32286,2,0,L|120:360,1,240
135,360,32443,2,0,L|375:360,1,240
408,360,32651,5,0,0:0:0:0:
375,360,32703,1,0,0:0:0:0:
208,256,32755,2,0,L|336:256,1,124.79999428711
8,176,33068,6,0,L|264:176,1,240
248,176,33224,2,0,L|504:176,1,240
488,176,33380,2,0,L|232:176,1,240
248,176,33536,2,0,L|-8:176,1,240
352,96,33849,6,0,L|360:72,1,24
104,96,34005,2,0,L|96:72,1,24
496,40,34161,6,0,L|16:40,1,480
360,224,34630,6,0,L|368:192,1,24
16,344,34786,6,0,L|496:344,1,480
104,272,35255,6,0,L|96:232,1,24
408,272,35411,2,0,L|416:232,1,24
136,360,35568,6,0,P|0:192|160:0,1,480
392,152,36036,6,0,L|128:152,1,240
152,152,36193,2,0,L|432:152,1,274.285714285714
426,152,36349,2,0,L|96:152,1,320
106,152,36505,2,0,L|496:152,1,384
490,359,36661,6,0,P|354:191|514:-1,1,480
488,4,36974,6,0,L|8:8,1,480
7,7,37286,6,0,P|142:185|6:362,1,480
48,360,37651,1,0,0:0:0:0:
104,360,37703,1,0,0:0:0:0:
304,312,37755,5,0,0:0:0:0:
176,272,37911,1,0,0:0:0:0:
472,224,38068,6,0,L|480:192,1,24
192,192,38224,2,0,L|184:160,1,24
320,192,38380,6,0,L|328:160,1,24
40,224,38536,2,0,L|32:192,1,24
392,128,38693,6,0,L|384:96,1,24
120,128,38849,2,0,L|128:96,1,24
368,64,39005,6,0,L|408:64,1,24
144,64,39161,2,0,L|104:64,1,24
344,336,39318,5,0,0:0:0:0:
216,240,39474,1,0,0:0:0:0:
488,232,39630,2,0,L|488:208,1,24
168,336,39786,5,0,0:0:0:0:
296,240,39942,1,0,0:0:0:0:
24,232,40098,2,0,L|24:208,1,24
304,168,40255,2,0,L|320:112,1,48,2|0,0:0|0:0,0:0:0:0:
208,168,40411,2,0,L|192:112,1,48,2|0,0:0|0:0,0:0:0:0:
432,336,40568,1,0,0:0:0:0:
304,296,40724,6,0,L|280:248,2,48
376,264,40958,2,0,L|424:264,2,48
296,240,41193,6,0,L|352:240,1,48
264,184,41349,2,0,L|328:184,1,48
120,168,41505,6,0,L|104:112,1,48
272,112,41661,2,0,L|280:56,1,48
80,48,41818,5,0,0:0:0:0:
208,40,41974,1,0,0:0:0:0:
80,48,42130,6,0,L|40:112,2,48
160,192,42364,1,0,0:0:0:0:
112,192,42442,5,0,0:0:0:0:
64,192,42520,1,0,0:0:0:0:
144,136,42599,2,0,L|80:136,1,48
288,128,42755,5,0,0:0:0:0:
160,96,42911,1,0,0:0:0:0:
288,64,43068,5,0,0:0:0:0:
416,64,43224,1,0,0:0:0:0:
280,336,43380,6,0,L|232:336,2,48
192,264,43614,1,0,0:0:0:0:
240,264,43692,5,0,0:0:0:0:
288,264,43770,1,0,0:0:0:0:
200,200,43849,2,0,L|192:136,1,48
392,168,44005,6,0,L|408:112,1,48
240,112,44161,2,0,L|232:56,1,48
440,48,44318,1,0,0:0:0:0:
144,80,44474,1,0,0:0:0:0:
272,216,44630,5,0,0:0:0:0:
224,216,44708,1,0,0:0:0:0:
176,216,44786,1,0,0:0:0:0:
264,144,44864,2,0,L|216:112,2,48
176,72,45099,6,0,L|232:72,1,48
424,72,45255,5,0,0:0:0:0:
136,288,45411,1,0,0:0:0:0:
272,232,45568,1,0,0:0:0:0:
104,216,45724,1,0,0:0:0:0:
232,160,45880,6,0,L|272:128,2,48
320,144,46114,2,0,L|280:112,2,48
224,88,46349,2,0,L|216:40,1,48
400,336,46505,6,0,L|416:280,1,48
248,280,46661,2,0,L|240:224,1,48
432,272,46818,1,0,0:0:0:0:
144,280,46974,1,0,0:0:0:0:
272,216,47130,5,0,0:0:0:0:
224,216,47208,1,0,0:0:0:0:
176,216,47286,1,0,0:0:0:0:
264,152,47364,2,0,L|184:152,1,48
128,104,47521,6,0,L|176:80,2,48
320,80,47755,5,0,0:0:0:0:
192,56,47911,1,0,0:0:0:0:
480,208,48068,1,0,0:0:0:0:
352,208,48224,1,0,0:0:0:0:
488,296,48380,5,0,0:0:0:0:
440,296,48458,1,0,0:0:0:0:
392,296,48536,1,0,0:0:0:0:
296,296,48614,2,0,L|352:336,2,48
200,272,48849,6,0,L|248:272,1,48
56,264,49005,6,0,L|40:208,1,48
208,208,49161,2,0,L|216:152,1,48
48,136,49318,5,0,0:0:0:0:
24,136,49318,1,0,0:0:0:0:
296,96,49474,1,0,0:0:0:0:
272,96,49474,1,0,0:0:0:0:
152,56,49630,5,0,0:0:0:0:
280,240,49786,2,0,L|208:240,1,48
456,200,49943,6,0,L|488:144,2,48
304,176,50177,1,0,0:0:0:0:
152,168,50255,6,0,L|120:112,2,48
304,112,50489,1,0,0:0:0:0:
464,104,50568,1,0,0:0:0:0:
328,304,50724,1,0,0:0:0:0:
472,256,50880,1,0,0:0:0:0:
304,240,51036,6,0,L|360:240,1,48
136,216,51193,1,0,0:0:0:0:
280,168,51349,1,0,0:0:0:0:
128,128,51505,6,0,L|392:128,1,240
368,128,51661,2,0,L|128:128,1,240
128,128,51818,2,0,P|120:80|136:16,1,96
224,32,52052,6,0,L|288:32,2,48
416,40,52286,2,0,L|432:96,1,48
232,248,52443,1,0,0:0:0:0:
360,224,52599,1,0,0:0:0:0:
72,192,52755,5,0,0:0:0:0:
48,192,52755,1,0,0:0:0:0:
328,144,52911,1,0,0:0:0:0:
352,144,52911,1,0,0:0:0:0:
224,112,53068,1,0,0:0:0:0:
360,56,53224,2,0,L|288:56,1,48
488,112,53380,5,0,0:0:0:0:
360,248,53536,2,0,L|432:248,1,48
216,248,53693,1,0,0:0:0:0:
336,184,53849,1,0,0:0:0:0:
56,272,54005,5,0,0:0:0:0:
80,272,54005,1,0,0:0:0:0:
208,184,54161,1,0,0:0:0:0:
64,160,54318,1,0,0:0:0:0:
216,88,54474,2,0,L|160:88,1,48
368,80,54630,6,0,L|408:144,2,48
264,72,54864,1,0,0:0:0:0:
480,64,54943,2,0,L|432:64,1,48
192,256,55099,1,0,0:0:0:0:
480,216,55255,5,0,0:0:0:0:
112,208,55411,1,0,0:0:0:0:
400,192,55568,1,0,0:0:0:0:
272,144,55724,1,0,0:0:0:0:
424,112,55880,1,0,0:0:0:0:
280,88,56036,6,0,L|328:88,1,48
128,256,56193,1,0,0:0:0:0:
256,216,56349,1,0,0:0:0:0:
104,192,56505,6,0,L|352:192,1,240
344,192,56661,2,0,L|96:192,1,240
104,192,56818,2,0,L|240:192,1,124.79999428711
120,160,57052,2,0,L|96:104,2,48
304,112,57286,2,0,L|232:112,1,48
440,184,57443,5,0,0:0:0:0:
312,240,57599,1,0,0:0:0:0:
448,256,57755,1,0,0:0:0:0:
472,256,57755,1,0,0:0:0:0:
176,320,57911,1,0,0:0:0:0:
152,320,57911,1,0,0:0:0:0:
232,184,58068,5,0,0:0:0:0:
264,184,58068,1,0,0:0:0:0:
248,144,58146,5,0,0:0:0:0:
264,184,58224,1,0,0:0:0:0:
232,184,58224,1,0,0:0:0:0:
248,144,58302,5,0,0:0:0:0:
56,136,58380,5,0,0:0:0:0:
184,80,58536,2,0,L|128:80,1,48
328,48,58693,5,0,0:0:0:0:
200,48,58849,1,0,0:0:0:0:
344,128,59005,2,0,L|64:128,1,240
104,128,59161,2,0,L|344:128,1,240
208,248,59474,5,0,0:0:0:0:
344,232,59630,2,0,L|368:184,2,48
240,176,59864,1,0,0:0:0:0:
136,176,59943,6,0,L|112:128,2,48
296,136,60177,1,0,0:0:0:0:
456,128,60255,6,0,L|480:80,2,48
272,88,60489,1,0,0:0:0:0:
88,304,60568,5,0,0:0:0:0:
52,271,60607,1,0,0:0:0:0:
34,227,60646,1,0,0:0:0:0:
36,180,60685,1,0,0:0:0:0:
57,137,60724,1,0,0:0:0:0:
94,107,60763,1,0,0:0:0:0:
140,96,60802,1,0,0:0:0:0:
187,104,60841,5,0,0:0:0:0:
226,132,60880,1,0,0:0:0:0:
250,173,60919,1,0,0:0:0:0:
255,220,60958,1,0,0:0:0:0:
239,265,60997,1,0,0:0:0:0:
206,300,61036,1,0,0:0:0:0:
34,227,61114,6,0,L|8:168,2,48
256,192,61349,2,0,L|256:128,1,48
478,227,61505,2,0,L|504:168,1,48
256,120,61661,1,0,0:0:0:0:
240,344,61974,2,0,B|48:344|48:344|48:152|48:152|240:152|240:152|240:72|240:72|240:184|240:184|48:184|48:184|48:80|48:80|48:32|48:32|48:72|48:72|240:72|240:72|239:264|239:264|48:264|48:264|48:72|48:72|240:72|240:72|440:72,1,2304
288,320,63067,2,0,L|208:320,1,48
408,272,63223,5,0,0:0:0:0:
425,225,63262,1,0,0:0:0:0:
421,178,63301,1,0,0:0:0:0:
398,138,63340,1,0,0:0:0:0:
360,109,63379,1,0,0:0:0:0:
313,98,63418,1,0,0:0:0:0:
267,109,63457,1,0,0:0:0:0:
229,138,63496,5,0,0:0:0:0:
207,181,63535,1,0,0:0:0:0:
205,228,63574,1,0,0:0:0:0:
221,272,63613,1,0,0:0:0:0:
448,344,63692,6,0,B|448:24|448:24|440:88|440:88|256:32|256:32|256:216|256:216|88:216|88:216|88:32|88:32|88:192|88:192,1,1248
368,320,64317,5,0,0:0:0:0:
383,302,64356,1,0,0:0:0:0:
394,281,64395,1,0,0:0:0:0:
397,257,64434,1,0,0:0:0:0:
392,233,64473,1,0,0:0:0:0:
380,213,64512,1,0,0:0:0:0:
361,199,64551,1,0,0:0:0:0:
200,184,64629,6,0,L|168:240,3,48
320,96,64942,2,0,L|216:96,3,96
88,240,65254,6,0,L|72:280,2,24
288,288,65410,2,0,L|304:328,2,24
208,200,65567,6,0,L|488:200,1,240
360,152,65801,2,0,L|336:96,2,48
448,136,66035,2,0,L|376:136,1,48
208,120,66192,6,0,L|192:40,1,48
424,280,66348,2,0,L|176:280,1,240
264,224,66582,1,0,0:0:0:0:
344,224,66660,1,0,0:0:0:0:
424,224,66738,1,0,0:0:0:0:
176,264,66817,1,0,0:0:0:0:
159,246,66856,1,0,0:0:0:0:
152,223,66895,1,0,0:0:0:0:
153,200,66934,1,0,0:0:0:0:
164,178,66973,1,0,0:0:0:0:
232,136,67051,5,0,0:0:0:0:
312,136,67129,1,0,0:0:0:0:
232,136,67207,1,0,0:0:0:0:
424,136,67285,2,0,L|440:56,1,48
256,176,67442,6,0,L|504:176,1,240
496,240,67598,2,0,L|256:240,1,240
256,240,67754,2,0,L|16:240,1,240
16,240,67910,2,0,L|256:240,1,240
128,168,68223,2,0,L|112:112,1,48
312,160,68379,2,0,L|328:104,1,48
136,96,68535,2,0,L|112:136,2,24
312,272,68692,5,0,0:0:0:0:
472,264,68770,1,0,0:0:0:0:
312,272,68848,1,0,0:0:0:0:
152,216,68926,1,0,0:0:0:0:
248,216,69004,1,0,0:0:0:0:
344,208,69082,6,0,L|384:144,2,48
112,128,69317,5,0,0:0:0:0:
136,128,69317,1,0,0:0:0:0:
144,128,69395,1,0,0:0:0:0:
120,128,69395,1,0,0:0:0:0:
112,128,69473,1,0,0:0:0:0:
136,128,69473,1,0,0:0:0:0:
144,128,69551,1,0,0:0:0:0:
120,128,69551,1,0,0:0:0:0:
216,80,69629,5,0,0:0:0:0:
120,80,69733,1,0,0:0:0:0:
216,40,69837,1,0,0:0:0:0:
112,288,69942,2,0,L|448:288,1,320
432,288,70098,2,0,L|112:288,1,320
112,288,70254,2,0,L|432:288,1,320
304,224,70566,6,0,L|288:192,1,24
408,152,70722,6,0,L|424:120,1,24
200,160,70878,6,0,L|208:128,1,24
472,88,71035,6,0,L|464:56,1,24
120,80,71191,2,0,L|88:80,1,24
392,80,71347,2,0,L|424:80,1,24
40,96,71503,6,0,L|48:64,1,24
280,344,71660,6,0,P|312:280|272:174,1,192
272,174,71816,6,0,B|79:176|79:176|81:25|81:25|81:65|81:65|273:65|273:65|273:257|273:257|465:257|465:257|465:65|465:65|273:65|273:65|273:257|273:257|81:257|81:257|81:65|81:65|273:65|273:65|465:65|465:65|465:257|465:257|81:257|81:257,1,2880
81,257,72987,6,0,L|488:256,1,360
432,224,73260,5,0,0:0:0:0:
152,160,73377,2,0,L|168:136,1,24
392,128,73533,2,0,L|416:104,1,24
104,96,73690,6,0,L|80:72,1,24
344,80,73846,2,0,L|328:40,1,24
40,72,74002,6,0,L|56:32,1,24
368,200,74158,6,0,P|400:120|360:16,1,192
367,23,74315,6,0,B|128:24|128:24|64:256|64:256|304:256|304:256|368:24|368:24|128:24|128:24|64:256|64:256|304:256|304:256|368:24|368:24,1,1920
367,25,74940,6,0,B|304:256|304:256|304:256|304:256|304:256|304:256|392:32|392:32|304:256|304:256|392:32,1,960
391,33,75252,6,0,B|454:264|454:264|366:40|366:40|454:264|454:264|366:40,1,960
312,40,75617,5,0,0:0:0:0:
271,89,75669,1,0,0:0:0:0:
258,151,75721,1,0,0:0:0:0:
273,212,75773,1,0,0:0:0:0:
315,260,75825,1,0,0:0:0:0:
24,184,75877,2,0,L|24:88,1,96
48,184,75877,2,0,L|48:80,1,96
48,184,76033,2,0,L|48:80,1,96
24,184,76033,2,0,L|24:88,1,96
256,328,76190,5,0,0:0:0:0:
272,328,76190,1,0,0:0:0:0:
192,272,76294,5,0,0:0:0:0:
176,272,76294,1,0,0:0:0:0:
273,212,76398,5,0,0:0:0:0:
288,208,76398,1,0,0:0:0:0:
176,192,76502,5,0,0:0:0:0:
160,192,76502,1,0,0:0:0:0:
136,104,76606,5,0,0:0:0:0:
128,104,76606,1,0,0:0:0:0:
176,24,76710,5,0,0:0:0:0:
160,24,76710,1,0,0:0:0:0:
288,32,76815,6,0,L|32:32,1,240
216,120,77049,1,0,0:0:0:0:
384,120,77127,2,0,L|128:120,1,240
312,208,77361,1,0,0:0:0:0:
480,208,77439,6,0,L|224:208,1,240
480,312,77674,2,0,L|512:184,2,120
328,304,77908,1,0,0:0:0:0:
176,304,77986,1,0,0:0:0:0:
32,232,78065,6,0,L|24:184,2,48
272,176,78299,1,0,0:0:0:0:
200,144,78377,2,0,L|192:96,2,48
288,72,78611,1,0,0:0:0:0:
472,104,78690,6,0,L|472:208,1,96
456,104,78690,1,0,0:0:0:0:
488,104,78690,1,0,0:0:0:0:
24,104,79002,5,0,0:0:0:0:
56,104,79002,1,0,0:0:0:0:
40,104,79002,2,0,L|40:208,1,96
176,272,79315,1,0,0:0:0:0:
432,240,79393,2,0,L|448:192,2,48
288,208,79627,1,0,0:0:0:0:
144,192,79705,2,0,L|128:144,1,48
280,120,79861,1,0,0:0:0:0:
432,96,79940,2,0,L|448:48,1,48
288,80,80096,2,0,L|272:32,1,48
432,96,80252,2,0,L|448:48,1,48
264,80,80408,2,0,L|248:32,1,48
440,256,80565,6,0,L|368:264,2,67.1999979492188
336,136,81033,2,0,L|330:215,1,67.1999979492188
432,336,81346,1,0,0:0:0:0:
328,336,81502,1,0,0:0:0:0:
224,336,81658,6,0,L|231:256,1,67.1999979492188
96,216,81971,1,0,0:0:0:0:
200,216,82127,1,0,0:0:0:0:
304,216,82283,6,0,L|297:136,1,67.1999979492188
200,64,82596,5,0,0:0:0:0:
304,64,82752,1,0,0:0:0:0:
408,64,82908,1,0,0:0:0:0:
136,272,83065,6,0,L|40:263,1,67.1999979492188
176,200,83377,1,0,0:0:0:0:
72,190,83533,1,0,0:0:0:0:
344,288,83690,6,0,L|360:193,1,67.1999979492188
256,208,84002,1,0,0:0:0:0:
152,200,84158,6,0,L|136:105,1,67.1999979492188
416,88,84471,1,0,0:0:0:0:
312,80,84627,1,0,0:0:0:0:
208,72,84783,2,0,L|224:160,1,67.1999979492188
488,264,85096,6,0,L|400:280,2,67.1999979492188
200,280,85565,6,0,L|192:256,2,16.7999994873047
264,280,85721,5,0,0:0:0:0:
285,273,85773,5,0,0:0:0:0:
305,262,85825,5,0,0:0:0:0:
322,248,85877,5,0,0:0:0:0:
337,232,85929,5,0,0:0:0:0:
348,212,85981,5,0,0:0:0:0:
356,191,86033,5,0,0:0:0:0:
359,169,86085,5,0,0:0:0:0:
359,147,86137,5,0,0:0:0:0:
354,125,86189,5,0,0:0:0:0:
346,104,86241,5,0,0:0:0:0:
334,85,86293,5,0,0:0:0:0:
318,69,86345,5,0,0:0:0:0:
300,56,86398,5,0,0:0:0:0:
280,47,86450,5,0,0:0:0:0:
258,41,86502,5,0,0:0:0:0:
192,40,86580,6,0,L|184:64,2,16.7999994873047
256,96,86736,6,0,L|264:120,2,16.7999994873047
184,144,86893,6,0,L|184:152,4,8.39999974365235
136,168,87023,5,0,0:0:0:0:
116,179,87075,5,0,0:0:0:0:
101,195,87127,5,0,0:0:0:0:
91,215,87179,5,0,0:0:0:0:
88,237,87231,5,0,0:0:0:0:
91,259,87283,5,0,0:0:0:0:
100,279,87335,5,0,0:0:0:0:
115,296,87387,5,0,0:0:0:0:
176,304,87440,6,0,L|184:280,2,22.3999993164063
224,288,87596,6,0,L|232:264,2,22.3999993164063
280,280,87752,5,0,0:0:0:0:
301,254,87830,5,0,0:0:0:0:
307,221,87908,5,0,0:0:0:0:
297,190,87986,5,0,0:0:0:0:
273,167,88064,5,0,0:0:0:0:
160,152,88224,1,0,0:0:0:0:
296,104,88380,5,0,0:0:0:0:
168,72,88536,1,0,0:0:0:0:
464,152,88693,1,0,0:0:0:0:
328,104,88849,1,0,0:0:0:0:
456,72,89005,5,0,0:0:0:0:
168,288,89161,1,0,0:0:0:0:
296,256,89318,2,0,L|40:256,1,230.4
256,184,89630,5,0,0:0:0:0:
447,256,89708,1,0,0:0:0:0:
256,184,89786,1,0,0:0:0:0:
65,256,89864,1,0,0:0:0:0:
496,104,89943,6,0,L|16:104,1,480
312,232,90411,6,0,L|328:264,1,24
104,224,90568,2,0,L|80:208,1,24
408,224,90724,2,0,L|432:208,1,24
200,232,90880,2,0,L|184:264,1,24
496,160,91036,6,0,L|8:160,1,480
16,160,91349,6,0,L|496:160,1,480
496,176,91661,6,0,L|16:176,1,480
8,152,92026,1,0,0:0:0:0:
16,160,92078,1,0,0:0:0:0:
80,160,92130,1,0,0:0:0:0:
368,296,92286,5,0,0:0:0:0:
240,272,92443,6,0,L|248:240,1,24
464,208,92599,2,0,L|456:176,1,24
176,176,92755,6,0,L|424:176,1,240
416,176,92911,2,0,L|176:176,1,240
472,112,93224,6,0,L|480:80,1,24
264,96,93380,2,0,L|232:96,1,24
16,208,93536,6,0,L|496:208,1,480
496,288,93849,2,0,L|256:288,1,240
256,288,94005,2,0,L|496:288,1,240
496,120,94161,6,0,L|16:120,1,480
24,112,94513,1,0,0:0:0:0:
368,224,94630,2,0,L|360:192,1,24
144,224,94786,2,0,L|152:192,1,24
488,48,94943,6,0,P|336:192|488:344,1,460.7999859375
488,344,95294,1,0,0:0:0:0:
256,336,95411,6,0,L|256:312,1,24
32,336,95568,2,0,L|24:312,1,24
392,296,95724,2,0,L|400:272,1,24
120,296,95880,2,0,L|112:272,1,24
488,352,96036,6,0,P|344:200|496:32,1,480
496,31,96349,6,0,P|320:192|496:352,1,529.371454823523
491,352,96661,6,0,L|7:351,1,480
24,336,97012,5,0,0:0:0:0:
416,256,97129,1,0,0:0:0:0:
400,240,97168,1,0,0:0:0:0:
96,256,97286,1,0,0:0:0:0:
112,240,97325,1,0,0:0:0:0:
376,144,97442,6,0,L|112:144,1,240
136,144,97598,2,0,L|376:144,1,240
392,136,97793,1,0,0:0:0:0:
48,120,97911,5,0,0:0:0:0:
32,112,97950,1,0,0:0:0:0:
256,88,98067,1,0,0:0:0:0:
272,80,98106,1,0,0:0:0:0:
472,56,98223,5,0,0:0:0:0:
488,48,98262,1,0,0:0:0:0:
256,264,98379,1,0,0:0:0:0:
240,256,98418,1,0,0:0:0:0:
488,200,98536,6,0,L|232:200,1,240
392,128,98848,1,0,0:0:0:0:
104,112,99004,1,0,0:0:0:0:
392,224,99161,1,0,0:0:0:0:
104,224,99317,6,0,L|96:280,1,48
408,224,99473,2,0,L|416:280,1,48
104,336,99629,5,0,0:0:0:0:
80,336,99668,1,0,0:0:0:0:
56,336,99707,1,0,0:0:0:0:
408,336,99786,5,0,0:0:0:0:
432,336,99825,1,0,0:0:0:0:
456,336,99864,1,0,0:0:0:0:
16,248,99942,2,0,L|496:248,1,480
232,200,100411,1,0,0:0:0:0:
216,192,100450,1,0,0:0:0:0:
448,152,100567,1,0,0:0:0:0:
464,144,100606,1,0,0:0:0:0:
136,136,100723,1,0,0:0:0:0:
152,128,100762,1,0,0:0:0:0:
472,88,100879,1,0,0:0:0:0:
488,80,100918,1,0,0:0:0:0:
197,348,101036,6,0,P|271:16|308:355,1,960
263,15,101349,1,0,0:0:0:0:
320,351,101661,2,0,P|432:168|256:16,1,480
88,144,102026,6,0,L|56:184,2,32
232,96,102286,1,0,0:0:0:0:
496,336,102442,6,0,L|480:304,1,24
256,320,102598,6,0,L|256:288,1,24
16,336,102754,6,0,L|32:304,1,24
384,200,102911,6,0,L|128:200,1,240
144,200,103067,2,0,L|440:200,1,274.285714285714
418,200,103223,2,0,L|88:200,1,320
98,200,103379,2,0,L|482:200,1,384
482,200,103536,6,0,L|2:200,1,480
2,200,103848,6,0,L|424:200,1,384
386,200,104004,2,0,L|64:200,1,320
64,32,104161,6,0,P|208:200|56:368,1,480
96,368,104512,1,0,0:0:0:0:
376,368,104629,6,0,L|408:368,1,24
168,288,104786,2,0,L|136:288,1,24
488,200,104942,6,0,L|8:200,1,480
256,120,105411,1,0,0:0:0:0:
96,160,105567,6,0,L|352:160,1,240
336,160,105723,6,0,L|-16:160,1,320
16,160,105879,6,0,L|504:160,1,480
496,24,106036,6,0,P|360:192|496:384,1,480
491,382,106348,6,0,P|328:200|496:24,1,529.371454823523
493,24,106661,6,0,L|8:24,1,480
48,360,107012,1,0,0:0:0:0:
104,360,107064,1,0,0:0:0:0:
304,312,107129,6,0,L|176:312,2,124.79999428711
344,288,107481,1,0,0:0:0:0:
128,224,107598,5,0,0:0:0:0:
112,224,107598,1,0,0:0:0:0:
248,184,107754,2,0,L|256:144,1,24
24,104,107911,5,0,0:0:0:0:
40,104,107911,1,0,0:0:0:0:
248,104,108067,5,0,0:0:0:0:
264,104,108067,1,0,0:0:0:0:
472,104,108223,5,0,0:0:0:0:
488,104,108223,1,0,0:0:0:0:
200,288,108379,2,0,L|192:256,1,24
496,208,108536,6,0,L|16:208,1,480
488,104,109004,5,0,0:0:0:0:
472,104,109004,1,0,0:0:0:0:
264,104,109160,5,0,0:0:0:0:
248,104,109160,1,0,0:0:0:0:
40,104,109316,5,0,0:0:0:0:
24,104,109316,1,0,0:0:0:0:
384,256,109473,2,0,L|144:256,1,240
144,256,109629,2,0,L|424:256,1,274.285714285714
418,256,109786,2,0,L|56:256,1,320
98,256,109942,2,0,L|488:256,1,384
24,280,110254,5,0,0:0:0:0:
40,280,110254,1,0,0:0:0:0:
248,280,110410,5,0,0:0:0:0:
264,280,110410,1,0,0:0:0:0:
472,280,110566,5,0,0:0:0:0:
488,280,110566,1,0,0:0:0:0:
336,248,110723,2,0,L|328:208,1,24
472,280,110879,5,0,0:0:0:0:
488,280,110879,1,0,0:0:0:0:
16,136,111036,2,0,L|496:136,1,480
24,280,111504,5,0,0:0:0:0:
40,280,111504,1,0,0:0:0:0:
248,280,111660,5,0,0:0:0:0:
264,280,111660,1,0,0:0:0:0:
472,280,111816,5,0,0:0:0:0:
488,280,111816,1,0,0:0:0:0:
192,184,111973,2,0,L|432:184,1,240
432,184,112129,2,0,L|48:184,1,384
384,304,112442,5,0,0:0:0:0:
392,304,112442,1,0,0:0:0:0:
136,304,112598,6,0,L|448:304,1,288.000010986329
128,304,112598,1,0,0:0:0:0:
432,304,112911,6,0,L|96:304,1,326.400006225586
96,304,113223,1,0,0:0:0:0:
496,224,113536,6,0,L|16:224,1,480
16,224,113848,2,0,L|496:224,1,480
112,136,114473,6,0,L|416:136,1,288.000010986329
144,264,114942,2,0,L|432:264,1,240
384,264,115098,2,0,L|16:264,1,320
64,264,115254,2,0,L|504:264,1,436.363636363636
488,232,115489,5,0,0:0:0:0:
0,184,115567,6,0,L|36:136,1,48
488,184,115723,6,0,L|427:160,1,48
0,184,115879,6,0,L|68:184,1,48
256,192,116036,5,0,0:0:0:0:
256,192,116661,12,0,119161,0:0:0:0:
256,192,116817,12,0,119004,0:0:0:0:
256,192,116973,12,0,118848,0:0:0:0:
256,192,117129,12,0,118653,0:0:0:0:
256,192,117286,12,0,118536,0:0:0:0:
