osu file format v14

[General]
AudioFilename: audio.mp3
AudioLeadIn: 0
PreviewTime: 37633
Countdown: 0
SampleSet: Normal
StackLeniency: 0.3
Mode: 0
LetterboxInBreaks: 0
WidescreenStoryboard: 1

[Editor]
Bookmarks: 53980,70251,106861,123132,141437,157709,173980
DistanceSpacing: 0.9
BeatDivisor: 4
GridSize: 4
TimelineZoom: 1.3

[Metadata]
Title:YELLOW
TitleUnicode:YELLOW
Artist:Kamiyama Yoh
ArtistUnicode:神山羊
Creator:Ryuusei Aika
Version:Necho's Insane
Source:
Tags:Yugu kanor Reincarnation Necho Loneight l1106188 japanese pop jpop j-pop male vocal 有機酸 uki3 uki3/ewe 有機酸/ewe しあわせなおとな shiawase na otona 東洋医学 Touyouigaku
BeatmapID:2171061
BeatmapSetID:1023510

[Difficulty]
HPDrainRate:5
CircleSize:4
OverallDifficulty:7
ApproachRate:8
SliderMultiplier:1.6
SliderTickRate:1

[Events]
//Background and Video events
0,0,"BG.png",0,0
Video,-869,"video.avi"
//Break Periods
//Storyboard Layer 0 (Background)
//Storyboard Layer 1 (Fail)
//Storyboard Layer 2 (Pass)
//Storyboard Layer 3 (Foreground)
//Storyboard Layer 4 (Overlay)
//Storyboard Sound Samples

[TimingPoints]
590,508.474576271186,4,1,1,20,1,0
1099,508.474576271186,4,1,1,20,1,0
17370,-66.6666666666667,4,1,1,35,0,0
33641,-66.6666666666667,4,1,10,30,0,0
36945,-66.6666666666667,4,1,10,35,0,0
36946,-66.6666666666667,4,1,10,35,0,0
37073,-66.6666666666667,4,1,10,40,0,0
37200,-66.6666666666667,4,1,10,45,0,0
37709,-50,4,1,10,50,0,0
38217,-50,4,1,2,50,0,0
45844,-50,4,1,10,50,0,0
46353,-50,4,1,2,50,0,0
53980,-133.333333333333,4,1,3,40,0,0
55505,-133.333333333333,4,1,4,40,0,0
55760,-133.333333333333,4,1,4,40,0,0
56014,-133.333333333333,4,1,3,40,0,0
59573,-133.333333333333,4,1,4,40,0,0
59700,-133.333333333333,4,1,3,40,0,0
63641,-133.333333333333,4,1,4,40,0,0
63895,-133.333333333333,4,1,4,40,0,0
64149,-133.333333333333,4,1,3,40,0,0
67709,-133.333333333333,4,1,4,40,0,0
67836,-133.333333333333,4,1,3,40,0,0
70251,-100,4,1,10,40,0,0
70505,-100,4,1,1,30,0,0
86268,-100,4,1,10,40,0,0
86522,-66.6666666666667,4,1,10,40,0,0
86649,-66.6666666666667,4,1,1,40,0,0
101904,-66.6666666666667,4,1,10,40,0,0
102031,-66.6666666666667,4,1,1,40,0,0
102158,-66.6666666666667,4,1,10,40,0,0
102285,-66.6666666666667,4,1,1,40,0,0
102793,-66.6666666666667,4,1,10,40,0,0
103174,-66.6666666666667,4,1,1,40,0,0
103175,-66.6666666666667,4,1,1,40,0,0
103302,-66.6666666666667,4,1,10,40,0,0
103555,-66.6666666666667,4,1,1,40,0,0
103556,-66.6666666666667,4,1,1,40,0,0
103810,-66.6666666666667,4,1,10,40,0,0
103937,-66.6666666666667,4,1,1,40,0,0
104192,-66.6666666666667,4,1,1,40,0,0
104318,-66.6666666666667,4,1,10,40,0,0
104319,-66.6666666666667,4,1,10,40,0,0
104573,-66.6666666666667,4,1,1,40,0,0
104827,-66.6666666666667,4,1,10,40,0,0
105208,-66.6666666666667,4,1,1,40,0,0
105209,-66.6666666666667,4,1,1,40,0,0
105336,-66.6666666666667,4,1,10,40,0,0
105589,-66.6666666666667,4,1,1,40,0,0
105590,-66.6666666666667,4,1,1,40,0,0
105844,-66.6666666666667,4,1,3,40,0,0
106353,-66.6666666666667,4,1,1,40,0,0
106861,-66.6666666666667,4,1,10,55,0,0
107115,-66.6666666666667,4,1,3,55,0,0
108387,-66.6666666666667,4,1,4,55,0,0
108514,-66.6666666666667,4,1,3,55,0,0
112454,-66.6666666666667,4,1,4,55,0,0
112582,-66.6666666666667,4,1,3,55,0,0
116522,-66.6666666666667,4,1,4,55,0,0
116649,-66.6666666666667,4,1,3,55,0,0
120590,-66.6666666666667,4,1,4,55,0,0
120717,-66.6666666666667,4,1,3,55,0,0
123132,-200,4,1,10,55,0,0
123260,-200,4,1,10,25,0,0
125165,-200,4,1,10,25,0,0
131268,-200,4,1,10,25,0,0
131776,-200,4,1,10,27,0,0
132285,-200,4,1,10,29,0,0
132793,-200,4,1,10,21,0,0
133302,-133.333333333333,4,1,10,24,0,0
133810,-133.333333333333,4,1,10,27,0,0
134318,-133.333333333333,4,1,10,30,0,0
134319,-133.333333333333,4,1,10,30,0,0
134827,-133.333333333333,4,1,10,33,0,0
135336,-100,4,1,10,36,0,0
135844,-100,4,1,10,39,0,0
136353,-100,4,1,10,42,0,0
136861,-100,4,1,10,45,0,0
137115,-100,4,1,10,49,0,0
137370,-100,4,1,10,48,0,0
137624,-100,4,1,10,51,0,0
137878,-100,4,1,10,51,0,0
138132,-100,4,1,10,53,0,0
138387,-100,4,1,10,55,0,0
138895,-100,4,1,10,57,0,0
139404,-100,4,1,11,60,0,0
141437,-50,4,1,10,60,0,0
141946,-50,4,1,2,60,0,0
149573,-50,4,1,10,60,0,0
150082,-50,4,1,2,60,0,0
157327,-50,4,1,3,60,0,0
157709,-50,4,1,10,60,0,0
157836,-50,4,1,4,60,0,0

[Colours]
Combo1 : 253,228,130
Combo2 : 251,202,4

[HitObjects]
105,99,1099,6,0,B|141:84|181:105|181:105|228:129|281:94,3,160,2|2|2|10,0:3|0:3|0:3|0:3,0:0:0:0:
359,187,3048,1,2,2:1:0:0:
359,187,3132,2,0,L|342:9,3,160,2|2|2|10,0:3|0:3|0:3|0:3,0:0:0:0:
285,225,5082,5,8,2:3:0:0:
285,225,5166,2,0,B|240:217|217:181|217:181|191:212|128:215,3,160,2|2|2|10,0:3|0:3|0:3|0:3,0:0:0:0:
90,51,7115,1,2,2:1:0:0:
90,51,7200,2,0,P|30:84|89:164,3,160,2|2|2|10,0:3|0:3|0:3|0:3,0:0:0:0:
176,64,9149,5,8,2:3:0:0:
176,64,9234,1,2,0:3:0:0:
311,129,9743,2,0,B|384:123|384:123|393:126|393:126|493:119,2,160,2|2|10,0:3|0:3|0:3,0:0:0:0:
200,249,11183,5,2,2:1:0:0:
200,249,11268,2,0,B|246:191|201:134|201:134|181:177,3,160,2|2|2|10,0:3|0:3|0:3|0:3,0:0:0:0:
305,266,13175,5,8,2:1:0:0:
305,266,13302,2,0,B|362:276|402:236|402:236|423:264|464:272,1,160,2|2,0:3|0:3,0:0:0:0:
257,334,14192,5,8,0:1:0:0:
257,334,14319,2,0,B|200:324|160:364|160:364|139:336|98:328,1,160,2|10,0:3|0:3,0:0:0:0:
41,353,15082,1,0,0:0:0:0:
41,353,15336,6,0,L|51:247,1,80,2|2,0:3|2:3,0:0:0:0:
116,230,15717,1,0,1:0:0:0:
116,230,15844,6,0,L|106:124,1,80,2|2,0:3|2:3,0:0:0:0:
40,60,16353,1,2,0:3:0:0:
40,60,17115,5,0,0:0:0:0:
146,77,17370,2,0,P|181:58|228:72,3,60.0000022888184,6|0|0|4,1:3|2:0|0:0|2:3,0:0:0:0:
200,58,17878,2,0,B|183:128|183:128|254:167,1,120.000004577637,6|4,0:3|1:3,0:0:0:0:
366,207,18387,6,0,B|360:153|360:153|356:145|356:145|347:69,1,120.000004577637,2|0,0:3|0:0,0:0:0:0:
282,35,18768,1,2,0:1:0:0:
282,35,18895,2,0,B|331:86|331:86|289:155,1,120.000004577637,14|4,0:3|0:3,0:0:0:0:
196,230,19404,6,0,L|118:221,3,60.0000022888184,2|0|0|4,0:3|2:0|0:0|2:3,0:0:0:0:
136,223,19912,6,0,P|148:280|151:359,1,120.000004577637,6|0,0:3|0:0,0:0:0:0:
62,177,20421,6,0,B|45:172|26:171|26:171|4:120|49:84,1,120.000004577637,2|4,0:3|0:3,0:0:0:0:
101,44,20802,1,2,0:1:0:0:
101,44,20929,2,0,P|165:92|146:146,1,120.000004577637,14|6,0:3|0:3,0:0:0:0:
213,187,21310,1,6,0:3:0:0:
213,187,21437,2,0,L|287:174,2,60.0000022888184,2|0|0,0:3|2:0|0:0,0:0:0:0:
294,190,21946,6,0,L|368:203,1,60.0000022888184,14|0,0:3|0:0,0:0:0:0:
272,176,22200,2,0,L|260:37,1,120.000004577637,4|2,0:3|0:3,0:0:0:0:
194,21,22582,1,4,2:3:0:0:
194,21,22709,2,0,B|186:48|186:48|154:72,2,60.0000022888184,0|0|14,0:0|0:0|0:3,0:0:0:0:
352,114,23217,2,0,P|385:119|435:111,1,60.0000022888184,2|2,0:3|0:0,0:0:0:0:
477,162,23471,6,0,P|457:99|465:20,2,120.000004577637,6|0|10,0:3|0:0|0:3,0:0:0:0:
421,222,24234,1,4,0:3:0:0:
421,222,24488,6,0,B|402:200|402:200|296:221,2,120.000004577637,2|4|14,0:3|0:3|0:3,0:0:0:0:
470,305,25251,2,0,B|484:336|484:336|442:371,1,60.0000022888184,6|6,0:3|0:3,0:0:0:0:
392,326,25505,6,0,P|323:300|254:337,1,120.000004577637,6|0,0:3|0:0,0:0:0:0:
202,326,25887,1,4,2:3:0:0:
202,326,26014,2,0,B|187:345|187:345|71:367,1,120.000004577637,6|4,0:3|0:3,0:0:0:0:
203,239,26522,2,0,L|215:171,2,60.0000022888184,2|0|0,0:3|2:0|0:0,0:0:0:0:
300,183,27031,2,0,B|366:213|366:213|335:278,1,120.000004577637,14|4,0:3|0:3,0:0:0:0:
202,326,27539,6,0,B|221:363|221:363|244:370,3,60.0000022888184,6|0|0|4,0:3|2:0|0:0|2:3,0:0:0:0:
202,326,28048,6,0,L|214:184,1,120.000004577637,2|4,0:3|0:3,0:0:0:0:
314,343,28556,1,2,0:3:0:0:
358,185,28937,1,2,0:1:0:0:
358,185,29065,2,0,B|376:153|421:158|421:158|446:179|431:221,1,120.000004577637,14|6,0:3|0:3,0:0:0:0:
392,266,29446,1,6,0:3:0:0:
392,266,29573,6,0,L|256:261,1,120.000004577637,2|0,0:3|0:0,0:0:0:0:
272,261,29954,1,0,0:0:0:0:
201,162,30209,1,0,0:0:0:0:
201,162,30336,1,4,0:3:0:0:
269,69,30590,6,0,B|354:75|354:75|350:123,1,120.000004577637,2|0,0:3|0:0,0:0:0:0:
341,187,30971,1,0,0:0:0:0:
341,187,31098,1,14,0:3:0:0:
440,51,31353,2,0,B|462:73|462:73|456:118,1,60.0000022888184,2|2,0:1|0:1,0:0:0:0:
427,174,31607,6,0,B|425:227|425:227|428:233|428:233|424:336,1,120.000004577637,6|0,0:3|0:0,0:0:0:0:
290,289,32115,6,0,P|334:272|368:279,2,60.0000022888184,10|2|4,0:3|2:1|0:3,0:0:0:0:
227,229,32624,6,0,B|175:202|175:202|182:140,1,120.000004577637,2|0,0:3|0:0,0:0:0:0:
111,105,33005,1,2,0:3:0:0:
111,105,33132,2,0,P|40:121|62:176,1,120.000004577637,14|10,0:3|0:3,0:0:0:0:
95,213,33514,1,2,0:3:0:0:
95,213,33641,6,0,P|158:195|217:195,1,120.000004577637,6|0,0:0|0:0,0:0:0:0:
279,100,34022,2,0,P|295:191|327:254,1,120.000004577637,8|0,0:3|0:0,0:0:0:0:
281,304,34404,2,0,P|345:287|416:280,1,120.000004577637,8|0,3:0|0:0,3:3:0:0:
472,219,34785,2,0,P|488:310|520:373,1,120.000004577637,8|0,3:0|0:0,0:0:0:0:
393,202,35166,2,0,B|381:163|381:163|415:143|415:143|393:68,1,120.000004577637,10|8,0:3|0:3,0:0:0:0:
330,70,35675,6,0,P|259:120|220:129,1,120.000004577637,14|0,0:3|0:0,0:0:0:0:
312,217,36056,2,0,P|243:209|172:206,1,120.000004577637,8|0,0:3|0:0,0:0:0:0:
147,112,36437,6,0,P|76:162|37:171,1,120.000004577637,8|2,0:3|0:3,0:0:0:0:
129,259,36818,2,0,P|96:252|38:251,1,60.0000022888184,8|8,0:3|0:0,0:0:0:0:
192,206,37073,1,8,0:0:0:0:
192,206,37200,1,8,0:0:0:0:
302,50,37709,6,0,P|283:174|306:303,1,240,6|0,0:0|2:0,0:0:0:0:
369,227,38217,2,0,P|434:258|435:295,2,80,8|0|4,0:3|0:0|0:3,0:0:0:0:
176,253,38726,6,0,B|104:248|102:338|159:344|159:344|291:353,1,240,2|0,0:3|2:0,0:0:0:0:
325,330,39234,2,0,B|396:332|396:332|402:335|402:335|510:339,1,160,8|4,0:3|0:3,0:0:0:0:
369,227,39743,5,2,0:3:0:0:
297,187,39997,1,4,0:3:0:0:
325,330,40251,1,8,0:3:0:0:
253,290,40505,1,6,0:3:0:0:
177,325,40760,6,0,B|210:334|210:334|252:256|170:171,1,160,2|4,0:3|0:3,0:0:0:0:
24,351,41268,2,0,L|121:367,2,80,10|4|12,0:3|0:3|0:3,0:0:0:0:
101,280,41776,5,2,0:3:0:0:
101,280,42031,6,0,B|137:253|137:253|101:167|101:167|116:119,2,160,4|8|4,0:3|0:3|0:3,0:0:0:0:
177,325,42793,2,0,P|269:317|311:363,1,160,2|4,0:3|0:3,0:0:0:0:
208,347,43175,1,0,2:0:0:0:
208,347,43302,2,0,B|215:263|215:263|219:212|272:191,1,160,8|6,0:3|0:3,0:0:0:0:
445,88,43810,6,0,P|494:182|438:257,1,160,2|4,0:3|0:3,0:0:0:0:
308,255,44319,2,0,P|259:161|315:86,1,160,8|6,0:3|0:3,0:0:0:0:
395,56,44827,2,0,B|498:70|498:70|435:91,1,160,2|4,0:3|0:3,0:0:0:0:
289,7,45336,2,0,P|247:3|203:36,2,80,8|0|14,0:3|2:0|0:3,0:0:0:0:
276,117,45844,6,0,P|112:110|33:80,1,240,6|0,0:0|2:0,0:0:0:0:
125,134,46353,2,0,B|147:166|147:166|139:221,2,80,8|0|4,0:3|2:0|0:3,0:0:0:0:
61,266,46861,6,0,P|177:231|347:245,1,240,2|0,0:3|2:0,0:0:0:0:
346,297,47370,2,0,B|324:329|324:329|332:384,2,80,8|4|4,0:3|2:3|0:3,0:0:0:0:
417,252,47878,6,0,B|448:271|448:271|397:23,1,240,2|0,0:3|2:0,0:0:0:0:
332,56,48387,2,0,P|292:95|301:135,2,80,8|0|0,0:3|0:0|0:0,0:0:0:0:
347,174,48895,2,0,P|271:138|189:137,1,160,2|6,0:3|0:3,0:0:0:0:
94,42,49404,2,0,P|116:94|122:143,2,80,8|2|12,0:3|0:3|0:3,0:0:0:0:
95,193,49912,5,2,0:3:0:0:
95,193,50166,2,0,B|86:112|86:112|82:107|82:107|73:14,2,160,4|8|6,0:3|0:3|0:3,0:0:0:0:
246,222,50929,2,0,B|289:305|289:305|251:309|209:354,1,160,2|6,0:3|0:3,0:0:0:0:
92,276,51437,2,0,L|183:257,1,80,8|0,0:3|0:0,0:0:0:0:
246,222,51692,6,0,B|454:179|454:179|407:316,1,320,6|0,0:3|0:0,0:0:0:0:
410,131,52454,2,0,B|433:153|433:153|417:294,1,160
307,24,52963,5,2,0:0:0:0:
324,100,53090,1,2,0:0:0:0:
341,176,53217,1,2,0:3:0:0:
176,79,53471,5,2,0:0:0:0:
184,117,53598,1,2,0:3:0:0:
193,155,53725,1,2,0:3:0:0:
176,79,53980,6,0,L|106:73,1,60.0000022888184,2|4,0:0|0:0,0:0:0:0:
336,305,54488,2,0,L|406:311,1,60.0000022888184,8|4,0:0|0:0,0:0:0:0:
118,204,54997,6,0,L|77:262,1,60.0000022888184,2|0,0:0|0:0,0:0:0:0:
393,179,55505,2,0,L|434:121,1,60.0000022888184,8|0,0:0|0:0,0:0:0:0:
236,276,56014,6,0,L|249:349,1,60.0000022888184,2|4,0:0|0:0,0:0:0:0:
276,108,56522,2,0,L|263:35,1,60.0000022888184,8|6,0:0|0:0,0:0:0:0:
309,220,57031,6,0,L|388:206,1,60.0000022888184,6|2,0:0|0:3,0:0:0:0:
256,192,57412,1,2,0:3:0:0:
203,164,57539,2,0,L|163:171,3,30.0000011444092,8|2|2|2,0:0|0:3|0:0|0:3,0:0:0:0:
256,192,58048,6,0,L|256:256,1,60.0000022888184,2|4,0:0|0:0,0:0:0:0:
256,192,58556,2,0,L|256:128,1,60.0000022888184,8|4,0:0|0:0,0:0:0:0:
164,192,59065,6,0,L|100:192,1,60.0000022888184,2|0,0:0|0:0,0:0:0:0:
348,192,59573,2,0,B|372:188|372:188|384:196|384:196|412:192,1,60.0000022888184,8|2,0:0|0:3,0:0:0:0:
256,80,60082,5,2,0:0:0:0:
256,80,60336,1,4,0:0:0:0:
256,80,60590,1,12,0:0:0:0:
256,80,60844,1,6,0:0:0:0:
256,272,61098,6,0,L|256:340,1,60.0000022888184,2|0,0:0|0:0,0:0:0:0:
256,192,61480,1,2,0:3:0:0:
256,192,61607,2,0,L|256:148,3,30.0000011444092,8|2|6|2,0:0|0:3|0:0|0:3,0:0:0:0:
368,192,62115,6,0,B|396:184|396:184|428:192,1,60.0000022888184,2|4,0:0|0:0,0:0:0:0:
144,192,62624,2,0,B|116:200|116:200|84:192,1,60.0000022888184,8|4,0:0|0:0,0:0:0:0:
256,108,63132,6,0,L|256:40,1,60.0000022888184,2|0,0:0|0:0,0:0:0:0:
256,276,63641,2,0,L|256:344,1,60.0000022888184,8|0,0:0|0:0,0:0:0:0:
352,104,64149,6,0,P|396:88|424:92,1,60.0000022888184,2|4,0:0|0:0,0:0:0:0:
160,280,64658,2,0,P|116:296|88:292,1,60.0000022888184,8|6,0:0|0:0,0:0:0:0:
300,234,65166,6,0,P|344:250|364:266,1,60.0000022888184,2|2,0:0|0:0,0:0:0:0:
256,192,65548,1,4,0:0:0:0:
212,150,65675,2,0,P|188:140|176:120,3,30.0000011444092,8|0|2|2,0:0|0:0|0:3|0:3,0:0:0:0:
256,192,66183,6,0,L|338:179,1,60.0000022888184,2|4,0:0|0:0,0:0:0:0:
256,192,66692,2,0,L|174:205,1,60.0000022888184,8|4,0:0|0:0,0:0:0:0:
333,270,67200,6,0,L|410:279,1,60.0000022888184,2|0,0:0|0:0,0:0:0:0:
179,114,67709,2,0,B|155:108|155:108|141:111|141:111|104:103,1,60.0000022888184,8|2,0:0|0:3,0:0:0:0:
256,192,68217,5,2,0:0:0:0:
256,192,68471,1,4,0:0:0:0:
256,192,68726,1,12,0:0:0:0:
256,192,68980,1,6,0:0:0:0:
256,100,69234,6,0,L|256:4,1,90.0000034332277,2|2,0:0|0:3,0:0:0:0:
256,192,69743,2,0,L|256:236,3,30.0000011444092,8|2|2|2,0:0|0:3|0:0|0:3,0:0:0:0:
320,148,70251,6,0,B|369:125|369:125|400:148,1,80,6|0,0:0|0:0,0:0:0:0:
468,128,70632,2,0,L|465:241,1,80
464,286,71014,2,0,L|462:342,1,40
396,246,71268,2,0,P|366:253|350:270,2,40,2|0|2,0:3|0:0|0:2,0:0:0:0:
321,329,71649,1,2,0:3:0:0:
321,329,71776,2,0,L|253:342,1,40,10|2,0:3|0:1,0:0:0:0:
281,336,72158,6,0,P|229:295|195:303,1,80
148,266,72539,2,0,L|98:282,1,40,2|0,0:2|0:0,0:0:0:0:
47,319,72793,2,0,L|60:371,3,40,2|0|2|0,0:3|0:0|0:2|0:0,0:0:0:0:
72,196,73302,5,2,0:3:0:0:
127,250,73429,2,0,B|127:273|127:273|110:278,1,40,2|2,0:0|2:0,0:0:0:0:
72,196,73683,2,0,L|78:130,2,40,2|10|2,0:0|0:3|0:0,0:0:0:0:
202,227,74192,5,2,2:0:0:0:
202,227,74319,2,0,L|276:208,1,40,2|0,0:3|0:0,0:0:0:0:
295,157,74573,2,0,L|324:196,1,40,2|0,0:2|0:0,0:0:0:0:
297,276,74827,2,0,L|371:257,1,40,2|0,0:3|2:0,0:0:0:0:
396,217,75082,2,0,L|425:256,1,40,2|0,0:2|2:0,0:0:0:0:
419,249,75336,6,0,L|428:140,1,80,2|2,0:3|0:1,0:0:0:0:
504,177,75717,2,0,L|495:286,1,80,2|2,0:1|0:0,0:0:0:0:
317,323,76226,5,2,0:2:0:0:
317,323,76353,2,0,L|246:334,1,40,2|0,0:3|2:0,0:0:0:0:
203,311,76607,2,0,L|132:322,1,40,2|2,0:2|0:2,0:0:0:0:
92,349,76861,5,2,0:3:0:0:
92,349,76988,2,0,B|80:330|80:330|90:294,2,40,0|2|2,1:0|0:2|0:2,0:0:0:0:
129,248,77370,2,0,L|134:157,1,80,2|2,0:3|0:1,0:0:0:0:
164,97,77751,2,0,L|169:6,1,80,2|2,0:0|0:0,0:0:0:0:
375,153,78260,5,0,0:0:0:0:
375,153,78387,1,2,0:3:0:0:
461,307,78641,2,0,P|477:276|468:217,1,80,2|2,0:2|0:3,0:0:0:0:
375,153,79149,2,0,P|357:121|333:103,1,40,2|2,0:2|0:2,0:0:0:0:
303,57,79404,6,0,L|242:124,1,80,2|2,0:3|0:2,0:0:0:0:
254,201,79785,2,0,L|175:178,1,80,2|2,2:0|2:0,0:0:0:0:
0,54,80293,5,0,0:0:0:0:
0,54,80421,2,0,P|34:62|54:91,1,40,2|0,0:3|0:0,0:0:0:0:
72,138,80675,2,0,P|106:130|126:101,1,40,2|0,0:2|0:0,0:0:0:0:
156,64,80929,2,0,L|262:55,1,80,2|2,0:3|0:2,0:0:0:0:
312,93,81310,1,2,0:2:0:0:
312,93,81437,6,0,P|355:112|405:98,1,80,2|2,0:3|0:0,0:0:0:0:
453,59,81819,2,0,P|421:105|417:141,1,80,2|2,0:0|0:0,0:0:0:0:
457,285,82327,5,0,0:0:0:0:
457,285,82454,2,0,L|445:179,1,80,2|2,0:3|0:2,0:0:0:0:
365,212,82836,2,0,L|377:318,1,80,2|2,0:1|0:1,0:0:0:0:
187,342,83471,6,0,L|199:236,1,80,2|2,0:3|0:2,0:0:0:0:
279,269,83853,2,0,L|267:375,1,80,2|2,0:0|0:0,0:0:0:0:
270,348,84234,1,2,2:0:0:0:
170,186,84488,5,2,0:3:0:0:
170,186,84997,2,0,P|119:154|6:183,2,160,2|2|0,0:3|0:3|0:0,0:0:0:0:
170,186,86141,2,0,P|210:175|217:162,1,40,2|8,0:3|0:0,0:0:0:0:
248,89,86395,5,0,0:0:0:0:
248,89,86522,2,0,L|379:70,1,120.000004577637,6|0,0:0|0:0,0:0:0:0:
310,157,86904,2,0,L|441:138,1,120.000004577637,4|0,0:3|0:0,0:0:0:0:
372,225,87285,2,0,L|503:206,1,120.000004577637,4|2,0:3|0:3,0:0:0:0:
490,207,87666,1,0,0:0:0:0:
490,207,87793,2,0,L|461:282,1,60.0000022888184,4|2,0:3|0:0,0:0:0:0:
385,344,88048,2,0,L|366:171,1,120.000004577637,14|4,0:3|0:3,0:0:0:0:
246,341,88556,6,0,P|176:324|114:338,1,120.000004577637,6|0,0:3|0:0,0:0:0:0:
41,313,88937,2,0,P|137:302|181:255,1,120.000004577637,4|0,0:3|0:0,0:0:0:0:
236,231,89319,2,0,P|200:217|149:223,1,60.0000022888184,4|2,0:3|0:0,0:0:0:0:
106,180,89573,1,2,0:3:0:0:
106,180,89700,5,0,0:0:0:0:
106,180,89827,2,0,L|146:114,1,60.0000022888184,4|2,0:3|0:0,0:0:0:0:
150,18,90082,6,0,L|182:158,1,120.000004577637,14|4,0:3|0:3,0:0:0:0:
255,154,90463,1,2,0:0:0:0:
255,154,90590,6,0,B|298:156|323:125|323:125|336:150|379:171,1,120.000004577637,6|0,0:3|0:0,0:0:0:0:
346,231,90971,2,0,B|389:233|414:202|414:202|427:227|470:248,1,120.000004577637,4|0,0:3|0:0,0:0:0:0:
486,164,91353,2,0,L|476:82,1,60.0000022888184,4|0,0:3|0:0,0:0:0:0:
414,58,91607,5,2,0:3:0:0:
414,58,91734,2,0,L|350:40,2,60.0000022888184,2|0|2,0:0|0:0|0:0,0:0:0:0:
342,67,92115,2,0,L|255:90,1,60.0000022888184,14|2,0:3|0:0,0:0:0:0:
220,23,92370,2,0,B|196:43|196:43|216:94,1,60.0000022888184,2|2,0:3|0:0,0:0:0:0:
235,145,92624,6,0,P|256:217|243:281,1,120.000004577637,6|0,0:3|0:0,0:0:0:0:
154,271,93005,2,0,P|133:199|146:135,1,120.000004577637,4|0,0:3|0:0,0:0:0:0:
91,83,93387,2,0,P|100:141|82:162,1,60.0000022888184,4|0,0:3|0:0,0:0:0:0:
41,192,93641,1,2,0:3:0:0:
41,192,93768,2,0,L|181:174,1,120.000004577637,2|2,0:0|0:0,0:0:0:0:
231,215,94149,2,0,B|257:199|257:199|244:73,1,120.000004577637,14|6,0:3|0:3,0:0:0:0:
188,54,94531,5,6,0:3:0:0:
188,54,94658,2,0,P|273:92|351:78,1,120.000004577637,6|2,0:3|0:2,0:0:0:0:
474,107,95166,2,0,P|414:114|363:145,1,120.000004577637,6|4,0:3|0:3,0:0:0:0:
261,236,95675,6,0,B|286:256|286:256|293:321|293:321|321:350,3,120.000004577637,2|2|14|4,0:3|0:3|0:3|0:3,0:0:0:0:
471,325,96692,6,0,P|409:274|327:300,1,120.000004577637,6|0,0:3|0:0,0:0:0:0:
211,299,97200,2,0,P|149:350|67:324,1,120.000004577637,2|4,0:3|0:3,0:0:0:0:
226,184,97709,2,0,B|300:170|269:211|342:199,3,120.000004577637,6|0|14|6,0:3|0:0|0:3|0:3,0:0:0:0:
399,148,98598,1,0,0:0:0:0:
399,148,98726,1,2,0:3:0:0:
268,99,98980,6,0,L|272:24,1,60.0000022888184
351,18,99234,2,0,L|347:93,2,60.0000022888184,14|0|4,0:3|0:0|0:3,0:0:0:0:
481,113,99743,5,2,0:3:0:0:
481,113,99870,2,0,P|424:92|361:95,1,120.000004577637
319,158,100251,2,0,L|342:292,1,120.000004577637,14|2,0:3|0:0,0:0:0:0:
339,276,100632,1,2,0:0:0:0:
426,278,100760,6,0,B|463:272|480:234|480:234|480:267|523:299,1,120.000004577637,6|0,0:3|0:0,0:0:0:0:
339,276,101268,2,0,B|302:282|285:320|285:320|285:287|242:255,1,120.000004577637,10|4,0:3|0:3,0:0:0:0:
168,366,101776,5,6,0:3:0:0:
168,366,101904,2,0,P|186:298|166:214,1,120.000004577637,8|8,2:1|0:0,0:0:0:0:
86,238,102285,2,0,P|68:306|88:390,1,120.000004577637,14|10,0:3|0:3,0:0:0:0:
336,57,102793,6,0,B|378:110|378:110|365:137|365:137|353:264,4,180.000006866455,6|2|2|0|6,0:0|0:0|0:0|0:0|0:3,0:0:0:0:
336,57,104573,2,0,P|302:81|266:80,1,60.0000022888184,2|2,0:0|0:0,0:0:0:0:
218,42,104827,6,0,P|100:9|32:26,2,180.000006866455,2|2|2,0:0|0:0|0:0,0:0:0:0:
124,156,105844,5,8,0:0:0:0:
124,156,105971,1,8,0:0:0:0:
124,156,106098,1,8,0:0:0:0:
124,156,106226,1,8,0:0:0:0:
202,169,106353,2,0,L|331:156,1,120.000004577637,2|0,2:0|0:0,0:0:0:0:
295,260,106861,6,0,P|315:333|313:387,1,120.000004577637,6|4,0:0|0:0,0:0:0:0:
217,124,107370,2,0,P|197:51|199:-3,1,120.000004577637,8|4,0:0|0:0,0:0:0:0:
216,259,107878,6,0,P|163:313|115:338,1,120.000004577637,2|0,0:0|0:0,0:0:0:0:
295,124,108387,2,0,P|348:70|396:45,1,120.000004577637,8|0,0:0|0:0,0:0:0:0:
177,191,108895,6,0,P|104:172|58:143,1,120.000004577637,2|4,0:0|0:0,0:0:0:0:
334,192,109404,2,0,P|407:211|453:240,1,120.000004577637,8|6,0:0|0:0,0:0:0:0:
256,144,109912,6,0,L|256:20,1,120.000004577637,6|2,0:0|0:3,0:0:0:0:
256,192,110293,1,2,0:3:0:0:
256,240,110421,2,0,L|256:364,1,120.000004577637,8|2,0:0|0:0,0:0:0:0:
256,360,110802,1,2,0:3:0:0:
256,360,110929,6,0,P|333:332|404:323,1,120.000004577637,2|4,0:0|0:0,0:0:0:0:
448,157,111437,2,0,P|371:185|300:194,1,120.000004577637,8|4,0:0|0:0,0:0:0:0:
155,295,111946,6,0,P|232:267|303:258,1,120.000004577637,2|0,0:0|0:0,0:0:0:0:
347,92,112454,2,0,P|270:120|199:129,1,120.000004577637,8|2,0:0|0:3,0:0:0:0:
79,47,112963,5,2,0:0:0:0:
79,47,113217,1,4,0:0:0:0:
79,47,113471,1,12,0:0:0:0:
79,47,113726,1,6,0:0:0:0:
232,126,113980,2,0,P|309:98|380:89,1,120.000004577637,2|0,0:0|0:0,0:0:0:0:
421,123,114361,1,2,0:3:0:0:
421,123,114488,2,0,P|427:86|427:42,3,60.0000022888184,8|2|6|2,0:0|0:3|0:0|0:3,0:0:0:0:
364,182,114997,6,0,B|376:235|376:235|385:245|385:245|404:330,1,120.000004577637,2|4,0:0|0:0,0:0:0:0:
148,202,115505,2,0,B|136:149|136:149|127:139|127:139|108:54,1,120.000004577637,8|4,0:0|0:0,0:0:0:0:
301,93,116014,6,0,B|353:109|353:109|366:106|366:106|449:132,1,120.000004577637,2|4,0:0|0:0,0:0:0:0:
210,290,116522,2,0,B|158:274|158:274|145:277|145:277|62:251,1,120.000004577637,8|0,0:0|0:0,0:0:0:0:
193,103,117031,6,0,B|233:66|233:66|237:53|237:53|301:-5,1,120.000004577637,2|4,0:0|0:0,0:0:0:0:
318,280,117539,2,0,B|278:317|278:317|274:330|274:330|210:389,1,120.000004577637,8|6,0:0|0:0,0:0:0:0:
332,176,118048,6,0,B|418:158|418:158|474:200,1,120.000004577637,2|2,0:0|0:0,0:0:0:0:
256,192,118429,1,4,0:0:0:0:
256,192,118556,2,0,B|224:196|224:196|192:176,3,60.0000022888184,8|0|2|2,0:0|0:0|0:3|0:3,0:0:0:0:
332,176,119065,6,0,P|332:96|292:51,1,120.000004577637,2|4,0:0|0:0,0:0:0:0:
180,208,119573,2,0,P|180:288|220:333,1,120.000004577637,8|4,0:0|0:0,0:0:0:0:
240,116,120082,6,0,P|160:116|115:156,1,120.000004577637,2|0,0:0|0:0,0:0:0:0:
272,268,120590,2,0,P|352:268|397:228,1,120.000004577637,8|2,0:0|0:3,0:0:0:0:
180,208,121098,5,2,0:0:0:0:
180,208,121353,1,4,0:0:0:0:
180,208,121607,1,12,0:0:0:0:
180,208,121861,1,6,0:0:0:0:
332,176,122115,6,0,B|346:118|346:118|314:51,1,120.000004577637,2|0,0:0|0:0,0:0:0:0:
256,24,122497,1,2,0:3:0:0:
192,63,122624,2,0,B|166:118,3,60.0000022888184,8|2|2|2,0:0|0:3|0:0|0:3,0:0:0:0:
256,24,123132,6,0,L|256:356,1,320,6|0,0:0|0:0,0:0:0:0:
256,344,125421,2,0,P|288:332|312:332,2,40
183,309,126183,2,0,P|151:321|127:321,1,40
219,237,126692,2,0,L|247:244,2,20
104,192,127200,5,0,0:0:0:0:
104,192,127709,2,0,L|275:192,1,160
416,268,129234,2,0,L|244:268,1,160
200,320,130760,1,0,0:0:0:0:
256,268,131014,5,0,0:0:0:0:
256,268,131268,6,0,L|256:28,1,240
360,112,133302,6,0,B|340:192|380:156|360:240,3,120.000004577637
256,48,135336,6,0,P|196:40|128:104,1,160
256,336,136353,2,0,P|316:344|384:280,1,160
256,192,137115,1,0,0:0:0:0:
256,192,137370,6,0,P|312:220|360:220,2,80
256,192,138132,2,0,P|200:220|72:236,1,160
56,152,138895,2,0,L|112:164,2,40
156,112,139404,6,2,P|240:40|176:200,1,480,2|0,0:0|2:0,0:0:0:0:
205,223,141437,6,0,P|328:182|484:193,1,240,6|0,0:0|2:0,0:0:0:0:
456,289,141946,2,0,P|333:330|177:319,1,240,8|0,0:3|0:0,0:0:0:0:
74,182,142454,6,0,P|194:183|307:223,1,240,2|0,0:3|2:0,0:0:0:0:
288,329,142963,2,0,P|168:328|56:289,1,240,8|0,0:3|0:0,0:0:0:0:
198,151,143471,5,2,0:3:0:0:
256,248,143726,1,4,0:3:0:0:
314,151,143980,5,8,0:3:0:0:
256,248,144235,5,6,0:3:0:0:
256,248,144488,2,0,L|256:80,1,160,2|4,0:3|0:3,0:0:0:0:
328,284,144997,2,0,P|352:328|340:372,1,80,10|4,0:3|0:3,0:0:0:0:
163,356,145251,2,0,P|162:316|184:284,1,80,12|0,0:3|2:0,0:0:0:0:
256,248,145505,5,2,0:3:0:0:
256,248,145760,2,0,B|296:180|296:180|320:160|320:160|320:92,2,160,4|8|4,0:3|0:3|0:3,0:0:0:0:
256,248,146522,6,0,B|296:180|296:180|320:160|320:160|320:92,1,160,2|4,0:3|0:3,0:0:0:0:
192,110,147031,2,0,B|192:160|192:160|216:180|216:180|256:248,1,160,8|6,0:3|0:3,0:0:0:0:
256,48,147539,5,2,0:3:0:0:
256,248,147793,1,4,0:3:0:0:
192,110,148048,5,8,0:3:0:0:
320,110,148302,1,4,0:3:0:0:
256,48,148556,6,0,P|336:24|432:56,1,160,2|4,0:3|0:3,0:0:0:0:
256,48,149065,2,0,P|181:25|104:42,1,160,8|14,0:3|0:3,0:0:0:0:
408,41,149573,6,0,P|414:161|440:304,1,240,6|0,0:0|2:0,0:0:0:0:
328,292,150082,2,0,P|321:172|302:53,1,240,8|0,0:3|0:0,0:0:0:0:
209,53,150590,6,0,P|190:172|184:292,1,240,2|0,0:3|2:0,0:0:0:0:
78,279,151098,2,0,P|97:160|104:41,1,240,8|0,0:3|0:0,0:0:0:0:
180,184,151607,6,0,P|268:156|296:16,1,240,2|0,0:3|2:0,0:0:0:0:
212,23,152115,2,0,P|226:137|332:184,1,240,8|0,0:3|2:0,0:0:0:0:
256,256,152624,6,0,L|256:76,1,160,2|6,0:3|0:3,0:0:0:0:
304,364,153132,2,0,B|312:324|312:324|356:280,1,80,8|2,0:3|0:3,0:0:0:0:
172,296,153387,2,0,B|200:324|200:324|208:364,1,80,12|0,0:3|2:0,0:0:0:0:
256,256,153641,5,2,0:3:0:0:
256,256,153895,6,0,P|304:180|384:148,2,160,4|8|6,0:3|0:3|0:3,0:0:0:0:
256,256,154658,2,0,P|304:180|384:148,1,160,2|6,0:3|0:3,0:0:0:0:
256,256,155166,2,0,P|208:184|160:168,1,80,8|0,0:3|0:0,0:0:0:0:
136,120,155421,6,0,P|220:144|396:100,1,240,6|0,0:3|2:0,0:0:0:0:
436,76,155929,2,0,P|480:56|520:72,1,80,4|0,0:3|2:0,0:0:0:0:
367,116,156183,6,0,P|407:208|399:308,1,160,8|2,0:3|0:3,0:0:0:0:
103,266,156692,2,0,P|109:187|145:116,1,160,2|4,0:3|0:3,0:0:0:0:
256,28,157200,2,0,L|256:208,1,160,10|8,0:3|0:0,0:0:0:0:
256,268,157582,1,8,0:0:0:0:
256,268,157709,6,0,P|300:276|356:308,1,80,6|2,0:0|0:0,0:0:0:0:
216,292,157963,2,0,P|172:284|116:252,1,80,2|2,0:0|0:0,0:0:0:0:
248,300,158217,6,0,P|240:344|208:400,1,80,10|2,0:0|0:0,0:0:0:0:
224,260,158471,2,0,P|232:216|264:160,1,80,2|2,0:0|0:0,0:0:0:0:
258,285,158726,6,0,P|284:322|301:384,1,80,6|2,0:0|0:0,0:0:0:0:
213,274,158980,2,0,P|187:237|170:175,1,80,2|2,0:0|0:0,0:0:0:0:
230,302,159234,6,0,P|193:328|131:345,1,80,10|2,0:0|0:0,0:0:0:0:
241,257,159488,2,0,P|278:231|340:214,1,80,2|2,0:0|0:0,0:0:0:0:
388,240,159743,6,4,P|416:292|424:328,1,80,6|2,3:0|0:0,0:0:0:0:
484,364,159997,2,0,P|456:312|448:276,1,80,2|2,0:0|0:0,0:0:0:0:
325,187,160251,6,0,P|353:239|361:275,1,80,10|2,0:0|0:0,0:0:0:0:
421,311,160505,2,0,P|393:259|385:223,1,80,2|2,0:0|0:0,0:0:0:0:
124,239,160760,6,0,P|111:276|91:311,1,80,6|2,0:0|0:0,0:0:0:0:
153,258,161014,2,0,P|166:221|187:187,1,80,2|2,0:0|0:0,0:0:0:0:
61,292,161268,6,0,P|48:329|28:364,1,80,10|2,0:0|0:0,0:0:0:0:
90,311,161522,2,0,P|103:274|124:240,1,80,6|2,0:0|0:0,0:0:0:0:
256,340,161776,6,4,P|328:316|356:296,1,80,6|2,0:3|0:0,0:0:0:0:
256,264,162031,2,0,P|217:255|180:238,1,80,2|2,0:0|0:0,0:0:0:0:
256,188,162285,6,0,P|328:164|356:144,1,80,10|2,0:0|0:0,0:0:0:0:
256,112,162540,2,4,P|217:103|180:86,1,80,2|2,0:0|0:0,0:0:0:0:
256,32,162793,6,0,L|256:128,1,80,6|2,0:0|0:0,0:0:0:0:
331,162,163048,2,0,P|294:179|256:188,1,80,2|2,0:0|0:0,0:0:0:0:
180,238,163302,6,4,P|217:255|256:264,1,80,10|2,0:0|0:0,0:0:0:0:
331,314,163557,2,4,P|294:331|256:340,1,80,2|2,0:0|0:0,0:0:0:0:
256,339,163810,6,0,P|316:348|364:372,1,80,6|2,0:3|0:0,0:0:0:0:
256,264,164065,2,0,P|196:255|148:231,1,80,2|2,0:0|0:0,0:0:0:0:
346,276,164319,6,0,P|334:352|326:368,1,80,10|2,0:0|0:0,0:0:0:0:
165,327,164573,2,0,P|177:251|185:235,1,80,2|2,0:0|0:0,0:0:0:0:
333,354,164827,6,0,P|295:342|256:339,1,80,6|2,0:0|0:0,0:0:0:0:
178,249,165082,2,0,P|216:261|256:264,1,80,2|2,0:0|0:0,0:0:0:0:
346,276,165336,6,4,P|290:288|246:308,1,80,10|2,0:0|0:0,0:0:0:0:
165,327,165590,2,4,P|221:315|265:295,1,80,6|10,0:0|0:0,0:0:0:0:
356,192,165844,6,0,P|396:200|448:204,3,80,6|2|2|2,0:3|0:3|0:3|0:3,0:0:0:0:
312,119,166353,6,0,P|206:131|135:152,1,160,10|2,0:3|0:3,0:0:0:0:
334,350,166861,6,0,P|353:247|355:181,1,160,6|2,0:3|0:3,0:0:0:0:
178,34,167370,2,0,P|159:137|157:203,1,160,10|6,0:3|0:3,0:0:0:0:
462,125,167878,6,0,P|363:141|292:181,1,160,6|0,0:0|0:0,0:0:0:0:
50,259,168387,2,0,P|149:243|220:203,1,160,10|2,0:3|0:3,0:0:0:0:
207,81,168895,6,0,P|168:71|91:62,1,80,6|2,0:0|0:3,0:0:0:0:
132,145,169149,2,0,P|93:135|16:126,1,80,2|2,0:3|0:3,0:0:0:0:
192,210,169404,6,0,P|231:200|308:191,1,80,10|2,0:3|0:0,0:0:0:0:
267,274,169658,2,0,P|306:264|383:255,1,80,2|10,0:3|0:0,0:0:0:0:
151,272,169912,6,0,P|107:280|51:312,1,80,6|2,0:0|0:0,0:0:0:0:
191,296,170166,2,0,P|235:288|291:256,1,80,2|2,0:0|0:0,0:0:0:0:
159,304,170420,6,0,P|167:348|199:404,1,80,10|2,0:0|0:0,0:0:0:0:
183,264,170674,2,0,P|175:220|143:164,1,80,2|2,0:0|0:0,0:0:0:0:
149,289,170929,6,0,P|123:326|106:388,1,80,6|2,0:0|0:0,0:0:0:0:
194,278,171183,2,0,P|220:241|237:179,1,80,2|2,0:0|0:0,0:0:0:0:
177,306,171437,6,4,P|214:332|276:349,1,80,10|2,0:0|0:0,0:0:0:0:
166,261,171691,2,0,P|129:235|67:218,1,80,6|6,0:0|0:0,0:0:0:0:
256,248,171946,6,0,P|312:260|360:284,1,80,6|2,0:3|0:0,0:0:0:0:
468,348,172200,2,0,P|412:336|364:312,1,80,2|2,0:0|0:0,0:0:0:0:
256,248,172454,6,0,P|200:260|152:284,1,80,10|2,0:0|0:0,0:0:0:0:
44,348,172708,2,0,P|100:336|148:312,1,80,2|2,0:0|0:0,0:0:0:0:
256,248,172963,6,4,L|256:344,1,80,6|0,0:0|0:0,0:0:0:0:
256,172,173217,2,0,L|256:76,1,80,0|2,0:0|0:0,0:0:0:0:
256,172,173471,5,8,0:0:0:0:
256,172,173598,1,8,0:0:0:0:
256,172,173726,1,8,0:0:0:0:
256,172,173853,1,8,0:0:0:0:
