osu file format v14

[General]
AudioFilename: audio.mp3
AudioLeadIn: 0
PreviewTime: 37633
Countdown: 0
SampleSet: Normal
StackLeniency: 1
Mode: 0
LetterboxInBreaks: 0
WidescreenStoryboard: 0

[Editor]
DistanceSpacing: 0.9
BeatDivisor: 4
GridSize: 4
TimelineZoom: 1.6

[Metadata]
Title:YELLOW
TitleUnicode:YELLOW
Artist:Kamiyama Yoh
ArtistUnicode:神山羊
Creator:Ryuusei Aika
Version:Another
Source:
Tags:Yugu kanor Reincarnation Necho Loneight l1106188 japanese pop jpop j-pop male vocal 有機酸 uki3 uki3/ewe 有機酸/ewe しあわせなおとな shiawase na otona 東洋医学 Touyouigaku
BeatmapID:2141084
BeatmapSetID:1023510

[Difficulty]
HPDrainRate:5.6
CircleSize:4
OverallDifficulty:7.4
ApproachRate:8.4
SliderMultiplier:1.77
SliderTickRate:2

[Events]
//Background and Video events
0,0,"BG.png",0,0
Video,-869,"video.avi"
//Break Periods
2,125166,130578
//Storyboard Layer 0 (Background)
//Storyboard Layer 1 (Fail)
//Storyboard Layer 2 (Pass)
//Storyboard Layer 3 (Foreground)
//Storyboard Layer 4 (Overlay)
//Storyboard Sound Samples

[TimingPoints]
590,508.474576271186,4,1,1,20,1,0
1099,508.474576271186,4,1,1,20,1,0
1099,-200,4,1,1,20,0,0
17370,-100,4,1,1,35,0,0
33641,-400,4,1,10,30,0,0
34530,-400,4,1,10,5,0,0
34658,-200,4,1,10,35,0,0
35547,-200,4,1,10,5,0,0
35548,-200,4,1,10,5,0,0
35675,-133.333333333333,4,1,10,30,0,0
36565,-133.333333333333,4,1,10,30,0,0
36692,-66.6666666666667,4,1,10,30,0,0
37200,-66.6666666666667,4,1,10,45,0,0
37709,-83.3333333333333,4,1,10,50,0,0
38217,-83.3333333333333,4,1,2,50,0,0
38726,-100,4,1,2,50,0,0
39743,-83.3333333333333,4,1,2,50,0,0
40760,-100,4,1,2,50,0,0
43683,-66.6666666666667,4,1,2,50,0,1
44065,-100,4,1,2,50,0,0
44319,-100,4,1,2,50,0,0
45844,-83.3333333333333,4,1,10,50,0,0
46353,-83.3333333333333,4,1,2,50,0,0
46861,-100,4,1,2,50,0,0
47878,-83.3333333333333,4,1,2,50,0,0
48895,-100,4,1,2,50,0,0
53980,-400,4,1,3,40,0,0
55505,-25,4,1,4,40,0,0
55568,-25,4,1,4,5,0,0
56014,-400,4,1,3,40,0,0
57539,-200,4,1,3,40,0,0
58048,-400,4,1,3,40,0,0
59573,-25,4,1,4,40,0,0
59636,-25,4,1,4,5,0,0
59827,-25,4,1,3,40,0,0
60082,-400,4,1,3,40,0,0
63641,-25,4,1,4,40,0,0
63704,-25,4,1,4,5,0,0
64149,-400,4,1,3,40,0,0
65675,-200,4,1,3,40,0,0
66183,-400,4,1,3,40,0,0
67709,-25,4,1,4,40,0,0
67772,-25,4,1,4,5,0,0
67963,-25,4,1,3,40,0,0
68217,-400,4,1,3,40,0,0
70251,-200,4,1,10,40,0,0
70505,-200,4,1,1,30,0,0
86268,-200,4,1,10,40,0,0
86437,-200,4,1,10,40,0,0
86522,-100,4,1,10,40,0,0
86776,-100,4,1,1,40,0,0
101904,-100,4,1,10,40,0,0
102285,-100,4,1,1,40,0,0
102793,-100,4,1,10,40,0,0
103175,-100,4,1,1,40,0,0
103302,-100,4,1,10,40,0,0
103555,-100,4,1,1,40,0,0
103809,-100,4,1,10,40,0,0
104192,-100,4,1,1,40,0,0
104320,-100,4,1,10,40,0,0
104573,-100,4,1,1,40,0,0
104827,-100,4,1,10,40,0,0
105209,-100,4,1,1,40,0,0
105336,-100,4,1,10,40,0,0
105590,-100,4,1,1,40,0,0
105844,-100,4,1,3,40,0,0
106353,-100,4,1,1,40,0,0
106607,-100,4,1,1,5,0,0
106861,-83.3333333333333,4,1,10,55,0,0
107115,-83.3333333333333,4,1,3,55,0,0
108387,-83.3333333333333,4,1,4,55,0,0
108641,-83.3333333333333,4,1,3,55,0,0
112454,-83.3333333333333,4,1,4,55,0,0
112709,-83.3333333333333,4,1,3,55,0,0
116522,-83.3333333333333,4,1,4,55,0,0
116776,-83.3333333333333,4,1,3,55,0,0
120590,-83.3333333333333,4,1,4,55,0,0
120844,-83.3333333333333,4,1,3,55,0,0
123132,-200,4,1,10,55,0,0
124148,-200,4,1,10,5,0,0
131268,-400,4,1,10,12,0,0
131776,-400,4,1,10,15,0,0
132284,-400,4,1,10,18,0,0
132793,-400,4,1,10,21,0,0
133302,-400,4,1,10,24,0,0
133810,-400,4,1,10,27,0,0
134319,-400,4,1,10,30,0,0
134827,-400,4,1,10,33,0,0
135336,-200,4,1,10,36,0,0
135844,-200,4,1,10,39,0,0
136353,-200,4,1,10,42,0,0
136861,-200,4,1,10,45,0,0
137370,-133.333333333333,4,1,10,48,0,0
137878,-133.333333333333,4,1,10,51,0,0
138386,-133.333333333333,4,1,10,54,0,0
138895,-133.333333333333,4,1,10,57,0,0
139276,-133.333333333333,4,1,10,5,0,0
139404,-200,4,1,11,60,0,0
140802,-200,4,1,11,5,0,0
140929,-66.6666666666667,4,1,11,60,0,0
140992,-66.6666666666667,4,1,11,5,0,0
141437,-66.6666666666667,4,1,10,60,0,0
141946,-66.6666666666667,4,1,2,60,0,0
142454,-80,4,1,2,60,0,0
143471,-66.6666666666667,4,1,2,60,0,0
144488,-80,4,1,2,60,0,0
147412,-57.1428571428571,4,1,2,60,0,1
147793,-80,4,1,2,60,0,0
149573,-66.6666666666667,4,1,10,60,0,0
149827,-66.6666666666667,4,1,10,5,0,0
149954,-66.6666666666667,4,1,10,60,0,0
150082,-66.6666666666667,4,1,2,60,0,0
150590,-80,4,1,2,60,0,0
150971,-80,4,1,2,60,0,0
151607,-66.6666666666667,4,1,2,60,0,0
152624,-80,4,1,2,60,0,0
157454,-80,4,1,3,60,0,0
157709,-83.3333333333333,4,1,10,60,0,1
157836,-83.3333333333333,4,1,4,60,0,1
173853,-41.6666666666667,4,1,4,60,0,0
173916,-83.3333333333333,4,1,4,5,0,0

[Colours]
Combo1 : 253,228,130
Combo2 : 251,202,4

[HitObjects]
256,192,590,5,0,0:0:0:0:
256,192,717,1,0,0:0:0:0:
256,192,844,1,0,0:0:0:0:
256,192,971,1,0,0:0:0:0:
256,192,1099,1,2,0:3:0:0:
198,249,1607,5,2,0:3:0:0:
234,113,2116,1,2,0:3:0:0:
334,213,2497,1,2,2:3:0:0:
334,213,2624,1,10,0:3:0:0:
313,134,3048,5,2,0:0:0:0:
325,121,3132,1,2,0:3:0:0:
277,270,3641,1,2,0:3:0:0:
177,170,4149,1,2,0:3:0:0:
141,306,4531,1,2,2:3:0:0:
141,306,4658,1,10,0:3:0:0:
74,352,4912,1,8,2:3:0:0:
0,316,5082,5,8,2:3:0:0:
7,300,5166,1,2,0:3:0:0:
131,223,5675,1,2,0:3:0:0:
277,289,6183,1,2,0:3:0:0:
344,243,6565,1,2,2:3:0:0:
344,243,6692,1,10,0:3:0:0:
418,279,7115,5,2,0:1:0:0:
433,287,7200,1,2,0:3:0:0:
215,342,7708,1,2,0:3:0:0:
152,139,8217,1,2,0:3:0:0:
254,108,8599,1,2,2:3:0:0:
254,108,8726,1,10,0:3:0:0:
285,210,8980,1,8,2:3:0:0:
350,159,9149,5,8,2:3:0:0:
365,168,9234,1,2,0:3:0:0:
355,76,9743,1,2,0:3:0:0:
198,212,10251,1,2,0:3:0:0:
237,99,10632,1,2,2:3:0:0:
237,99,10760,1,10,0:3:0:0:
159,8,11183,5,2,0:0:0:0:
144,18,11269,1,2,0:3:0:0:
243,15,11776,1,2,0:3:0:0:
153,93,12285,1,2,0:3:0:0:
75,3,12666,1,2,2:3:0:0:
75,3,12793,1,10,0:3:0:0:
12,58,13048,1,8,2:3:0:0:
66,120,13217,5,8,2:3:0:0:
83,125,13302,1,2,0:3:0:0:
56,199,13810,1,2,0:3:0:0:
124,245,14319,5,2,0:3:0:0:
266,255,14700,1,2,2:3:0:0:
266,255,14827,1,10,0:3:0:0:
328,382,15251,5,2,2:3:0:0:
334,365,15336,1,2,0:3:0:0:
393,193,15844,1,2,0:3:0:0:
458,4,16353,1,2,0:3:0:0:
497,86,17370,6,0,L|407:92,1,88.5,6|0,1:3|0:0,0:0:0:0:
408,91,17751,1,4,2:3:0:0:
330,92,18132,1,4,1:3:0:0:
330,92,18514,1,4,2:3:0:0:
290,22,18895,1,14,0:3:0:0:
211,21,19149,5,4,0:3:0:0:
205,57,19277,1,0,1:0:0:0:
198,92,19404,1,2,0:3:0:0:
117,77,19658,1,0,0:0:0:0:
122,103,19785,1,4,2:3:0:0:
127,129,19912,2,0,L|120:219,1,88.5,6|0,0:3|0:0,0:0:0:0:
26,327,20548,1,4,2:3:0:0:
97,340,20930,1,14,0:3:0:0:
50,254,21183,5,6,0:3:0:0:
50,254,21310,1,6,0:3:0:0:
50,254,21438,1,2,0:3:0:0:
190,342,21819,1,4,0:3:0:0:
256,287,22200,1,4,0:3:0:0:
322,342,22581,1,4,2:3:0:0:
462,254,22963,1,14,0:3:0:0:
388,190,23217,5,2,0:3:0:0:
386,216,23344,1,2,0:0:0:0:
384,242,23471,1,6,0:3:0:0:
491,327,23853,1,4,2:3:0:0:
512,192,24234,1,4,0:3:0:0:
491,57,24615,1,4,0:3:0:0:
467,129,24997,1,14,0:3:0:0:
392,144,25251,5,6,0:3:0:0:
366,142,25378,1,6,0:3:0:0:
340,140,25505,1,6,0:3:0:0:
292,81,25760,1,0,0:0:0:0:
292,81,25887,1,4,2:3:0:0:
292,81,26014,1,6,0:3:0:0:
217,94,26268,1,4,0:3:0:0:
265,153,26521,1,2,0:3:0:0:
265,153,26649,1,4,2:3:0:0:
198,246,26904,1,2,0:1:0:0:
198,246,27031,1,14,0:3:0:0:
150,187,27285,1,4,0:3:0:0:
131,339,27539,5,6,0:3:0:0:
83,280,27794,1,0,0:0:0:0:
107,310,27921,1,4,2:3:0:0:
131,339,28049,1,2,0:3:0:0:
253,285,28302,1,4,0:3:0:0:
360,363,28556,1,2,0:3:0:0:
360,363,28683,1,0,0:0:0:0:
284,384,28938,5,2,0:1:0:0:
284,384,29066,1,14,0:3:0:0:
329,264,29318,1,6,0:3:0:0:
340,228,29446,1,6,0:3:0:0:
354,193,29573,2,0,L|451:189,1,88.5,2|0,0:3|0:0,0:0:0:0:
456,200,29954,1,0,0:0:0:0:
456,200,30082,1,14,0:3:0:0:
439,107,30336,5,4,0:3:0:0:
493,46,30590,1,2,0:3:0:0:
462,24,30717,1,4,2:3:0:0:
431,2,30844,1,0,0:0:0:0:
431,2,31098,1,14,0:3:0:0:
377,63,31353,5,2,0:1:0:0:
377,63,31480,1,2,0:1:0:0:
377,63,31607,2,0,L|280:67,1,88.5,6|0,0:3|0:0,0:0:0:0:
275,56,31988,1,4,0:3:0:0:
275,56,32116,1,10,0:3:0:0:
266,145,32370,5,4,0:3:0:0:
183,142,32624,1,2,0:3:0:0:
183,142,32751,1,4,2:3:0:0:
138,212,33005,1,2,0:3:0:0:
138,212,33132,1,14,0:3:0:0:
138,212,33387,2,0,B|139:233|139:233|143:229|143:229|145:253,1,44.25,10|2,0:3|0:3,0:0:0:0:
111,313,33641,6,0,L|34:321,1,77.4375,6|0,0:0|0:0,0:0:0:0:
34,304,34658,2,0,L|204:323,1,154.875,0|0,0:0|0:0,0:0:0:0:
219,348,35675,2,0,P|210:229|213:111,1,232.312508862019,14|8,0:3|0:3,0:0:0:0:
281,74,36692,2,0,P|392:78|365:218,1,265.5,2|8,0:3|0:0,0:0:0:0:
380,198,37709,6,0,L|370:365,1,159.29999513855,6|0,0:0|2:0,0:0:0:0:
368,373,38217,2,0,L|358:206,1,159.29999513855,8|0,0:3|0:0,0:0:0:0:
286,173,38726,6,0,B|216:153|221:206|129:180,1,132.75,2|0,0:3|2:0,0:0:0:0:
162,202,39234,2,0,B|234:203|216:153|311:154,1,132.75,8|0,0:3|0:0,0:0:0:0:
348,106,39743,6,0,P|355:54|354:1,1,106.199996759033,2|4,0:3|0:3,0:0:0:0:
373,18,40251,2,0,P|373:71|366:123,1,106.199996759033,8|6,0:3|0:3,0:0:0:0:
283,48,40760,6,0,L|160:60,1,88.5,2|4,0:3|0:3,0:0:0:0:
165,35,41268,1,10,0:3:0:0:
214,92,41395,1,4,0:3:0:0:
263,150,41522,1,12,0:3:0:0:
167,224,41777,5,2,0:3:0:0:
87,68,42031,1,4,0:3:0:0:
35,130,42158,1,0,0:0:0:0:
83,195,42285,1,8,0:3:0:0:
214,167,42539,1,4,0:3:0:0:
112,326,42793,1,2,0:3:0:0:
171,228,43047,1,4,0:3:0:0:
236,269,43175,1,0,0:0:0:0:
227,345,43302,1,8,0:3:0:0:
36,288,43556,5,6,0:3:0:0:
116,330,43683,6,2,B|205:376|266:390|306:328|306:328,1,199.125007596016,4|4,0:3|0:3,0:1:0:0:
300,336,44319,5,8,0:3:0:0:
373,371,44573,1,6,0:3:0:0:
386,251,44827,1,2,0:3:0:0:
508,299,45082,1,4,0:3:0:0:
505,259,45209,1,2,0:3:0:0:
502,220,45336,1,8,0:3:0:0:
430,317,45590,1,14,0:3:0:0:
409,172,45844,6,0,L|428:13,1,159.29999513855,6|0,0:0|2:0,0:0:0:0:
414,22,46353,2,0,L|433:181,1,159.29999513855,8|0,0:3|0:0,0:0:0:0:
349,214,46861,6,0,P|285:205|207:166,1,132.75,2|0,0:3|2:0,0:0:0:0:
211,168,47370,2,0,P|275:159|353:120,1,132.75,8|0,0:3|0:0,0:0:0:0:
337,57,47878,5,2,0:3:0:0:
310,35,48005,2,0,B|273:0|205:41|205:41,1,106.199996759033,0|0,0:0|2:0,0:0:0:0:
165,102,48387,5,8,0:3:0:0:
138,124,48514,2,0,B|101:159|33:117|33:117,1,106.199996759033,0|0,0:0|2:0,0:0:0:0:
8,46,48895,5,2,0:3:0:0:
135,28,49149,1,6,0:3:0:0:
29,135,49404,5,8,0:3:0:0:
4,206,49531,1,2,0:3:0:0:
18,280,49658,1,12,0:3:0:0:
159,369,49912,1,2,0:3:0:0:
88,331,50166,5,4,0:3:0:0:
160,294,50293,1,0,0:0:0:0:
232,257,50421,1,8,0:3:0:0:
185,321,50675,5,6,0:3:0:0:
219,243,50929,1,2,0:3:0:0:
292,360,51182,5,6,0:3:0:0:
371,371,51309,1,4,2:3:0:0:
450,384,51437,1,8,0:3:0:0:
465,291,51692,5,6,0:3:0:0:
461,268,51819,1,0,0:0:0:0:
350,326,52963,5,2,0:0:0:0:
369,259,53090,1,2,0:0:0:0:
380,184,53217,1,2,0:3:0:0:
362,224,53471,5,2,0:0:0:0:
369,259,53598,1,2,0:3:0:0:
377,295,53725,1,2,0:3:0:0:
399,117,53980,6,0,L|394:59,2,44.25,2|8|2,0:0|0:0|0:0,0:0:0:0:
396,135,55505,2,0,P|416:111|401:135,2,88.5,8|0|0,0:0|0:0|0:0,0:0:0:0:
148,38,56014,6,0,L|90:33,1,44.25,2|8,0:0|0:0,0:0:0:0:
49,86,56776,1,6,0:0:0:0:
49,86,57031,1,6,0:0:0:0:
69,159,57285,1,2,0:3:0:0:
139,130,57539,2,0,L|148:150,1,22.125,8|2,0:0|0:3,0:0:0:0:
218,179,57793,2,0,L|210:199,1,22.125,2|2,0:0|0:3,0:0:0:0:
204,325,58048,6,0,L|209:383,2,44.25,2|8|2,0:0|0:0|0:0,0:0:0:0:
207,307,59573,2,0,P|187:331|202:307,1,88.5,8|0,0:0|0:0,0:0:0:0:
158,255,59827,1,2,0:3:0:0:
300,223,60082,5,2,0:0:0:0:
300,223,60336,1,4,0:0:0:0:
345,294,60590,1,12,0:0:0:0:
345,294,60844,1,6,0:0:0:0:
429,291,61098,1,2,0:0:0:0:
448,296,61480,5,2,0:3:0:0:
451,251,61607,1,8,0:0:0:0:
468,247,61734,1,2,0:3:0:0:
495,194,61861,1,6,0:0:0:0:
512,190,61988,1,2,0:3:0:0:
455,151,62115,5,2,0:0:0:0:
434,72,62624,1,8,0:0:0:0:
512,52,63132,1,2,0:0:0:0:
88,325,63641,2,0,L|0:331,1,88.5,8|0,0:0|0:0,0:0:0:0:
8,318,64149,5,2,0:0:0:0:
95,246,64658,1,8,0:0:0:0:
15,239,65166,1,2,0:0:0:0:
141,382,65548,1,4,0:0:0:0:
180,321,65675,6,0,L|209:326,1,22.125,8|0,0:0|0:0,0:0:0:0:
240,263,65929,2,0,L|266:275,1,22.125,2|2,0:3|0:3,0:0:0:0:
357,314,66183,6,0,L|408:309,1,44.25,2|8,0:0|0:0,0:0:0:0:
471,348,67200,1,2,0:0:0:0:
92,63,67709,2,0,L|4:57,1,88.5,8|0,0:0|0:0,0:0:0:0:
3,56,67963,1,2,0:3:0:0:
47,137,68217,2,0,L|56:161,1,22.125,2|4,0:0|0:0,0:0:0:0:
152,116,68726,2,0,L|147:141,1,22.125,12|6,0:0|0:0,0:0:0:0:
230,157,69234,1,2,0:0:0:0:
230,157,69615,1,2,0:3:0:0:
250,85,69743,5,8,0:0:0:0:
268,83,69870,1,2,0:3:0:0:
286,81,69997,1,2,0:0:0:0:
304,79,70124,1,2,0:3:0:0:
343,54,70251,1,6,0:0:0:0:
390,110,70505,1,0,0:0:0:0:
388,130,70632,1,0,0:0:0:0:
445,187,70887,5,0,0:0:0:0:
447,207,71014,1,0,0:0:0:0:
449,227,71141,1,0,0:0:0:0:
489,208,71268,1,2,0:3:0:0:
491,228,71395,1,0,0:0:0:0:
493,248,71522,1,2,0:2:0:0:
465,300,71649,1,2,0:3:0:0:
401,344,71904,1,2,0:1:0:0:
385,259,72158,5,0,0:0:0:0:
304,285,72412,1,0,0:0:0:0:
328,318,72539,1,2,0:2:0:0:
308,323,72666,1,0,0:0:0:0:
264,357,72793,1,2,0:3:0:0:
244,352,72920,1,0,0:0:0:0:
224,347,73048,1,2,0:2:0:0:
224,347,73175,1,0,0:0:0:0:
181,312,73302,1,2,0:3:0:0:
165,321,73430,1,2,0:0:0:0:
90,304,73683,1,2,0:0:0:0:
28,348,73937,1,2,0:0:0:0:
21,273,74192,5,2,2:0:0:0:
2,237,74319,1,2,0:3:0:0:
20,241,74446,1,0,0:0:0:0:
75,218,74573,1,2,0:2:0:0:
75,218,74700,1,0,0:0:0:0:
93,214,74827,1,2,0:3:0:0:
75,218,74954,1,0,0:0:0:0:
93,214,75082,1,2,0:2:0:0:
111,210,75209,1,0,0:0:0:0:
149,169,75336,1,2,0:3:0:0:
114,99,75590,1,2,0:1:0:0:
114,99,75717,1,2,0:1:0:0:
6,67,75971,1,2,0:0:0:0:
44,137,76226,5,2,0:2:0:0:
76,29,76480,1,0,0:0:0:0:
184,61,76734,1,2,0:2:0:0:
172,23,76861,1,2,0:3:0:0:
191,28,76988,1,0,0:0:0:0:
246,6,77115,1,2,0:2:0:0:
246,6,77242,1,2,0:2:0:0:
289,43,77370,1,2,0:3:0:0:
365,24,77624,1,2,0:1:0:0:
370,41,77751,1,2,0:0:0:0:
436,91,78005,1,2,0:0:0:0:
486,36,78577,5,0,0:0:0:0:
486,36,78641,5,2,0:2:0:0:
456,108,78895,1,2,0:3:0:0:
504,170,79149,1,2,0:2:0:0:
501,189,79276,1,2,0:2:0:0:
498,208,79404,1,2,0:3:0:0:
428,242,79658,1,2,0:2:0:0:
420,259,79786,1,2,2:0:0:0:
350,293,80039,1,2,2:0:0:0:
475,317,80293,5,0,0:0:0:0:
430,348,80421,1,2,0:3:0:0:
426,367,80548,1,0,0:0:0:0:
430,348,80675,1,2,0:2:0:0:
426,367,80802,1,0,0:0:0:0:
422,386,80929,1,2,0:3:0:0:
350,371,81183,1,2,0:2:0:0:
330,373,81310,1,2,0:2:0:0:
279,351,81437,1,2,0:3:0:0:
253,279,81692,1,2,0:0:0:0:
253,279,81819,1,2,0:0:0:0:
176,305,82073,1,2,0:0:0:0:
187,323,82327,5,0,0:0:0:0:
134,338,82454,1,2,0:3:0:0:
142,355,82709,5,2,0:2:0:0:
89,340,82836,1,2,0:1:0:0:
20,371,83090,1,2,0:1:0:0:
27,295,83344,5,0,0:0:0:0:
29,239,83471,1,2,0:3:0:0:
44,243,83726,5,2,0:2:0:0:
42,187,83853,1,2,0:0:0:0:
107,148,84107,1,2,0:0:0:0:
111,124,84234,1,2,2:0:0:0:
68,18,84488,5,2,0:3:0:0:
68,18,84997,2,0,B|113:11|113:11|86:59,1,88.5,2|2,0:3|0:3,0:0:0:0:
36,92,85632,5,0,0:0:0:0:
36,92,85760,1,0,0:0:0:0:
36,92,85887,1,2,0:3:0:0:
36,92,86014,1,0,0:0:0:0:
36,92,86141,1,2,0:3:0:0:
72,157,86268,2,0,L|69:189,1,29.5,8|8,0:0|0:0,0:0:0:0:
66,267,86522,5,6,0:0:0:0:
66,267,86776,1,0,0:0:0:0:
126,325,86904,5,4,0:3:0:0:
126,325,87158,1,0,0:0:0:0:
66,267,87285,5,4,0:3:0:0:
126,325,87539,1,2,0:3:0:0:
101,363,87666,5,0,0:0:0:0:
122,360,87793,1,4,0:3:0:0:
144,358,87921,1,2,0:0:0:0:
166,338,88048,2,0,B|207:335|207:335|214:340|214:340|268:336,1,88.5,14|4,0:3|0:3,0:0:0:0:
356,328,88429,1,2,0:0:0:0:
340,301,88556,5,6,0:3:0:0:
350,223,88810,5,0,0:0:0:0:
340,301,88937,1,4,0:3:0:0:
340,301,89192,5,0,0:0:0:0:
350,223,89319,2,0,L|346:133,1,88.5,4|2,0:3|0:3,0:0:0:0:
305,73,89700,1,0,0:0:0:0:
301,51,89827,1,4,0:3:0:0:
297,29,89954,1,2,0:0:0:0:
321,12,90082,2,0,L|271:124,1,88.5,14|4,0:3|0:3,0:0:0:0:
212,122,90463,1,2,0:0:0:0:
224,142,90590,6,0,L|160:147,1,44.25,6|0,0:3|2:0,0:0:0:0:
103,144,90844,1,0,0:0:0:0:
103,144,90971,6,0,L|166:149,1,44.25,4|10,0:3|0:3,0:0:0:0:
228,146,91225,1,0,0:0:0:0:
215,222,91353,5,4,0:3:0:0:
232,246,91734,5,2,0:0:0:0:
197,244,91861,1,0,0:0:0:0:
166,261,91988,1,2,0:0:0:0:
103,293,92115,5,14,0:3:0:0:
138,291,92242,1,2,0:0:0:0:
169,308,92369,1,2,0:3:0:0:
187,336,92497,1,2,0:0:0:0:
249,379,92624,6,0,L|378:367,1,88.5,6|0,0:3|0:0,0:0:0:0:
479,322,93005,2,0,L|350:310,1,88.5,4|0,0:3|0:0,0:0:0:0:
348,250,93387,5,4,0:3:0:0:
344,233,93514,1,0,0:0:0:0:
301,201,93641,1,2,0:3:0:0:
305,184,93768,1,2,0:0:0:0:
372,140,94022,1,2,0:0:0:0:
372,140,94149,2,0,P|338:111|299:64,1,88.5,14|6,0:3|0:3,0:0:0:0:
431,15,94658,5,6,0:3:0:0:
431,15,94912,1,2,0:2:0:0:
349,7,95166,1,6,0:3:0:0:
227,70,95421,1,4,0:3:0:0:
107,1,95675,1,2,0:3:0:0:
146,73,95929,1,2,0:3:0:0:
94,14,96183,1,14,0:3:0:0:
133,86,96437,1,4,0:3:0:0:
188,0,96692,5,6,0:3:0:0:
33,81,96946,1,0,0:0:0:0:
114,236,97200,1,2,0:3:0:0:
155,159,97454,2,0,L|93:163,1,44.25,4|2,0:3|0:0,0:0:0:0:
35,165,97709,1,6,0:3:0:0:
192,228,97963,1,0,0:0:0:0:
182,272,98090,1,2,0:0:0:0:
157,310,98217,1,14,0:3:0:0:
157,310,98471,2,0,L|104:314,1,44.25,6|0,0:3|0:0,0:0:0:0:
47,273,98726,5,2,0:3:0:0:
222,350,98980,2,0,L|283:343,1,44.25,0|0,0:0|0:0,0:0:0:0:
376,236,99234,1,14,0:3:0:0:
302,270,99488,2,0,L|309:162,1,88.5,4|2,0:3|0:3,0:0:0:0:
307,181,99870,1,0,0:0:0:0:
307,181,99997,1,0,0:0:0:0:
259,130,100251,1,14,0:3:0:0:
281,53,100505,5,2,0:0:0:0:
303,46,100632,1,2,0:0:0:0:
325,39,100760,1,6,0:3:0:0:
391,80,100929,5,0,0:0:0:0:
402,80,101014,1,0,0:0:0:0:
468,134,101183,1,0,0:0:0:0:
456,134,101268,1,10,0:3:0:0:
404,190,101437,1,0,0:0:0:0:
407,202,101522,1,4,0:3:0:0:
450,268,101776,5,6,0:3:0:0:
390,222,101904,2,0,L|288:218,1,88.5,8|8,2:1|0:0,0:0:0:0:
226,216,102285,1,14,0:3:0:0:
153,336,102539,1,10,0:3:0:0:
0,285,102793,5,6,0:0:0:0:
0,285,103175,1,2,0:0:0:0:
0,285,103302,1,6,0:3:0:0:
102,285,103555,5,2,0:0:0:0:
102,285,103682,1,2,0:0:0:0:
102,285,103809,1,2,0:0:0:0:
204,285,104192,5,2,0:0:0:0:
204,285,104320,1,6,0:3:0:0:
306,285,104573,5,2,0:0:0:0:
306,285,104700,1,2,0:0:0:0:
306,285,104827,1,2,0:0:0:0:
409,285,105209,5,2,0:0:0:0:
409,285,105336,1,6,0:3:0:0:
512,285,105590,5,2,0:0:0:0:
512,285,105717,1,2,0:0:0:0:
477,329,105844,5,8,0:0:0:0:
468,251,105971,1,8,0:0:0:0:
459,173,106098,1,8,0:0:0:0:
450,95,106226,1,8,0:0:0:0:
431,19,106353,2,0,P|459:7|435:21,1,88.5,2|0,2:0|2:0,0:0:0:0:
255,56,106861,6,0,L|126:64,1,106.199996759033,6|4,0:0|0:0,0:0:0:0:
82,36,107370,1,8,0:0:0:0:
157,50,107624,1,4,0:0:0:0:
232,64,107878,2,0,L|361:72,1,106.199996759033,2|0,0:0|0:0,0:0:0:0:
333,60,108260,1,0,0:0:0:0:
328,49,108387,2,0,P|314:106|316:169,1,106.199996759033,8|0,0:0|0:0,0:0:0:0:
274,315,108895,6,0,P|273:262|259:210,1,106.199996759033,2|4,0:0|0:0,0:0:0:0:
192,187,109404,1,8,0:0:0:0:
255,227,109658,1,6,0:0:0:0:
334,229,109912,2,0,P|386:228|438:214,1,106.199996759033,6|2,0:0|0:3,0:0:0:0:
449,205,110293,1,2,0:3:0:0:
428,188,110421,5,8,0:0:0:0:
395,204,110548,1,2,0:3:0:0:
377,233,110675,1,2,0:0:0:0:
370,267,110802,1,2,0:3:0:0:
421,319,110929,6,0,L|271:329,1,106.199996759033,2|4,0:0|0:0,0:0:0:0:
110,302,111437,1,8,0:0:0:0:
242,371,111692,1,4,0:0:0:0:
156,374,111946,2,0,P|159:281|171:129,1,212.399993518067,2|8,0:0|0:0,0:0:0:0:
230,122,112709,1,2,0:3:0:0:
99,135,112963,5,2,0:0:0:0:
96,60,113217,1,4,0:0:0:0:
239,116,113471,1,12,0:0:0:0:
236,41,113725,1,6,0:0:0:0:
168,89,113980,1,2,0:0:0:0:
428,64,114361,1,2,0:3:0:0:
434,90,114488,1,8,0:0:0:0:
403,16,114743,5,6,0:0:0:0:
440,75,114870,1,2,0:3:0:0:
424,142,114997,1,2,0:0:0:0:
341,230,115251,1,4,0:0:0:0:
348,124,115505,1,8,0:0:0:0:
348,124,115760,1,4,0:0:0:0:
370,203,116014,1,2,0:0:0:0:
308,259,116268,2,0,L|244:255,1,53.0999983795166,4|0,0:0|2:0,0:0:0:0:
97,240,116522,1,8,0:0:0:0:
81,239,116776,1,0,0:0:0:0:
36,303,117031,5,2,0:0:0:0:
162,284,117285,1,4,0:0:0:0:
143,158,117539,1,8,0:0:0:0:
21,181,117793,1,6,0:0:0:0:
21,181,118048,1,2,0:0:0:0:
98,93,118302,2,0,L|165:86,1,53.0999983795166,2|4,0:0|0:0,0:0:0:0:
313,68,118556,1,8,0:0:0:0:
379,38,118683,2,0,L|384:-23,2,53.0999983795166,0|2|2,0:0|0:3|0:3,0:0:0:0:
324,87,119065,5,2,0:0:0:0:
255,26,119319,1,4,0:0:0:0:
148,70,119573,1,8,0:0:0:0:
221,135,119827,1,4,0:0:0:0:
221,135,120082,1,2,0:0:0:0:
190,216,120336,2,0,L|259:209,1,53.0999983795166,0|0,0:0|2:0,0:0:0:0:
400,191,120590,1,8,0:0:0:0:
416,190,120844,1,2,0:3:0:0:
355,259,121098,5,2,0:0:0:0:
404,112,121353,1,4,0:0:0:0:
428,283,121607,1,12,0:0:0:0:
477,136,121861,1,6,0:0:0:0:
321,191,122115,1,2,0:0:0:0:
503,252,122497,5,2,0:3:0:0:
492,329,122624,1,8,0:0:0:0:
454,357,122751,1,2,0:3:0:0:
408,370,122878,1,2,0:0:0:0:
361,360,123005,1,2,0:3:0:0:
322,294,123132,2,0,B|221:280|174:376,1,177,6|0,0:0|0:0,0:0:0:0:
256,373,131268,6,0,L|261:326,3,44.25,0|0|0|0,0:0|0:0|0:0|0:0,0:0:0:0:
245,258,133302,5,0,0:0:0:0:
251,186,133810,1,0,0:0:0:0:
255,190,134319,1,0,0:0:0:0:
261,118,134827,1,0,0:0:0:0:
267,46,135336,6,0,L|174:54,1,88.5,0|0,0:0|0:0,0:0:0:0:
106,28,136098,1,0,0:0:0:0:
106,28,136353,2,0,L|98:121,1,88.5,0|0,0:0|0:0,0:0:0:0:
139,180,137115,1,0,0:0:0:0:
139,180,137370,6,0,L|145:250,1,66.3750025320054,0|0,0:0|0:0,0:0:0:0:
203,293,137878,1,0,0:0:0:0:
137,259,138132,1,0,0:0:0:0:
73,372,138386,2,0,L|78:305,1,66.3750025320054,0|0,0:0|0:0,0:0:0:0:
221,219,138895,2,0,P|277:222|320:246,1,99.5625037980081,0|0,0:0|0:0,0:0:0:0:
364,302,139404,6,2,P|347:128|353:45,1,243.375,2|0,0:0|0:0,0:0:0:0:
336,72,140929,2,0,L|376:64,1,33.1875012660027,0|0,2:0|0:0,0:0:0:0:
419,118,141437,6,0,B|308:97|336:175|173:128,1,199.125007596016,6|0,0:0|2:0,0:0:0:0:
168,68,141946,2,0,P|176:91|155:242,1,132.750005064011,8|4,0:3|0:3,0:0:0:0:
119,256,142326,1,0,0:0:0:0:
47,291,142454,6,0,L|212:278,1,165.9375,2|0,0:3|2:0,0:0:0:0:
292,301,142963,2,0,L|303:190,1,110.625,8|4,0:3|0:3,0:0:0:0:
337,137,143344,1,0,0:0:0:0:
373,85,143471,5,2,0:3:0:0:
438,263,143726,1,4,0:3:0:0:
411,338,143853,1,0,0:0:0:0:
346,384,143980,1,8,0:3:0:0:
183,355,144234,1,6,0:3:0:0:
212,192,144488,6,0,P|212:135|203:71,1,110.625,2|4,0:3|0:3,0:0:0:0:
165,34,144870,1,0,0:0:0:0:
150,109,144997,1,10,0:3:0:0:
206,162,145124,1,4,0:3:0:0:
283,165,145251,1,12,0:3:0:0:
405,47,145505,1,2,0:3:0:0:
241,1,145760,5,4,0:3:0:0:
167,13,145887,1,0,0:0:0:0:
93,25,146014,1,8,0:3:0:0:
117,173,146268,1,4,0:3:0:0:
43,146,146522,2,0,L|38:293,1,110.625,2|4,0:3|0:3,0:0:0:0:
69,311,146904,1,0,1:0:0:0:
98,365,147031,1,8,0:3:0:0:
3,349,147285,5,6,0:3:0:0:
135,273,147412,6,2,B|231:208|300:185|354:251|354:251,1,232.312502215505,4|4,0:3|0:3,0:1:0:0:
417,287,147921,5,0,1:0:0:0:
468,352,148048,1,8,0:3:0:0:
337,265,148302,2,0,P|334:208|339:151,1,110.625,4|2,0:3|0:3,0:0:0:0:
375,106,148683,1,0,0:0:0:0:
443,69,148810,1,4,0:3:0:0:
407,131,148937,1,2,0:3:0:0:
348,173,149065,1,8,0:3:0:0:
232,90,149319,1,14,0:3:0:0:
191,73,149446,1,8,0:3:0:0:
148,80,149573,6,0,L|139:214,1,132.750005064011,6|0,0:0|0:0,0:0:0:0:
196,273,149954,1,0,0:0:0:0:
274,303,150082,2,0,P|334:298|398:262,1,132.750005064011,8|4,0:3|0:3,0:0:0:0:
409,240,150463,1,0,0:0:0:0:
365,183,150590,6,0,P|308:183|255:202,1,110.625,2|0,0:3|0:0,0:0:0:0:
208,257,150971,1,0,0:0:0:0:
138,290,151098,2,0,L|15:280,1,110.625,8|4,0:3|0:3,0:0:0:0:
38,294,151480,1,0,0:0:0:0:
88,236,151607,5,2,0:3:0:0:
32,66,151861,1,0,0:0:0:0:
16,137,151988,1,0,0:0:0:0:
0,208,152115,1,8,0:3:0:0:
12,106,152370,1,0,0:0:0:0:
20,141,152497,1,0,0:0:0:0:
28,177,152624,6,0,L|152:149,1,110.625,2|6,0:3|0:3,0:0:0:0:
156,84,153005,1,0,0:0:0:0:
212,38,153132,1,8,0:3:0:0:
282,22,153260,1,2,0:3:0:0:
301,32,153387,1,12,0:3:0:0:
228,164,153641,1,2,0:3:0:0:
225,149,153895,5,4,0:3:0:0:
299,153,154022,1,0,0:0:0:0:
363,192,154149,2,0,L|375:355,1,110.625,8|6,0:3|0:3,0:0:0:0:
417,357,154531,1,0,0:0:0:0:
390,284,154658,1,2,0:3:0:0:
319,253,154785,1,0,0:0:0:0:
242,244,154912,1,6,0:3:0:0:
172,270,155039,1,4,2:3:0:0:
172,270,155166,1,8,0:3:0:0:
328,330,155421,1,6,0:3:0:0:
233,167,155675,5,2,0:3:0:0:
233,167,155929,1,4,0:3:0:0:
246,88,156056,1,0,0:0:0:0:
259,9,156183,1,8,0:3:0:0:
417,35,156437,1,2,0:3:0:0:
391,193,156692,5,2,0:3:0:0:
154,154,156946,1,4,0:3:0:0:
111,94,157073,1,0,0:0:0:0:
116,21,157200,1,10,0:3:0:0:
2,214,157454,1,8,0:0:0:0:
1,203,157582,1,8,0:0:0:0:
0,192,157709,5,6,0:0:0:0:
40,192,157836,1,2,0:0:0:0:
80,192,157963,1,2,0:0:0:0:
120,192,158090,1,2,0:0:0:0:
172,252,158217,5,10,0:0:0:0:
212,252,158344,1,2,0:0:0:0:
252,252,158471,1,2,0:0:0:0:
292,252,158598,1,2,0:0:0:0:
316,280,158726,5,6,0:0:0:0:
344,312,158853,2,0,L|344:148,1,159.29999513855,2|10,0:0|0:0,0:0:0:0:
344,152,159743,5,6,3:0:0:0:
314,152,159870,1,2,0:0:0:0:
284,152,159997,1,2,0:0:0:0:
254,152,160124,1,2,0:0:0:0:
215,106,160251,5,10,0:0:0:0:
185,106,160378,1,2,0:0:0:0:
155,106,160505,1,2,0:0:0:0:
125,106,160632,1,2,0:0:0:0:
86,61,160760,5,6,0:0:0:0:
86,61,160887,2,0,L|86:220,1,159.29999513855,2|10,0:0|0:0,0:0:0:0:
20,264,161522,1,6,0:0:0:0:
20,276,161649,1,2,0:0:0:0:
20,288,161776,5,6,0:3:0:0:
60,288,161904,1,2,0:0:0:0:
60,328,162031,1,2,0:0:0:0:
100,328,162159,1,2,0:0:0:0:
156,384,162285,5,10,0:0:0:0:
196,384,162413,1,2,0:0:0:0:
196,344,162540,1,2,0:0:0:0:
236,344,162666,1,2,0:0:0:0:
268,312,162793,5,6,0:0:0:0:
296,280,162921,2,0,L|296:388,1,106.199996759033,2|2,0:0|0:0,0:0:0:0:
376,388,163302,1,10,0:0:0:0:
440,340,163556,1,2,0:0:0:0:
496,284,163810,5,6,0:3:0:0:
496,254,163938,1,2,0:0:0:0:
466,254,164065,1,2,0:0:0:0:
466,224,164193,1,2,0:0:0:0:
424,182,164319,5,10,0:0:0:0:
424,152,164447,1,2,0:0:0:0:
454,152,164574,1,2,0:0:0:0:
454,122,164700,1,2,0:0:0:0:
444,64,164827,5,6,0:0:0:0:
460,64,164955,2,0,L|352:64,1,106.199996759033,2|2,0:0|0:0,0:0:0:0:
280,64,165336,1,10,0:0:0:0:
280,64,165590,1,6,0:0:0:0:
280,64,165717,1,10,0:0:0:0:
280,64,165844,5,6,0:3:0:0:
280,80,165971,1,2,0:3:0:0:
280,96,166098,1,2,0:3:0:0:
280,112,166226,1,2,0:3:0:0:
364,112,168641,1,2,0:3:0:0:
364,120,168769,1,2,0:3:0:0:
364,152,168895,5,6,0:0:0:0:
364,163,169022,1,2,0:3:0:0:
364,174,169149,1,2,0:3:0:0:
364,185,169277,1,2,0:3:0:0:
364,232,169404,5,10,0:3:0:0:
364,248,169531,1,2,0:0:0:0:
364,264,169658,1,2,0:3:0:0:
364,312,169786,5,10,0:0:0:0:
364,360,169912,5,6,0:0:0:0:
340,368,170039,1,2,0:0:0:0:
316,376,170166,1,2,0:0:0:0:
292,384,170293,1,2,0:0:0:0:
248,348,170421,5,10,0:0:0:0:
224,340,170548,1,2,0:0:0:0:
200,332,170675,1,2,0:0:0:0:
176,324,170802,1,2,0:0:0:0:
120,332,170929,6,0,L|68:324,2,53.0999983795166,6|2|2,0:0|0:0|0:0,0:0:0:0:
132,324,171310,1,2,0:0:0:0:
144,316,171437,2,0,L|136:368,2,53.0999983795166,10|2|6,0:0|0:0|0:0,0:0:0:0:
156,308,171819,1,6,0:0:0:0:
200,280,171946,6,0,B|224:252|224:252|224:220|224:220|200:184,1,106.199996759033,6|2,0:3|0:0,0:0:0:0:
192,180,172327,1,2,0:0:0:0:
180,172,172454,2,0,B|276:172|276:172|300:196|300:196|300:232,1,159.29999513855,10|2,0:0|0:0,0:0:0:0:
312,212,172963,2,4,L|312:76,1,106.199996759033,6|0,0:0|0:0,0:0:0:0:
320,96,173344,1,2,0:0:0:0:
260,52,173471,5,8,0:0:0:0:
176,64,173598,1,8,0:0:0:0:
260,52,173726,1,8,0:0:0:0:
176,64,173853,2,0,B|168:92|168:92|188:112,2,53.0999983795166,8|0|0,0:0|2:0|2:0,0:0:0:0:
