osu file format v14

[General]
AudioFilename: audio.mp3
AudioLeadIn: 0
PreviewTime: 84714
Countdown: 0
SampleSet: Soft
StackLeniency: 0.4
Mode: 0
LetterboxInBreaks: 0
WidescreenStoryboard: 1

[Editor]
Bookmarks: 22526,42415,62305,84869,104759,127300,137908,143212,148516,164427,169731,190947
DistanceSpacing: 1.2
BeatDivisor: 8
GridSize: 8
TimelineZoom: 1.9

[Metadata]
Title:Oyasumi, Kamisama
TitleUnicode:おやすみ、かみさま
Artist:Kamiyama Yoh
ArtistUnicode:神山羊
Creator:Peter
Version:Hard
Source:
Tags:2nd mini Album ゆめみるこども japanese pop j-pop fukkunmania Touyouigaku uki3/ewe
BeatmapID:2258251
BeatmapSetID:1079359

[Difficulty]
HPDrainRate:5
CircleSize:4.5
OverallDifficulty:6
ApproachRate:7
SliderMultiplier:1.3
SliderTickRate:1

[Events]
//Background and Video events
0,0,"yoh.png",0,0
Video,80,"cute.mp4"
//Break Periods
//Storyboard Layer 0 (Background)
//Storyboard Layer 1 (Fail)
//Storyboard Layer 2 (Pass)
//Storyboard Layer 3 (Foreground)
//Storyboard Layer 4 (Overlay)
//Storyboard Sound Samples

[TimingPoints]
381,324.324324324324,4,2,1,40,1,0
381,-250,4,2,1,40,0,0
1678,344.827586206897,4,2,1,40,1,0
2367,320.855614973262,4,2,1,40,1,0
2367,-250,4,2,1,40,0,0
3008,330.578512396694,4,2,1,40,1,0
5652,300,4,2,1,40,1,0
5727,344.827586206897,4,2,1,40,1,0
5727,-250,4,2,1,40,0,0
7020,324.324324324324,4,2,1,40,1,0
8317,337.078651685393,4,2,1,40,1,0
8317,-250,4,2,1,40,0,0
8822,330.578512396694,4,2,1,40,1,0
10309,332.963374028857,4,2,1,40,1,0
10974,348.837209302326,4,2,1,40,1,0
10974,-250,4,2,1,40,0,0
11090,342.368045649073,4,2,1,40,1,0
11090,-250,4,2,1,40,0,0
12288,353.982300884956,4,2,1,40,1,0
12995,331.491712707182,4,2,1,40,1,0
12995,-250,4,2,1,40,0,0
13657,322.58064516129,4,2,1,40,1,0
16237,331.491712707182,4,2,1,40,1,0
16319,346.820809248555,4,2,1,40,1,0
16319,-250,4,2,1,40,0,0
17619,326.086956521739,4,2,1,40,1,0
18923,355.029585798817,4,2,1,40,1,0
18923,-250,4,2,1,40,0,0
19455,329.67032967033,4,2,1,40,1,0
20938,331.491712707182,4,2,1,40,1,0
20938,-166.666666666667,4,2,1,40,0,0
21435,335.195530726257,4,2,1,40,1,0
21435,-166.666666666667,4,2,1,40,0,0
21602,335.195530726257,4,2,1,40,1,0
21937,-166.666666666667,4,2,1,40,0,0
22105,331.491712707182,4,2,1,40,1,0
22105,-166.666666666667,4,2,1,40,0,0
22933,335.195530726257,4,2,1,40,1,0
22933,-166.666666666667,4,2,1,40,0,0
23770,387.096774193548,4,2,1,40,1,0
23770,-166.666666666667,4,2,1,40,0,0
23963,533.333333333333,4,2,1,40,1,0
23963,-166.666666666667,4,2,1,40,0,0
24221,-166.666666666667,4,2,1,40,0,0
24229,377.358490566038,4,2,1,40,1,0
26084,333.333333333333,4,2,1,40,1,0
26084,-166.666666666667,4,2,1,40,0,0
26917,329.67032967033,4,2,1,40,1,0
26917,-166.666666666667,4,2,1,40,0,0
28235,333.333333333333,4,2,1,40,1,0
28235,-166.666666666667,4,2,1,40,0,0
29235,348.837209302326,4,2,1,40,1,0
29235,-166.666666666667,4,2,1,40,0,0
29409,300,4,2,1,40,1,0
29559,337.078651685393,4,2,1,40,1,0
29559,-166.666666666667,4,2,1,40,0,0
30064,335.195530726257,4,2,1,40,1,0
30064,-166.666666666667,4,2,1,40,0,0
31572,324.324324324324,4,2,1,40,1,0
31572,-166.666666666667,4,2,1,40,0,0
32220,324.324324324324,4,2,1,40,1,0
32544,327.868852459016,4,2,1,40,1,0
32544,-166.666666666667,4,2,1,40,0,0
33527,331.491712707182,4,2,1,40,1,0
33527,-166.666666666667,4,2,1,40,0,0
34521,346.820809248555,4,2,1,40,1,0
34867,331.491712707182,4,2,1,40,1,0
34867,-166.666666666667,4,2,1,40,0,0
36679,-166.666666666667,4,2,1,40,0,0
37353,300,4,2,1,40,1,0
37503,322.58064516129,4,2,1,40,1,0
37503,-166.666666666667,4,2,1,40,0,0
38470,348.837209302326,4,2,1,40,1,0
38470,-166.666666666667,4,2,1,40,0,0
39516,324.324324324324,4,2,1,40,1,0
39840,306.122448979592,4,2,1,40,1,0
39840,-166.666666666667,4,2,1,40,0,0
40069,413.793103448276,4,2,1,40,1,0
40172,337.078651685393,4,2,1,40,1,0
40172,-166.666666666667,4,2,1,40,0,0
40677,327.868852459016,4,2,1,40,1,0
40677,-166.666666666667,4,2,1,40,0,0
42152,333.333333333333,4,2,1,40,1,0
42652,329.67032967033,4,2,1,40,1,0
42652,-166.666666666667,4,2,1,40,0,0
42816,329.67032967033,4,2,1,40,1,0
43145,-166.666666666667,4,2,1,40,0,0
43641,335.195530726257,4,2,1,40,1,0
43641,-166.666666666667,4,2,1,40,0,0
44143,329.67032967033,4,2,1,40,1,0
44143,-166.666666666667,4,2,1,40,0,0
45132,317.460317460317,4,2,1,40,1,0
45449,331.491712707182,4,2,1,40,1,0
45449,-166.666666666667,4,2,1,40,0,0
47272,-166.666666666667,4,2,1,40,0,0
48100,335.195530726257,4,2,1,40,1,0
48100,-166.666666666667,4,2,1,40,0,0
48435,338.983050847458,4,2,1,40,1,0
49451,331.491712707182,4,2,1,40,1,0
49451,-166.666666666667,4,2,1,40,0,0
50445,327.868852459016,4,2,1,40,1,0
50772,368.098159509202,4,2,1,40,1,0
50772,-166.666666666667,4,2,1,40,0,0
51324,320.855614973262,4,2,1,40,1,0
51324,-166.666666666667,4,2,1,40,0,0
52767,331.491712707182,4,2,1,40,1,0
52767,-166.666666666667,4,2,1,40,0,0
53429,331.491712707182,4,2,1,40,1,0
53429,-166.666666666667,4,2,1,40,0,0
54092,327.868852459016,4,2,1,40,1,0
54092,-166.666666666667,4,2,1,40,0,0
55403,337.078651685393,4,2,1,40,1,0
55403,-166.666666666667,4,2,1,40,0,0
56077,326.086956521739,4,2,1,40,1,0
56077,-166.666666666667,4,2,1,40,0,0
57870,340.909090909091,4,2,1,40,1,0
57870,-166.666666666667,4,2,1,40,0,0
58551,319.148936170213,4,2,1,40,1,0
58710,331.491712707182,4,2,1,40,1,0
58710,-166.666666666667,4,2,1,40,0,0
60035,329.67032967033,4,2,1,40,1,0
60035,-166.666666666667,4,2,1,40,0,0
61024,342.857142857143,4,2,1,40,1,0
61024,-166.666666666667,4,2,1,40,0,0
61366,340.909090909091,4,2,1,40,1,0
61366,-166.666666666667,4,2,1,40,0,0
61877,331.491712707182,4,2,1,40,1,0
62705,333.333333333333,4,2,1,40,1,0
62705,-200,4,2,1,40,0,0
63705,314.13612565445,4,2,1,40,1,0
63705,-200,4,2,1,40,0,0
64019,331.491712707182,4,2,1,40,1,0
64681,342.857142857143,4,2,1,40,1,0
65023,335.195530726257,4,2,1,40,1,0
65023,-166.666666666667,4,2,1,40,0,0
66363,327.868852459016,4,2,1,40,1,0
66363,-166.666666666667,4,2,1,40,0,0
66690,331.034482758621,4,2,1,40,1,0
68013,-166.666666666667,4,2,1,40,0,0
69338,355.029585798817,4,2,1,40,1,0
69339,-166.666666666667,4,2,1,40,0,0
70049,333.333333333333,4,2,1,40,1,0
70715,331.491712707182,4,2,1,40,1,0
70715,-166.666666666667,4,2,1,40,0,0
71377,301.507537688442,4,2,1,40,1,0
71824,-166.666666666667,4,2,1,40,0,0
71980,331.491712707182,4,2,1,40,1,0
71980,-166.666666666667,4,2,1,40,0,0
72974,337.078651685393,4,2,1,40,1,0
73311,-166.666666666667,4,2,1,40,0,0
73648,342.857142857143,4,2,1,40,1,0
73648,-166.666666666667,4,2,1,40,0,0
74333,318.302387267905,4,2,1,40,1,0
74333,-166.666666666667,4,2,1,40,0,0
74651,318.302387267905,4,2,1,40,1,0
74969,338.983050847458,4,2,1,40,1,0
74969,-166.666666666667,4,2,1,40,0,0
75646,331.491712707182,4,2,1,40,1,0
75646,-166.666666666667,4,2,1,40,0,0
79272,-166.666666666667,4,2,1,40,0,0
79955,326.086956521739,4,2,1,40,1,0
79955,-166.666666666667,4,2,1,40,0,0
80933,335.195530726257,4,2,1,40,1,0
80933,-166.666666666667,4,2,1,40,0,0
81593,-166.666666666667,4,2,1,40,0,0
81938,370.37037037037,4,2,1,40,1,0
81938,-166.666666666667,4,2,1,40,0,0
82308,315.789473684211,4,2,1,40,1,0
82308,-166.666666666667,4,2,1,40,0,0
82605,357.142857142857,4,2,1,40,1,0
82605,-166.666666666667,4,2,1,40,0,0
83140,314.96062992126,4,2,1,40,1,0
83927,331.491712707182,4,2,1,40,1,0
83927,-166.666666666667,4,2,1,40,0,0
85252,331.491712707182,4,2,1,50,1,0
105141,-100,4,2,1,60,0,0
105804,340.909090909091,4,2,1,60,1,0
106485,340.909090909091,4,2,1,60,1,0
106826,319.148936170213,4,2,1,60,1,0
107145,324.324324324324,4,2,1,60,1,0
107793,331.491712707182,4,2,1,60,1,0
111770,331.491712707182,4,2,1,60,1,0
127018,-100,4,2,1,65,0,0
127681,-90.9090909090909,4,2,1,70,0,1
131660,324.324324324324,4,2,1,70,1,0
131660,-90.9090909090909,4,2,1,70,0,1
132957,335.195530726257,4,2,1,70,1,0
132957,-90.9090909090909,4,2,1,70,0,1
135638,331.491712707182,4,2,1,70,1,0
135638,-90.9090909090909,4,2,1,70,0,1
138289,331.491712707182,4,2,1,40,1,0
138289,-125,4,2,1,40,0,0
143592,-166.666666666667,4,2,1,40,0,0
145498,-166.666666666667,4,2,1,5,0,0
145581,-166.666666666667,4,2,1,40,0,0
145996,-166.666666666667,4,2,1,5,0,0
146079,-166.666666666667,4,2,1,40,0,0
148896,-125,4,2,1,60,0,0
159836,320.855614973262,4,2,1,60,1,0
159836,-125,4,2,1,60,0,0
160150,324.324324324324,4,2,1,60,1,0
160477,354.505169867061,4,2,1,60,1,0
160477,-125,4,2,1,60,0,0
160831,331.491712707182,4,2,1,60,1,0
160831,-125,4,2,1,60,0,0
164477,-125,4,2,1,40,0,0
164808,337.078651685393,4,2,1,60,1,0
164808,-166.666666666667,4,2,1,60,0,0
166156,322.58064516129,4,2,1,60,1,0
166156,-166.666666666667,4,2,1,60,0,0
166801,329.67032967033,4,2,1,60,1,0
166801,-125,4,2,1,60,0,0
167460,331.491712707182,4,2,1,60,1,0
167460,-125,4,2,1,60,0,0
167793,-125,4,2,1,60,0,0
169614,320.855614973262,4,2,1,60,1,0
169614,-125,4,2,1,60,0,0
170111,331.491712707182,4,2,1,70,1,0
170111,-90.9090909090909,4,2,1,70,0,1
183703,322.58064516129,4,2,1,70,1,0
183703,-90.9090909090909,4,2,1,70,0,1
184348,349.854227405248,4,2,1,70,1,0
184348,-90.9090909090909,4,2,1,70,0,1
184697,331.491712707182,4,2,1,70,1,0
184697,-90.9090909090909,4,2,1,70,0,1
186006,348.837209302326,4,2,1,70,1,0
186006,-90.9090909090909,4,2,1,70,0,1
186354,331.491712707182,4,2,1,70,1,0
186354,-90.9090909090909,4,2,1,70,0,1
187348,332.409972299169,4,2,1,70,1,0
187348,-90.9090909090909,4,2,1,70,0,1
188677,327.868852459016,4,2,1,70,1,0
188677,-90.9090909090909,4,2,1,40,0,1
189988,342.368045649073,4,2,1,70,1,0
189988,-90.9090909090909,4,2,1,70,0,1
190501,312.5,4,2,1,70,1,0
190501,-90.9090909090909,4,2,1,70,0,1
191126,387.096774193548,4,2,1,60,1,0
191319,331.491712707182,4,2,1,40,1,0
191319,-250,4,2,1,40,0,0
192644,322.58064516129,4,2,1,40,1,0
193289,344.827586206897,4,2,1,40,1,0
193289,-250.000000000001,4,2,1,40,0,0
193978,329.67032967033,4,2,1,40,1,0
195132,-250,4,2,1,10,0,0
196615,335.195530726257,4,2,1,40,1,0
196615,-250.000000000001,4,2,1,40,0,0
197955,330.578512396694,4,2,1,40,1,0
199277,338.983050847458,4,2,1,40,1,0
199277,-250.000000000001,4,2,1,40,0,0
199785,326.975476839237,4,2,1,40,1,0
201256,331.491712707182,4,2,1,40,1,0
201256,-250,4,2,1,40,0,0
201918,337.078651685393,4,2,1,40,1,0
201918,-250.000000000001,4,2,1,40,0,0
203266,324.324324324324,4,2,1,40,1,0
203914,331.491712707182,4,2,1,40,1,0
203914,-250.000000000001,4,2,1,40,0,0
204576,329.67032967033,4,2,1,40,1,0
207213,337.078651685393,4,2,1,40,1,0
207213,-250.000000000001,4,2,1,40,0,0
208561,331.491712707182,4,2,1,40,1,0
209886,337.078651685393,4,2,1,40,1,0
209886,-250,4,2,1,40,0,0
210391,331.491712707182,4,2,1,40,1,0
210556,331.491712707182,4,2,1,40,1,0
212545,331.491712707182,4,2,1,35,1,0
212545,-250,4,2,1,35,0,0
213871,-250,4,2,1,30,0,0
215197,-250,4,2,1,25,0,0
216523,-250,4,2,1,20,0,0

[Colours]
Combo1 : 226,226,226
Combo2 : 255,130,4
Combo3 : 178,178,178
Combo4 : 223,244,232
Combo5 : 124,125,143
Combo6 : 154,147,144
SliderBorder : 255,255,255
SliderTrackOverride : 0,0,0

[HitObjects]
8,164,381,6,0,P|99:98|117:157,1,208,2|2,0:0|0:0,0:0:0:0:
118,145,2367,6,0,P|199:131|223:128,1,104,2|2,0:0|0:0,0:0:0:0:
215,121,5652,5,2,0:0:0:0:
215,121,5727,2,0,B|253:255|172:191|203:314,1,195,2|2,0:0|0:0,0:0:0:0:
201,307,8317,6,0,P|239:289|276:283,1,78,2|2,0:0|0:0,0:0:0:0:
274,283,10309,5,2,0:0:0:0:
279,287,10974,5,2,0:0:0:0:
279,287,11090,2,0,P|296:184|317:110,1,182,2|2,0:0|0:0,0:0:0:0:
318,110,12995,6,0,P|368:118|415:84,1,104,2|2,0:0|0:0,0:0:0:0:
410,90,16237,5,2,0:0:0:0:
410,90,16319,2,0,B|399:209|416:291,1,195,2|2,0:0|0:0,0:0:0:0:
425,322,18923,6,0,P|376:321|354:345,1,78,2|2,0:0|0:0,0:0:0:0:
356,339,20938,5,2,0:0:0:0:
205,195,21435,2,0,L|251:204,2,38.9999988098145,2|0|0,0:0|0:0|0:0,0:0:0:0:
179,129,21937,2,0,P|176:108|166:79,1,38.9999988098145,2|0,0:0|0:0,0:0:0:0:
121,47,22270,1,2,0:0:0:0:
121,47,22436,2,0,L|31:61,1,77.999997619629,0|0,0:0|0:0,0:0:0:0:
20,124,22933,6,0,L|33:177,1,38.9999988098145,2|0,0:0|0:0,0:0:0:0:
27,235,23268,1,2,0:0:0:0:
27,235,23435,1,0,0:0:0:0:
88,346,23770,1,2,0:0:0:0:
88,346,23963,2,0,L|143:354,1,38.9999988098145,0|2,0:0|0:0,0:0:0:0:
264,359,26084,6,0,L|304:353,1,38.9999988098145,2|0,0:0|0:0,0:0:0:0:
372,353,26417,2,0,P|400:324|442:313,1,77.999997619629,2|0,0:0|0:0,0:0:0:0:
506,317,26917,1,2,0:0:0:0:
235,60,27906,6,0,L|193:74,1,38.9999988098145,2|0,0:0|0:0,0:0:0:0:
140,34,28235,2,0,B|174:84|174:84|158:183,1,155.999995239258,2|0,0:0|0:0,0:0:0:0:
66,276,29235,2,0,L|57:238,1,38.9999988098145,2|0,0:0|0:0,0:0:0:0:
37,162,29559,1,2,0:0:0:0:
205,40,30064,5,2,0:0:0:0:
205,40,31572,5,2,0:0:0:0:
392,135,32058,2,0,L|436:118,2,38.9999988098145,2|0|0,0:0|0:0|0:0,0:0:0:0:
362,197,32544,2,0,L|370:245,1,38.9999988098145,2|0,0:0|0:0,0:0:0:0:
299,250,32871,2,0,L|289:198,1,38.9999988098145,2|0,0:0|0:0,0:0:0:0:
222,226,33199,2,0,L|231:279,1,38.9999988098145,2|0,0:0|0:0,0:0:0:0:
172,306,33527,6,0,P|144:303|118:300,2,38.9999988098145,2|2|0,0:0|0:0|0:0,0:0:0:0:
37,344,34189,2,0,P|27:295|36:261,1,77.999997619629,2|0,0:0|0:0,0:0:0:0:
92,133,34867,1,2,0:0:0:0:
91,133,36690,6,0,B|183:146,2,77.999997619629,2|0|0,0:0|0:0|0:0,0:0:0:0:
26,122,37503,1,2,0:0:0:0:
430,37,38470,6,0,L|421:102,1,58.4999982147217,2|0,0:0|0:0,0:0:0:0:
452,125,38818,2,0,P|363:81|321:122,1,155.999995239258,2|0,0:0|0:0,0:0:0:0:
242,225,39840,2,0,L|236:181,1,38.9999988098145,2|0,0:0|0:0,0:0:0:0:
227,112,40172,1,2,0:0:0:0:
99,286,40677,1,2,0:0:0:0:
99,286,42152,5,2,0:0:0:0:
80,77,42652,2,0,L|82:132,2,38.9999988098145,2|0|0,0:0|0:0|0:0,0:0:0:0:
140,41,43146,2,0,L|194:52,1,38.9999988098145,2|0,0:0|0:0,0:0:0:0:
241,88,43476,1,2,0:0:0:0:
241,88,43641,2,0,L|331:69,1,77.999997619629,0|0,0:0|0:0,0:0:0:0:
364,125,44143,2,0,L|349:212,1,77.999997619629,2|2,0:0|0:0,0:0:0:0:
310,259,44637,1,2,0:0:0:0:
310,259,44802,6,0,L|321:311,2,38.9999988098145,0|0|2,0:0|0:0|0:0,0:0:0:0:
394,364,45449,1,2,0:0:0:0:
396,367,47272,6,0,L|441:360,2,38.9999988098145,2|0|0,0:0|0:0|0:0,0:0:0:0:
330,341,47769,2,0,L|277:350,1,38.9999988098145,2|0,0:0|0:0,0:0:0:0:
232,310,48100,6,0,L|187:317,2,38.9999988098145,2|0|2,0:0|0:0|0:0,0:0:0:0:
236,314,49282,1,2,0:0:0:0:
236,314,49451,2,0,L|236:271,1,38.9999988098145,0|0,0:0|0:0,0:0:0:0:
183,228,49782,2,0,L|172:182,1,38.9999988098145,2|0,0:0|0:0,0:0:0:0:
168,119,50113,6,0,P|176:115|250:126,1,77.999997619629,2|2,0:0|0:0,0:0:0:0:
332,34,50772,1,2,0:0:0:0:
480,224,51324,5,2,0:0:0:0:
467,206,52767,6,0,L|414:212,1,38.9999988098145,2|0,0:0|0:0,0:0:0:0:
358,215,53098,2,0,L|318:218,1,38.9999988098145,2|0,0:0|0:0,0:0:0:0:
264,173,53429,6,0,P|267:160|274:122,1,38.9999988098145,2|0,0:0|0:0,0:0:0:0:
219,86,53760,2,0,L|197:45,1,38.9999988098145,2|0,0:0|0:0,0:0:0:0:
135,23,54092,1,2,0:0:0:0:
15,195,54583,5,2,0:0:0:0:
64,245,54747,2,0,L|117:233,1,38.9999988098145,2|0,0:0|0:0,0:0:0:0:
162,198,55075,2,0,L|212:208,1,38.9999988098145,2|0,0:0|0:0,0:0:0:0:
253,258,55403,2,0,L|237:350,1,77.999997619629,2|0,0:0|0:0,0:0:0:0:
378,304,56077,1,2,0:0:0:0:
372,307,57870,6,0,P|314:315|282:324,2,77.999997619629,2|0|0,0:0|0:0|0:0,0:0:0:0:
441,307,58710,1,2,0:0:0:0:
441,307,59704,6,0,L|450:241,1,58.4999982147217,2|0,0:0|0:0,0:0:0:0:
455,214,60035,2,0,B|375:193|392:253|305:235,1,155.999995239258,2|0,0:0|0:0,0:0:0:0:
228,124,61024,2,0,L|182:132,1,38.9999988098145,2|0,0:0|0:0,0:0:0:0:
120,146,61366,1,2,0:0:0:0:
215,314,61877,1,2,0:0:0:0:
429,106,62705,6,0,P|424:71|420:32,2,65,2|2|2,0:0|0:0|0:0,0:0:0:0:
487,215,63705,2,0,L|481:288,1,65,2|2,0:0|0:0,0:0:0:0:
481,279,64681,1,2,0:0:0:0:
348,240,65023,2,0,P|201:274|143:222,1,233.999992858887,2|2,0:0|0:0,0:0:0:0:
18,294,66363,2,0,P|37:354|40:385,1,77.999997619629,2|2,0:0|0:0,0:0:0:0:
39,368,68013,5,2,0:0:0:0:
157,292,68345,1,2,0:0:0:0:
278,361,68676,2,0,L|361:343,1,77.999997619629,2|2,0:0|0:0,0:0:0:0:
482,373,69339,2,0,P|456:303|487:232,1,155.999995239258,2|2,0:0|0:0,0:0:0:0:
254,71,70715,6,0,B|313:26|313:26|391:56,1,155.999995239258,2|2,0:0|0:0,0:0:0:0:
472,244,71829,2,0,L|483:198,1,38.9999988098145,0|2,0:0|0:0,0:0:0:0:
483,207,72974,5,2,0:0:0:0:
396,273,73311,1,2,0:0:0:0:
311,207,73648,1,2,0:0:0:0:
334,100,73990,1,2,0:0:0:0:
244,23,74333,2,0,L|85:43,1,155.999995239258,2|2,0:0|0:0,0:0:0:0:
89,42,75646,5,2,0:0:0:0:
166,118,75977,1,2,0:0:0:0:
58,138,76308,1,2,0:0:0:0:
120,227,76640,1,2,0:0:0:0:
52,313,76971,2,0,P|114:326|210:360,1,155.999995239258,2|2,0:0|0:0,0:0:0:0:
202,357,79292,6,0,L|179:273,1,77.999997619629,2|2,0:0|0:0,0:0:0:0:
263,206,79955,1,2,0:0:0:0:
263,206,80933,5,2,0:0:0:0:
315,302,81268,1,2,0:0:0:0:
420,312,81603,1,2,0:0:0:0:
477,222,81938,1,2,0:0:0:0:
429,109,82308,1,2,0:0:0:0:
334,126,82605,2,0,L|216:103,1,116.999996429443,2|2,0:0|0:0,0:0:0:0:
219,103,83927,5,0,3:0:0:0:
113,131,84258,1,0,3:0:0:0:
94,235,84589,1,0,3:0:0:0:
175,308,84921,1,4,0:0:0:0:
304,342,85252,6,0,B|290:271,1,65,4|0,0:3|0:0,0:0:0:0:
230,235,85583,2,0,L|246:142,1,65,10|0,0:0|0:0,0:0:0:0:
195,107,85914,2,0,P|227:91|258:92,1,65,2|4,0:0|0:3,0:0:0:0:
323,131,86246,1,10,0:0:0:0:
374,72,86412,1,2,0:0:0:0:
431,129,86577,5,4,0:3:0:0:
431,129,86743,1,2,0:0:0:0:
392,196,86909,2,0,L|415:287,1,65,10|2,0:0|0:0,0:0:0:0:
362,322,87240,2,0,L|296:309,1,65,2|4,0:0|0:3,0:0:0:0:
222,290,87572,1,10,0:0:0:0:
171,350,87738,2,2,B|80:363,1,65,2|4,0:0|0:3,0:0:0:0:
26,224,88235,5,8,0:0:0:0:
155,29,88732,1,4,0:3:0:0:
224,64,88898,2,0,B|251:67|302:70,1,65,8|0,0:0|0:0,0:0:0:0:
366,76,89229,5,4,0:3:0:0:
461,199,89561,1,8,0:0:0:0:
354,312,89892,2,0,P|346:277|332:223,1,65,2|0,0:0|0:0,0:0:0:0:
306,177,90224,1,10,0:0:0:0:
241,220,90389,1,2,0:0:0:0:
176,175,90555,2,0,L|87:189,1,65,4|0,0:3|0:0,0:0:0:0:
40,218,90887,6,0,P|-3:171|27:107,1,130,10|0,0:0|0:0,0:0:0:0:
83,72,91384,1,4,0:3:0:0:
23,21,91550,1,8,0:0:0:0:
178,17,91881,5,4,0:3:0:0:
230,74,92047,1,2,0:0:0:0:
191,142,92213,1,10,0:0:0:0:
239,202,92378,6,0,L|392:228,1,130,2|4,0:0|0:3,0:0:0:0:
445,233,92876,1,10,0:0:0:0:
445,233,93041,1,2,0:0:0:0:
407,301,93207,5,4,0:3:0:0:
266,368,93539,1,10,0:0:0:0:
266,368,94036,5,4,0:3:0:0:
211,312,94202,1,8,0:0:0:0:
60,353,94533,6,2,L|72:279,1,65,2|2,0:0|0:0,0:0:0:0:
84,212,94865,1,8,0:0:0:0:
59,58,95196,2,0,P|97:54|140:80,1,65,2|4,0:0|0:3,0:0:0:0:
187,105,95528,1,10,0:0:0:0:
246,55,95693,1,2,0:0:0:0:
300,110,95859,6,0,L|295:192,1,65,4|2,0:3|0:0,0:0:0:0:
291,253,96191,1,10,0:0:0:0:
291,253,96356,1,2,0:0:0:0:
346,308,96522,2,0,L|422:326,1,65,2|4,0:0|0:3,0:0:0:0:
485,340,96854,1,10,0:0:0:0:
485,340,97020,1,2,0:0:0:0:
458,266,97185,6,0,B|478:148,1,97.5,2|0,0:0|0:0,0:0:0:0:
484,131,97517,1,10,0:0:0:0:
432,73,97682,1,0,0:0:0:0:
353,95,97848,2,0,P|307:104|264:112,1,65,2|4,0:0|0:3,0:0:0:0:
225,153,98180,2,0,P|179:144|136:136,1,65,10|2,0:0|0:0,0:0:0:0:
118,74,98511,6,0,P|126:163|92:189,1,130,4|10,0:3|0:0,0:0:0:0:
251,364,99340,1,4,0:3:0:0:
329,367,99506,1,8,0:0:0:0:
382,220,99837,6,0,B|517:246,1,130,2|10,0:0|0:0,0:0:0:0:
470,97,100500,1,2,0:0:0:0:
470,97,100666,1,4,0:3:0:0:
406,52,100831,2,0,L|324:62,1,65,10|0,0:0|0:0,0:0:0:0:
271,96,101163,5,4,0:0:0:0:
212,43,101329,1,2,0:0:0:0:
143,79,101494,2,0,B|152:114|152:114|139:164,1,65,10|0,0:0|0:0,0:0:0:0:
123,217,101826,2,0,P|154:227|198:327,1,130,2|8,0:0|0:0,0:0:0:0:
252,365,102323,1,2,0:0:0:0:
312,315,102489,6,2,L|303:234,1,65,2|0,0:0|0:0,0:0:0:0:
294,173,102820,1,10,0:0:0:0:
286,95,102986,2,0,B|364:91|333:139|424:120,1,130,2|4,0:0|0:3,0:0:0:0:
458,183,103483,2,0,L|450:264,1,65,10|4,0:0|0:3,0:0:0:0:
444,325,103815,1,4,0:3:0:0:
290,350,104146,5,10,0:0:0:0:
224,305,104312,2,0,L|136:315,2,65,4|4|4,0:3|0:3|0:3,0:0:0:0:
275,246,104809,1,8,0:0:0:0:
131,184,105141,6,0,L|30:164,1,97.5,6|0,0:0|0:0,0:0:0:0:
45,127,105472,2,0,L|155:151,1,97.5,6|0,0:0|0:0,0:0:0:0:
149,109,105804,1,8,0:0:0:0:
210,60,105974,1,4,0:3:0:0:
267,111,106144,1,8,0:0:0:0:
267,111,106315,1,8,0:0:0:0:
330,65,106485,6,0,P|307:131|366:172,1,130,6|10,0:0|0:0,0:0:0:0:
435,295,107145,2,0,L|370:281,1,65,2|0,0:0|0:0,0:0:0:0:
327,346,107469,6,0,L|171:316,1,130,10|2,0:0|0:0,0:0:0:0:
49,364,108124,1,8,0:0:0:0:
96,301,108290,1,4,0:3:0:0:
44,242,108456,2,0,B|25:99,1,130,2|8,0:0|0:0,0:0:0:0:
155,23,109119,6,0,L|237:45,1,65,2|0,0:0|0:0,0:0:0:0:
269,98,109450,2,0,L|351:85,1,65,8|0,0:0|0:0,0:0:0:0:
410,73,109782,1,2,0:0:0:0:
410,73,109948,1,2,0:0:0:0:
396,149,110113,2,0,L|418:232,1,65,8|0,0:0|0:0,0:0:0:0:
375,281,110445,6,0,P|328:280|296:253,1,65,4|0,0:3|0:0,0:0:0:0:
252,321,110776,2,0,P|214:310|186:300,1,65,10|0,0:0|0:0,0:0:0:0:
125,345,111108,2,0,L|99:265,1,65,2|4,0:0|0:3,0:0:0:0:
40,239,111439,2,0,L|55:152,1,65,10|0,0:0|0:0,0:0:0:0:
115,130,111770,6,0,P|165:94|247:111,1,130,4|8,0:3|0:0,0:0:0:0:
287,47,112267,1,2,0:0:0:0:
350,92,112433,2,0,L|426:78,1,65,4|4,0:3|0:3,0:0:0:0:
489,101,112764,1,8,0:0:0:0:
458,172,112930,1,2,0:0:0:0:
386,203,113096,6,0,P|458:213|494:269,1,130,4|10,0:3|0:0,0:0:0:0:
418,285,113593,1,2,0:0:0:0:
360,337,113759,2,0,B|313:328|313:328|273:337|273:337|215:319,1,130,2|8,0:0|0:0,0:0:0:0:
168,367,114256,1,2,0:0:0:0:
103,322,114422,6,0,L|82:177,1,130,2|8,0:0|0:0,0:0:0:0:
167,60,115085,1,2,0:0:0:0:
167,60,115250,1,2,0:0:0:0:
100,18,115416,2,0,L|20:33,1,65,10|0,0:0|0:0,0:0:0:0:
4,102,115748,6,0,L|15:177,1,65,2|0,0:0|0:0,0:0:0:0:
86,193,116079,2,0,B|98:287,1,65,10|0,0:0|0:0,0:0:0:0:
143,319,116411,2,0,B|179:315|215:326,1,65,2|0,0:0|0:0,0:0:0:0:
272,279,116742,6,0,P|330:328|387:293,1,130,10|4,0:0|0:0,0:0:0:0:
478,195,117405,2,0,L|449:50,1,130,10|4,0:0|0:3,0:0:0:0:
389,21,117902,1,4,0:3:0:0:
331,73,118068,2,0,L|255:62,1,65,10|0,0:0|0:0,0:0:0:0:
257,141,118400,2,0,L|331:151,1,65,2|0,0:0|0:0,0:0:0:0:
393,180,118731,6,0,P|410:236|414:257,1,65,10|0,0:0|0:0,0:0:0:0:
373,311,119063,2,0,P|359:377|359:396,1,65,2|4,0:0|0:3,0:0:0:0:
283,355,119394,2,0,P|218:357|205:292,1,130,10|0,0:0|0:0,0:0:0:0:
211,147,120057,2,0,B|125:141|156:177|66:169,1,130,10|2,0:0|0:0,0:0:0:0:
69,246,120554,6,0,P|42:283|24:318,1,65,2|8,0:0|0:0,0:0:0:0:
45,377,120886,1,2,0:0:0:0:
122,369,121051,2,0,L|251:357,1,130,2|8,0:0|0:0,0:0:0:0:
330,222,121714,2,0,L|414:213,1,65,2|0,0:0|0:0,0:0:0:0:
419,140,122046,2,0,L|373:94,1,65,10|0,0:0|0:0,0:0:0:0:
345,20,122377,6,0,L|196:32,1,130,6|8,0:0|0:0,0:0:0:0:
60,51,123040,1,4,0:3:0:0:
60,51,123206,1,4,0:3:0:0:
105,114,123372,2,0,L|96:194,1,65,10|0,0:0|0:0,0:0:0:0:
145,240,123703,2,0,L|138:335,1,65,6|0,0:0|0:0,0:0:0:0:
199,356,124035,6,0,L|288:324,1,65,10|0,0:0|0:0,0:0:0:0:
321,285,124366,2,0,P|350:299|381:314,1,65,2|0,0:0|0:0,0:0:0:0:
448,275,124698,6,0,P|426:235|468:166,1,130,10|2,0:0|0:0,0:0:0:0:
363,48,125361,6,0,L|287:61,1,65,10|0,0:0|0:0,0:0:0:0:
241,112,125692,1,6,0:0:0:0:
241,112,125858,1,2,0:0:0:0:
297,165,126024,2,0,P|296:197|293:246,1,65,8|0,0:0|0:0,0:0:0:0:
293,308,126355,5,6,0:0:0:0:
153,377,126687,2,0,L|15:348,1,130,12|4,0:0|0:3,0:0:0:0:
28,272,127184,1,12,0:3:0:0:
29,256,127267,1,12,0:3:0:0:
31,240,127350,2,0,L|62:247,3,32.5,12|12|14|6,0:3|0:3|0:3|0:0,0:0:0:0:
93,231,127681,6,0,L|63:137,1,71.5000021820069,6|2,0:0|0:0,0:0:0:0:
12,99,128013,1,10,0:0:0:0:
47,20,128179,1,0,0:0:0:0:
130,39,128344,2,0,L|212:32,1,71.5000021820069,2|0,0:0|0:0,0:0:0:0:
281,65,128676,1,6,0:0:0:0:
220,125,128842,2,0,P|210:156|220:213,1,71.5000021820069,2|0,0:0|0:0,0:0:0:0:
277,251,129173,2,0,P|310:250|351:211,1,71.5000021820069,2|12,0:0|0:0,0:0:0:0:
394,160,129505,6,0,B|419:194|419:194|413:304,1,143.000004364014,2|4,0:0|0:3,0:0:0:0:
391,377,130002,1,10,0:0:0:0:
321,326,130168,1,2,0:0:0:0:
253,376,130333,1,2,0:0:0:0:
253,376,130499,1,2,0:0:0:0:
177,335,130665,6,0,L|76:344,1,71.5000021820069,10|2,0:0|0:0,0:0:0:0:
37,289,130996,1,2,0:0:0:0:
92,223,131162,1,2,0:0:0:0:
34,159,131328,1,10,0:0:0:0:
78,86,131493,2,0,L|149:98,1,71.5000021820069,2|6,0:0|0:0,0:0:0:0:
210,157,131822,2,0,L|300:135,1,71.5000021820069,2|10,0:0|0:0,0:0:0:0:
313,61,132146,6,0,P|400:71|412:122,1,143.000004364014,2|8,0:0|0:3,0:0:0:0:
412,130,132551,1,8,0:3:0:0:
410,145,132632,1,8,0:0:0:0:
429,228,132795,2,0,L|520:214,1,71.5000021820069,2|4,0:0|0:0,0:0:0:0:
512,305,133124,5,2,0:0:0:0:
512,305,133292,1,10,0:0:0:0:
457,372,133459,1,2,0:0:0:0:
375,319,133627,2,0,P|328:313|287:324,1,71.5000021820069,2|2,0:0|0:0,0:0:0:0:
233,362,133962,1,10,0:0:0:0:
233,362,134130,1,2,0:0:0:0:
178,296,134297,5,2,0:0:0:0:
219,220,134465,2,0,L|220:136,1,71.5000021820069,2|10,0:0|0:0,0:0:0:0:
188,68,134800,2,0,P|221:61|261:74,1,71.5000021820069,2|4,0:0|0:0,0:0:0:0:
327,120,135135,2,0,P|360:127|405:106,1,71.5000021820069,2|8,0:0|0:0,0:0:0:0:
499,253,135638,6,0,L|503:328,1,71.5000021820069,2|0,0:0|0:0,0:0:0:0:
426,362,135970,1,10,0:0:0:0:
426,362,136135,1,2,0:0:0:0:
353,315,136301,2,0,L|284:331,1,71.5000021820069,2|2,0:0|0:0,0:0:0:0:
221,271,136633,5,10,0:0:0:0:
284,213,136798,1,2,0:0:0:0:
284,213,136881,1,8,0:3:0:0:
284,213,136964,1,6,0:0:0:0:
216,158,137130,2,0,L|217:107,3,35.7500010910034,8|8|8|8,0:0|0:0|0:0|0:0,0:0:0:0:
189,89,137461,2,0,L|193:32,3,35.7500010910034,8|8|8|8,0:3|0:3|0:0|0:0,0:0:0:0:
158,20,137793,2,0,L|103:23,3,35.7500010910034,4|4|4|4,0:3|0:3|0:3|0:3,0:0:0:0:
100,56,138124,5,8,0:3:0:0:
82,54,138207,1,8,0:3:0:0:
64,52,138289,1,6,0:0:0:0:
481,354,139614,5,2,0:0:0:0:
488,104,140277,1,2,0:0:0:0:
256,198,140940,5,6,0:0:0:0:
95,326,143592,5,2,0:0:0:0:
95,326,144752,53,2,0:0:0:0:
134,262,144918,2,0,B|117:120,1,136.499995834351,2|0,0:0|0:0,0:0:0:0:
108,85,145581,2,0,P|175:113|207:102,1,97.4999970245362,2|0,0:0|0:0,0:0:0:0:
239,83,146078,2,0,L|277:95,1,38.9999988098145,2|2,0:0|0:0,0:0:0:0:
423,145,146783,5,2,0:0:0:0:
47,299,148233,5,2,0:0:0:0:
137,275,148564,2,0,P|155:276|205:300,1,58.4999982147217,4|0,0:3|0:0,0:0:0:0:
234,313,148896,6,0,L|214:209,1,104,6|8,0:0|0:0,0:0:0:0:
182,68,149559,5,4,0:3:0:0:
182,68,149725,1,4,0:3:0:0:
242,107,149890,1,8,0:0:0:0:
361,23,150222,5,2,0:0:0:0:
461,128,150553,2,0,L|459:187,1,52,10|0,0:0|0:0,0:0:0:0:
401,224,150885,2,0,L|400:284,1,52,2|4,0:0|0:3,0:0:0:0:
340,317,151216,2,0,L|340:391,1,52,10|0,0:0|0:0,0:0:0:0:
266,363,151548,5,2,0:0:0:0:
131,308,151879,2,0,L|67:326,1,52,10|0,0:0|0:0,0:0:0:0:
36,263,152211,1,4,0:3:0:0:
36,263,152376,1,4,0:3:0:0:
75,202,152542,1,10,0:0:0:0:
19,67,152874,5,4,0:3:0:0:
160,34,153205,2,0,L|221:48,1,52,10|0,0:0|0:0,0:0:0:0:
237,113,153537,2,0,L|306:128,1,52,2|4,0:0|0:3,0:0:0:0:
318,190,153868,2,0,B|389:207,1,52,10|4,0:0|0:3,0:0:0:0:
400,267,154200,6,0,L|392:336,1,52,2|0,0:0|0:0,0:0:0:0:
465,334,154531,2,0,L|473:262,1,52,10|0,0:0|0:0,0:0:0:0:
481,209,154863,1,4,0:3:0:0:
481,209,155028,1,4,0:3:0:0:
490,136,155194,1,10,0:0:0:0:
396,24,155526,5,4,0:3:0:0:
291,124,155857,2,0,L|225:110,1,52,10|0,0:0|0:0,0:0:0:0:
186,162,156189,2,0,L|129:150,1,52,2|0,0:0|0:0,0:0:0:0:
78,197,156520,2,0,L|14:182,1,52,10|0,0:0|0:0,0:0:0:0:
6,255,156852,5,2,0:0:0:0:
135,321,157183,2,0,L|149:387,1,52,10|0,0:0|0:0,0:0:0:0:
218,359,157515,1,2,0:0:0:0:
264,303,157680,1,4,0:3:0:0:
323,344,157846,1,8,0:0:0:0:
436,251,158178,5,4,0:3:0:0:
436,251,158343,1,4,0:3:0:0:
381,202,158509,2,0,L|307:217,1,52,10|0,0:0|0:0,0:0:0:0:
280,158,158841,2,0,L|301:100,1,52,2|0,0:0|0:0,0:0:0:0:
247,56,159172,2,0,B|195:60,1,52,14|0,0:0|0:0,0:0:0:0:
123,75,159504,6,0,L|93:5,1,52,2|0,0:0|0:0,0:0:0:0:
34,51,159837,2,0,L|53:99,1,52,10|0,0:0|0:0,0:0:0:0:
81,166,160150,1,4,0:3:0:0:
81,166,160312,1,4,0:3:0:0:
39,225,160477,1,10,0:0:0:0:
122,344,160831,5,4,0:3:0:0:
257,289,161163,2,0,L|324:304,1,52,10|0,0:0|0:0,0:0:0:0:
358,352,161494,2,0,L|424:365,1,52,2|0,0:0|0:0,0:0:0:0:
455,305,161826,2,0,L|436:238,1,52,10|0,0:0|0:0,0:0:0:0:
429,182,162157,1,2,0:0:0:0:
460,39,162489,6,0,L|397:33,1,52,10|0,0:0|0:0,0:0:0:0:
352,80,162820,2,0,L|284:72,1,52,2|0,0:0|0:0,0:0:0:0:
250,127,163152,2,0,L|269:193,1,52,10|0,0:0|0:0,0:0:0:0:
289,245,163483,5,4,0:3:0:0:
289,245,163649,1,4,0:3:0:0:
239,298,163815,2,0,L|171:290,1,52,10|0,0:0|0:0,0:0:0:0:
133,341,164146,2,0,L|73:338,1,52,2|0,0:0|0:0,0:0:0:0:
26,289,164478,2,0,L|22:222,1,52,14|0,0:0|0:0,0:0:0:0:
73,188,164808,6,0,P|71:125|18:98,1,116.999996429443,4|4,0:0|0:3,0:0:0:0:
30,84,165397,1,4,0:3:0:0:
30,69,165482,2,0,L|174:87,1,136.499995834351,12|0,0:0|0:0,0:0:0:0:
196,68,166156,2,0,P|175:132|216:190,1,136.499995834351,6|0,0:0|0:0,0:0:0:0:
237,208,166801,5,8,0:0:0:0:
341,302,167130,1,4,0:0:0:0:
440,227,167460,6,0,L|425:170,1,52,8|0,0:0|0:0,0:0:0:0:
413,91,167791,6,0,L|350:81,1,52,4|4,0:3|0:3,0:0:0:0:
292,36,168122,2,0,L|229:46,1,52,4|4,0:3|0:3,0:0:0:0:
159,24,168454,2,0,L|122:78,1,52,4|4,0:3|0:3,0:0:0:0:
80,134,168785,5,4,0:3:0:0:
80,134,168951,1,4,0:3:0:0:
137,194,169117,1,4,0:3:0:0:
137,194,169283,1,4,0:3:0:0:
208,151,169448,1,4,0:0:0:0:
251,222,169614,5,8,0:0:0:0:
267,225,169694,1,8,0:0:0:0:
284,228,169774,2,0,L|321:233,3,26,8|8|8|8,0:0|0:0|0:0|0:0,0:0:0:0:
347,212,170111,6,0,L|337:372,1,143.000004364014,6|10,0:0|0:0,0:0:0:0:
424,355,170609,1,4,0:3:0:0:
446,272,170774,2,0,P|493:263|527:261,1,71.5000021820069,2|4,0:0|0:3,0:0:0:0:
493,177,171106,2,0,P|502:130|514:93,1,71.5000021820069,10|0,0:0|0:0,0:0:0:0:
447,46,171437,6,0,P|387:57|328:-7,1,143.000004364014,2|8,0:0|0:0,0:0:0:0:
279,73,171934,1,4,0:3:0:0:
204,30,172100,2,0,L|130:37,1,71.5000021820069,2|4,0:0|0:3,0:0:0:0:
88,110,172432,2,0,B|119:152|119:152|123:251,1,143.000004364014,10|4,0:0|0:3,0:0:0:0:
127,328,172929,5,2,0:0:0:0:
198,279,173095,2,0,L|279:300,1,71.5000021820069,10|0,0:0|0:0,0:0:0:0:
351,329,173426,1,4,0:3:0:0:
351,329,173592,1,4,0:3:0:0:
330,245,173758,2,0,L|313:149,1,71.5000021820069,8|0,0:0|0:0,0:0:0:0:
364,102,174089,6,0,B|451:120,1,71.5000021820069,2|0,0:0|0:0,0:0:0:0:
449,30,174421,2,0,B|375:16,1,71.5000021820069,10|0,0:0|0:0,0:0:0:0:
298,47,174752,2,0,L|211:58,1,71.5000021820069,2|0,0:0|0:0,0:0:0:0:
143,76,175084,2,0,L|171:162,1,71.5000021820069,10|0,0:0|0:0,0:0:0:0:
108,208,175415,6,0,P|161:185|230:247,1,143.000004364014,2|10,0:0|0:0,0:0:0:0:
301,269,175912,1,2,0:0:0:0:
364,211,176078,1,2,0:0:0:0:
438,254,176244,2,0,P|441:293|442:353,1,71.5000021820069,2|8,0:0|0:0,0:0:0:0:
378,383,176575,1,2,0:0:0:0:
297,352,176741,6,0,L|145:365,1,143.000004364014,2|8,0:0|0:0,0:0:0:0:
78,323,177238,1,2,0:0:0:0:
133,256,177404,2,0,P|161:211|111:131,1,143.000004364014,2|8,0:0|0:0,0:0:0:0:
63,76,177901,1,2,0:0:0:0:
133,34,178067,6,0,B|183:33|183:33|209:50|209:50|290:49,1,143.000004364014,2|8,0:0|0:0,0:0:0:0:
426,133,178730,1,2,0:0:0:0:
426,133,178896,1,4,0:3:0:0:
361,189,179062,2,0,L|375:274,1,71.5000021820069,10|0,0:0|0:0,0:0:0:0:
309,317,179393,6,0,L|224:298,1,71.5000021820069,2|8,0:0|0:0,0:0:0:0:
206,329,179642,2,0,L|158:346,3,35.7500010910034,8|8|8|4,0:0|0:0|0:0|0:3,0:0:0:0:
110,295,180056,1,8,0:0:0:0:
110,295,180139,1,8,0:0:0:0:
110,295,180222,1,4,0:3:0:0:
160,226,180388,2,0,L|199:215,2,35.7500010910034,8|8|8,0:3|0:3|0:3,0:0:0:0:
92,171,180719,6,0,B|95:86,1,71.5000021820069,6|0,0:0|0:0,0:0:0:0:
150,34,181050,2,0,P|194:73|281:73,1,143.000004364014,10|4,0:0|0:3,0:0:0:0:
345,24,181548,1,4,0:3:0:0:
410,82,181713,6,0,L|496:102,1,71.5000021820069,10|0,0:0|0:0,0:0:0:0:
428,168,182045,2,0,L|345:150,1,71.5000021820069,2|4,0:0|0:3,0:0:0:0:
284,197,182376,2,0,L|304:288,1,71.5000021820069,10|0,0:0|0:0,0:0:0:0:
213,279,182708,2,0,L|197:195,1,71.5000021820069,2|4,0:0|0:3,0:0:0:0:
210,123,183039,6,0,P|150:128|115:206,1,143.000004364014,14|4,0:0|0:3,0:0:0:0:
42,244,183537,1,4,0:3:0:0:
59,327,183703,2,0,B|162:344|210:354,1,143.000004364014,10|0,0:0|0:0,0:0:0:0:
369,323,184348,6,0,P|362:295|349:245,1,71.5000021820069,10|0,0:0|0:0,0:0:0:0:
419,200,184697,2,0,P|424:160|431:123,1,71.5000021820069,2|0,0:0|0:0,0:0:0:0:
476,57,185028,2,0,P|433:42|385:52,1,71.5000021820069,10|0,0:0|0:0,0:0:0:0:
338,95,185359,2,0,L|258:79,1,71.5000021820069,2|0,0:0|0:0,0:0:0:0:
209,17,185691,2,0,L|128:35,1,71.5000021820069,14|0,0:0|0:0,0:0:0:0:
66,77,186006,5,6,0:0:0:0:
66,77,186180,1,4,0:3:0:0:
124,139,186354,2,0,B|107:282,1,143.000004364014,12|4,2:0|2:3,2:2:0:0:
94,366,186851,1,4,0:3:0:0:
174,336,187016,2,0,L|251:315,1,71.5000021820069,10|0,0:0|0:0,0:0:0:0:
315,270,187348,2,0,L|388:290,1,71.5000021820069,2|0,0:0|0:0,0:0:0:0:
454,239,187680,6,0,L|441:150,1,71.5000021820069,10|0,0:0|0:0,0:0:0:0:
370,122,188012,2,0,L|381:41,1,71.5000021820069,2|0,0:0|0:0,0:0:0:0:
300,17,188345,2,0,L|228:37,1,71.5000021820069,10|0,0:0|0:0,0:0:0:0:
159,81,188677,5,8,0:0:0:0:
159,81,188758,1,8,0:0:0:0:
159,81,188840,2,0,L|110:73,2,35.7500010910034,8|8|8,0:0|0:0|0:0,0:0:0:0:
223,152,189168,5,8,0:0:0:0:
223,152,189250,1,8,0:0:0:0:
223,152,189332,2,0,L|209:233,1,71.5000021820069,8|4,0:0|0:3,0:0:0:0:
150,284,189660,2,0,L|159:345,3,35.7500010910034,4|4|8|8,0:3|0:3|0:3|0:3,0:0:0:0:
162,356,189988,1,4,0:0:0:0:
438,304,190501,5,8,0:3:0:0:
457,307,190579,1,8,0:3:0:0:
480,310,190657,2,0,L|491:245,3,35.7500010910034,8|8|8|10,0:0|0:0|0:0|0:3,0:0:0:0:
490,233,190969,1,8,0:0:0:0:
512,163,191126,1,10,0:0:0:0:
450,118,191319,6,0,P|357:97|238:70,1,208,2|2,0:0|0:0,0:0:0:0:
247,72,193289,6,0,L|264:176,1,104,2|2,0:0|0:0,0:0:0:0:
263,174,196615,6,0,B|370:185|370:185|425:273,1,208,2|2,0:0|0:0,0:0:0:0:
423,270,199277,6,0,L|341:283,1,78,2|2,0:0|0:0,0:0:0:0:
345,282,201256,1,2,0:0:0:0:
385,140,201918,6,0,B|254:104|305:197|180:162,1,208,2|2,0:0|0:0,0:0:0:0:
187,164,203914,6,0,P|197:234|201:269,1,104,2|2,0:0|0:0,0:0:0:0:
200,267,207213,6,0,B|268:261|268:261|320:282|320:282|409:272,1,208,2|2,0:0|0:0,0:0:0:0:
403,272,209886,6,0,L|379:193,1,78,2|2,0:0|0:0,0:0:0:0:
