osu file format v14

[General]
AudioFilename: audio.mp3
AudioLeadIn: 0
PreviewTime: 61825
Countdown: 0
SampleSet: Normal
StackLeniency: 0.7
Mode: 1
LetterboxInBreaks: 0
WidescreenStoryboard: 1

[Editor]
Bookmarks: 75045
DistanceSpacing: 1.1
BeatDivisor: 4
GridSize: 4
TimelineZoom: 2.799998

[Metadata]
Title:Irokousui (TV Size)
TitleUnicode:色香水 (TV Size)
Artist:Kamiyama Yoh
ArtistUnicode:神山羊
Creator:kanpakyin
Version:Oni
Source:ホリミヤ
Tags:堀さんと宮村くん horimiya japanese jpop j-pop pop anime Hori san and to Miyamura kun
BeatmapID:2854817
BeatmapSetID:1381677

[Difficulty]
HPDrainRate:6
CircleSize:5
OverallDifficulty:5.5
ApproachRate:5
SliderMultiplier:1.4
SliderTickRate:1

[Events]
//Background and Video events
0,0,"BG2.jpg",0,30
Video,-225,"Video.mp4"
//Break Periods
//Storyboard Layer 0 (Background)
//Storyboard Layer 1 (Fail)
//Storyboard Layer 2 (Pass)
//Storyboard Layer 3 (Foreground)
//Storyboard Layer 4 (Overlay)
//Storyboard Sound Samples

[TimingPoints]
1013,405.405405405405,4,1,0,75,1,0
1013,-142.857142857143,4,1,0,50,0,0
7296,-140.845070422535,4,1,0,50,0,0
7499,-138.888888888889,4,1,0,50,0,0
7702,-135.135135135135,4,1,0,50,0,0
7904,-131.578947368421,4,1,0,50,0,0
8107,-128.205128205128,4,1,0,50,0,0
8310,-125,4,1,0,50,0,0
8512,-121.951219512195,4,1,0,50,0,0
8715,-119.047619047619,4,1,0,50,0,0
8918,-116.279069767442,4,1,0,50,0,0
9121,-113.636363636364,4,1,0,50,0,0
9931,-106.382978723404,4,1,0,50,0,0
10337,-104.166666666667,4,1,0,50,0,0
10540,-102.040816326531,4,1,0,50,0,0
10742,-100,4,1,0,70,0,0
23107,-97.0873786407767,4,1,0,70,0,0
23310,-95.2380952380952,4,1,0,70,0,0
23512,-93.4579439252336,4,1,0,70,0,0
23715,-95.2380952380952,4,1,0,70,0,0
23918,-97.0873786407767,4,1,0,70,0,0
24121,-100,4,1,0,70,0,0
59188,-97.0873786407767,4,1,0,70,0,0
59290,-96.1538461538461,4,1,0,70,0,0
59391,-95.2380952380952,4,1,0,70,0,0
59796,-93.4579439252336,4,1,0,70,0,0
59999,-92.5925925925926,4,1,0,70,0,0
60100,-91.743119266055,4,1,0,70,0,0
60202,-90.9090909090909,4,1,0,70,0,0
60404,-88.4955752212389,4,1,0,70,0,0
60506,-87.719298245614,4,1,0,70,0,0
60607,-86.9565217391304,4,1,0,70,0,0
61012,-83.3333333333333,4,1,0,70,0,0
61215,-80,4,1,0,70,0,0
61418,-76.9230769230769,4,1,0,70,0,0
61823,-117.647058823529,4,1,0,70,0,0
62431,-114.942528735632,4,1,0,70,0,0
62634,-111.111111111111,4,1,0,70,0,1
67296,-109.89010989011,4,1,0,70,0,1
67398,-108.695652173913,4,1,0,70,0,1
67499,-107.52688172043,4,1,0,70,0,1
67702,-105.263157894737,4,1,0,70,0,1
67904,-103.092783505155,4,1,0,70,0,1
68107,-101.010101010101,4,1,0,70,0,1
68715,-100,4,1,0,70,0,1
73985,-90.9090909090909,4,1,0,70,0,1
74188,-86.9565217391304,4,1,0,70,0,1
74391,-83.3333333333333,4,1,0,70,0,0
74796,-111.111111111111,4,1,0,70,0,0
75202,-100,4,1,0,70,0,0
75404,-95.2380952380952,4,1,0,70,0,0
75506,-93.4579439252336,4,1,0,70,0,0
75607,-90.9090909090909,4,1,0,70,0,1
87972,-86.9565217391304,4,1,0,70,0,1
88175,-83.3333333333333,4,1,0,70,0,1
88377,-81.3008130081301,4,1,0,70,0,0

[Colours]
Combo1 : 176,201,240
Combo2 : 74,66,136
Combo3 : 175,97,97
Combo4 : 73,69,99

[HitObjects]
385,143,1013,5,0,0:0:0:0:
385,143,1621,1,8,0:0:0:0:
385,143,2229,1,0,0:0:0:0:
385,143,2634,1,0,0:0:0:0:
384,142,4256,1,0,0:0:0:0:
377,144,4864,1,8,0:0:0:0:
377,144,5472,1,0,0:0:0:0:
377,144,5877,1,8,0:0:0:0:
376,135,6688,1,0,0:0:0:0:
376,135,7094,1,0,0:0:0:0:
376,135,7296,1,8,0:0:0:0:
376,135,7499,1,0,0:0:0:0:
376,135,7702,1,0,0:0:0:0:
373,123,7904,1,8,0:0:0:0:
373,123,8107,1,8,0:0:0:0:
373,123,8310,1,8,0:0:0:0:
365,119,8512,1,8,0:0:0:0:
365,119,8715,1,8,0:0:0:0:
365,119,8918,1,8,0:0:0:0:
365,119,9121,1,0,0:0:0:0:
365,119,9931,5,0,0:0:0:0:
376,110,10337,1,0,0:0:0:0:
367,104,10540,1,8,0:0:0:0:
422,113,10742,5,4,0:0:0:0:
422,106,10945,1,0,0:0:0:0:
422,113,11148,1,8,0:0:0:0:
422,106,11553,1,0,0:0:0:0:
422,106,11756,1,0,0:0:0:0:
422,106,11958,1,8,0:0:0:0:
422,106,12364,1,0,0:0:0:0:
422,106,12567,1,0,0:0:0:0:
422,106,12769,1,8,0:0:0:0:
422,106,12972,1,8,0:0:0:0:
408,106,13073,1,0,0:0:0:0:
422,106,13175,1,0,0:0:0:0:
422,106,13377,1,0,0:0:0:0:
422,106,13580,1,8,0:0:0:0:
408,106,13985,1,0,0:0:0:0:
408,106,14188,1,0,0:0:0:0:
408,106,14391,1,8,0:0:0:0:
405,101,14594,1,8,0:0:0:0:
408,106,14796,1,0,0:0:0:0:
408,106,14999,1,0,0:0:0:0:
408,106,15202,1,8,0:0:0:0:
408,106,15404,1,0,0:0:0:0:
408,106,15607,1,0,0:0:0:0:
387,84,15810,1,0,0:0:0:0:
411,91,16012,1,8,0:0:0:0:
387,84,16215,1,0,0:0:0:0:
417,90,16317,1,0,0:0:0:0:
411,91,16418,1,8,0:0:0:0:
411,91,16621,1,0,0:0:0:0:
411,91,16823,1,8,0:0:0:0:
411,91,17026,1,8,0:0:0:0:
411,91,17127,1,8,0:0:0:0:
411,91,17229,1,0,0:0:0:0:
404,78,17431,1,0,0:0:0:0:
419,83,17634,1,8,0:0:0:0:
419,83,18040,1,0,0:0:0:0:
419,83,18242,1,0,0:0:0:0:
419,83,18445,1,8,0:0:0:0:
419,83,18850,1,0,0:0:0:0:
412,84,19053,1,0,0:0:0:0:
419,83,19256,1,8,0:0:0:0:
412,71,19458,1,8,0:0:0:0:
419,83,19661,1,0,0:0:0:0:
419,83,19864,1,0,0:0:0:0:
419,83,20067,1,8,0:0:0:0:
421,97,20269,1,0,0:0:0:0:
412,95,20371,1,8,0:0:0:0:
419,83,20472,1,0,0:0:0:0:
422,99,20675,1,0,0:0:0:0:
419,83,20877,1,8,0:0:0:0:
419,83,21283,1,0,0:0:0:0:
419,83,21485,1,0,0:0:0:0:
419,83,21688,1,8,0:0:0:0:
421,93,21891,1,0,0:0:0:0:
419,83,22094,1,0,0:0:0:0:
419,83,22296,1,0,0:0:0:0:
419,83,22499,1,8,0:0:0:0:
421,97,22702,1,0,0:0:0:0:
421,93,22803,1,0,0:0:0:0:
419,83,22904,1,8,0:0:0:0:
419,83,23107,1,0,0:0:0:0:
419,83,23310,1,8,0:0:0:0:
419,83,23512,1,8,0:0:0:0:
419,83,23715,1,4,0:0:0:0:
419,83,23918,1,0,0:0:0:0:
419,83,24121,1,8,0:0:0:0:
406,83,24526,1,0,0:0:0:0:
406,83,24729,1,0,0:0:0:0:
406,83,24931,1,8,0:0:0:0:
406,83,25337,1,0,0:0:0:0:
406,83,25742,1,8,0:0:0:0:
406,83,25945,1,0,0:0:0:0:
410,89,26148,1,8,0:0:0:0:
406,83,26350,1,0,0:0:0:0:
406,83,26553,1,8,0:0:0:0:
406,83,26958,1,0,0:0:0:0:
410,89,27161,1,0,0:0:0:0:
406,83,27364,1,8,0:0:0:0:
406,83,27567,1,0,0:0:0:0:
418,93,27769,1,0,0:0:0:0:
401,85,27972,1,0,0:0:0:0:
406,83,28175,1,8,0:0:0:0:
406,83,28580,1,8,0:0:0:0:
406,83,28783,1,8,0:0:0:0:
406,83,28985,1,0,0:0:0:0:
409,72,29188,1,0,0:0:0:0:
388,80,29391,1,8,0:0:0:0:
388,79,29594,1,8,0:0:0:0:
388,79,29796,1,0,0:0:0:0:
388,79,29999,1,8,0:0:0:0:
388,80,30100,1,8,0:0:0:0:
388,80,30202,1,0,0:0:0:0:
381,69,30404,1,0,0:0:0:0:
381,69,30607,1,8,0:0:0:0:
380,78,31012,1,0,0:0:0:0:
380,78,31215,1,0,0:0:0:0:
380,78,31418,1,8,0:0:0:0:
380,78,31621,1,0,0:0:0:0:
380,78,31722,1,8,0:0:0:0:
380,78,31823,1,0,0:0:0:0:
396,94,32026,1,0,0:0:0:0:
396,88,32229,1,8,0:0:0:0:
396,88,32431,1,0,0:0:0:0:
385,84,32837,1,0,0:0:0:0:
377,93,33040,1,8,0:0:0:0:
387,93,33242,1,8,0:0:0:0:
387,93,33445,1,0,0:0:0:0:
387,92,33648,1,0,0:0:0:0:
387,92,33850,1,8,0:0:0:0:
387,92,34053,1,0,0:0:0:0:
387,93,34154,1,8,0:0:0:0:
387,93,34256,1,0,0:0:0:0:
393,102,34458,1,0,0:0:0:0:
393,102,34661,1,8,0:0:0:0:
393,101,34864,1,8,0:0:0:0:
393,101,34965,1,8,0:0:0:0:
393,101,35067,1,0,0:0:0:0:
398,105,35269,1,0,0:0:0:0:
398,105,35472,1,8,0:0:0:0:
380,101,35675,1,0,0:0:0:0:
389,104,35877,1,8,0:0:0:0:
389,104,36080,1,0,0:0:0:0:
389,104,36283,1,8,0:0:0:0:
387,106,36384,1,0,0:0:0:0:
387,106,36485,1,0,0:0:0:0:
387,106,36688,1,4,0:0:0:0:
393,108,36891,1,0,0:0:0:0:
389,104,37094,1,8,0:0:0:0:
390,110,37499,1,0,0:0:0:0:
390,110,37702,1,0,0:0:0:0:
393,108,37904,1,8,0:0:0:0:
390,110,38107,1,0,0:0:0:0:
377,112,38208,1,8,0:0:0:0:
390,110,38310,1,0,0:0:0:0:
384,108,38512,1,0,0:0:0:0:
384,108,38715,1,8,0:0:0:0:
384,108,38918,1,0,0:0:0:0:
385,117,39323,1,0,0:0:0:0:
385,117,39526,1,8,0:0:0:0:
385,117,39729,1,0,0:0:0:0:
383,118,39931,1,0,0:0:0:0:
391,117,40134,1,0,0:0:0:0:
391,118,40337,1,8,0:0:0:0:
393,118,40540,1,0,0:0:0:0:
393,118,40742,1,0,0:0:0:0:
393,118,40945,1,0,0:0:0:0:
391,117,41046,1,0,0:0:0:0:
391,117,41148,1,8,0:0:0:0:
391,118,41350,1,0,0:0:0:0:
393,118,41553,1,8,0:0:0:0:
393,118,41756,1,8,0:0:0:0:
393,118,41958,1,0,0:0:0:0:
382,113,42161,1,0,0:0:0:0:
383,113,42364,1,8,0:0:0:0:
383,113,42567,1,8,0:0:0:0:
380,114,42769,1,0,0:0:0:0:
380,115,42972,1,8,0:0:0:0:
382,113,43073,1,8,0:0:0:0:
382,113,43175,1,0,0:0:0:0:
376,110,43377,1,0,0:0:0:0:
376,110,43580,1,8,0:0:0:0:
368,112,43985,1,0,0:0:0:0:
383,106,44188,1,0,0:0:0:0:
376,110,44391,1,8,0:0:0:0:
376,110,44594,1,0,0:0:0:0:
378,108,44695,1,8,0:0:0:0:
378,108,44796,1,0,0:0:0:0:
381,111,44999,1,0,0:0:0:0:
381,111,45202,1,8,0:0:0:0:
381,111,45404,1,0,0:0:0:0:
404,111,45810,1,0,0:0:0:0:
405,111,46012,1,8,0:0:0:0:
405,111,46215,1,0,0:0:0:0:
406,104,46621,1,0,0:0:0:0:
396,101,46722,1,0,0:0:0:0:
406,103,46823,1,8,0:0:0:0:
406,103,47026,1,0,0:0:0:0:
405,111,47127,1,8,0:0:0:0:
406,104,47330,1,0,0:0:0:0:
406,104,47431,1,0,0:0:0:0:
403,128,47634,1,0,0:0:0:0:
404,128,47837,1,8,0:0:0:0:
404,128,48040,1,0,0:0:0:0:
408,128,48242,1,0,0:0:0:0:
408,128,48445,1,8,0:0:0:0:
411,133,48648,1,0,0:0:0:0:
411,132,48749,1,8,0:0:0:0:
411,133,48850,1,0,0:0:0:0:
409,137,49053,1,8,0:0:0:0:
409,137,49256,1,8,0:0:0:0:
409,137,49458,1,0,0:0:0:0:
411,133,49661,1,4,0:0:0:0:
399,144,49864,1,0,0:0:0:0:
399,144,50067,1,8,0:0:0:0:
387,138,50472,1,0,0:0:0:0:
399,144,50675,1,0,0:0:0:0:
399,144,50877,1,8,0:0:0:0:
399,144,51080,1,0,0:0:0:0:
394,141,51283,1,0,0:0:0:0:
394,141,51485,1,0,0:0:0:0:
399,144,51688,1,8,0:0:0:0:
399,144,51891,1,0,0:0:0:0:
399,144,52094,1,0,0:0:0:0:
394,141,52296,1,0,0:0:0:0:
394,141,52499,1,8,0:0:0:0:
394,141,52702,1,8,0:0:0:0:
394,141,52803,1,8,0:0:0:0:
392,141,52904,1,0,0:0:0:0:
362,163,53107,1,0,0:0:0:0:
377,160,53310,1,8,0:0:0:0:
369,150,53715,1,0,0:0:0:0:
369,150,53918,1,0,0:0:0:0:
369,150,54121,1,8,0:0:0:0:
380,147,54323,1,0,0:0:0:0:
380,147,54526,1,0,0:0:0:0:
378,150,54729,1,0,0:0:0:0:
377,150,54931,1,8,0:0:0:0:
376,150,55134,1,0,0:0:0:0:
370,146,55235,1,8,0:0:0:0:
376,151,55337,1,0,0:0:0:0:
379,140,55540,1,0,0:0:0:0:
379,140,55742,1,0,0:0:0:0:
361,133,55844,1,0,0:0:0:0:
379,140,55945,1,8,0:0:0:0:
377,141,56046,1,8,0:0:0:0:
379,140,56148,1,0,0:0:0:0:
357,134,56350,1,0,0:0:0:0:
358,137,56553,1,8,0:0:0:0:
359,134,56756,1,0,0:0:0:0:
361,136,56958,1,0,0:0:0:0:
359,134,57161,1,0,0:0:0:0:
345,118,57262,1,0,0:0:0:0:
357,134,57364,1,8,0:0:0:0:
359,134,57769,1,0,0:0:0:0:
337,107,57972,1,0,0:0:0:0:
338,109,58175,1,8,0:0:0:0:
338,114,58377,1,0,0:0:0:0:
336,115,58580,1,0,0:0:0:0:
336,115,58783,1,8,0:0:0:0:
336,116,58985,1,8,0:0:0:0:
336,116,59188,1,8,0:0:0:0:
332,120,59290,1,8,0:0:0:0:
338,114,59391,1,0,0:0:0:0:
336,115,59594,1,0,0:0:0:0:
336,115,59796,1,8,0:0:0:0:
332,120,59999,1,0,0:0:0:0:
332,120,60100,1,8,0:0:0:0:
336,116,60202,1,0,0:0:0:0:
333,117,60404,1,8,0:0:0:0:
332,101,60506,1,0,0:0:0:0:
336,115,60607,1,8,0:0:0:0:
332,120,60810,1,0,0:0:0:0:
336,116,61012,1,12,0:0:0:0:
336,116,61215,1,12,0:0:0:0:
333,117,61418,1,12,0:0:0:0:
329,126,62229,1,0,0:0:0:0:
329,126,62431,1,0,0:0:0:0:
342,142,62634,5,4,0:0:0:0:
325,130,62837,1,8,0:0:0:0:
342,142,63040,1,0,0:0:0:0:
342,142,63242,1,0,0:0:0:0:
342,142,63445,1,8,0:0:0:0:
342,142,63850,1,8,0:0:0:0:
350,134,63952,1,8,0:0:0:0:
350,134,64053,1,8,0:0:0:0:
348,134,64256,1,8,0:0:0:0:
348,134,64357,1,8,0:0:0:0:
347,134,64458,1,8,0:0:0:0:
349,121,64661,1,8,0:0:0:0:
348,121,64762,1,0,0:0:0:0:
348,121,64864,1,8,0:0:0:0:
348,121,65067,1,8,0:0:0:0:
326,140,65269,1,0,0:0:0:0:
338,112,65472,1,8,0:0:0:0:
339,101,65573,1,8,0:0:0:0:
338,112,65675,1,8,0:0:0:0:
348,106,65877,1,0,0:0:0:0:
327,108,66283,1,0,0:0:0:0:
327,108,66485,1,0,0:0:0:0:
327,108,66688,1,8,0:0:0:0:
327,108,67094,1,0,0:0:0:0:
327,108,67296,1,8,0:0:0:0:
327,108,67398,1,8,0:0:0:0:
327,108,67499,1,8,0:0:0:0:
327,108,67702,1,8,0:0:0:0:
327,108,67904,1,0,0:0:0:0:
327,108,68107,1,0,0:0:0:0:
327,108,68310,1,8,0:0:0:0:
304,108,68512,1,0,0:0:0:0:
327,108,68715,1,8,0:0:0:0:
305,108,68817,1,0,0:0:0:0:
327,108,68918,1,8,0:0:0:0:
327,108,69019,1,8,0:0:0:0:
327,108,69121,1,0,0:0:0:0:
302,81,69323,1,0,0:0:0:0:
323,96,69526,1,8,0:0:0:0:
323,96,69729,1,0,0:0:0:0:
323,96,69931,1,0,0:0:0:0:
323,96,70134,1,0,0:0:0:0:
323,96,70337,1,8,0:0:0:0:
325,82,70438,1,8,0:0:0:0:
323,88,70540,1,0,0:0:0:0:
324,88,70742,1,8,0:0:0:0:
332,86,70844,1,8,0:0:0:0:
332,87,70945,1,0,0:0:0:0:
333,87,71148,1,8,0:0:0:0:
323,96,71350,1,0,0:0:0:0:
322,94,71553,1,0,0:0:0:0:
324,88,71756,1,0,0:0:0:0:
326,92,71958,1,8,0:0:0:0:
324,93,72060,1,8,0:0:0:0:
323,95,72161,1,0,0:0:0:0:
326,99,72364,1,0,0:0:0:0:
326,99,72769,1,8,0:0:0:0:
326,93,72972,1,0,0:0:0:0:
326,99,73175,1,0,0:0:0:0:
334,93,73377,1,0,0:0:0:0:
326,99,73580,1,8,0:0:0:0:
326,99,73783,1,0,0:0:0:0:
326,99,73985,1,4,0:0:0:0:
326,99,74188,1,4,0:0:0:0:
326,99,74391,1,4,0:0:0:0:
326,93,74796,1,0,0:0:0:0:
333,94,75202,1,8,0:0:0:0:
318,95,75404,1,8,0:0:0:0:
318,95,75506,1,8,0:0:0:0:
318,95,75607,1,0,0:0:0:0:
333,94,75810,1,8,0:0:0:0:
333,94,76012,1,8,0:0:0:0:
337,88,76215,1,0,0:0:0:0:
337,88,76418,1,0,0:0:0:0:
344,95,76621,1,0,0:0:0:0:
327,85,76722,1,0,0:0:0:0:
345,92,76823,1,8,0:0:0:0:
356,95,77026,1,0,0:0:0:0:
356,95,77229,1,8,0:0:0:0:
355,95,77431,1,8,0:0:0:0:
355,95,77634,1,8,0:0:0:0:
326,102,77837,1,0,0:0:0:0:
326,102,78040,1,8,0:0:0:0:
330,100,78242,1,0,0:0:0:0:
327,85,78344,1,0,0:0:0:0:
334,104,78445,1,8,0:0:0:0:
339,101,78546,1,0,0:0:0:0:
331,102,78648,1,0,0:0:0:0:
331,101,78749,1,8,0:0:0:0:
338,102,78850,1,0,0:0:0:0:
326,102,79053,1,0,0:0:0:0:
330,100,79256,1,8,0:0:0:0:
334,104,79458,1,0,0:0:0:0:
331,102,79661,1,0,0:0:0:0:
330,99,79864,1,8,0:0:0:0:
327,85,79965,1,0,0:0:0:0:
326,102,80067,1,8,0:0:0:0:
330,100,80269,1,0,0:0:0:0:
330,99,80472,1,0,0:0:0:0:
317,99,80675,1,8,0:0:0:0:
330,99,80877,1,8,0:0:0:0:
330,100,81283,1,8,0:0:0:0:
330,99,81384,1,8,0:0:0:0:
330,99,81485,1,0,0:0:0:0:
331,102,81688,1,8,0:0:0:0:
330,99,81790,1,8,0:0:0:0:
326,102,81891,1,8,0:0:0:0:
326,102,81992,1,8,0:0:0:0:
330,100,82094,1,0,0:0:0:0:
330,100,82296,1,0,0:0:0:0:
330,99,82499,1,8,0:0:0:0:
331,102,82702,1,0,0:0:0:0:
326,102,82904,1,0,0:0:0:0:
330,100,83107,1,0,0:0:0:0:
330,100,83310,1,8,0:0:0:0:
330,99,83512,1,0,0:0:0:0:
331,102,83715,1,0,0:0:0:0:
326,102,83918,1,0,0:0:0:0:
330,100,84019,1,0,0:0:0:0:
330,100,84121,1,8,0:0:0:0:
330,100,84323,1,0,0:0:0:0:
330,99,84526,1,0,0:0:0:0:
331,102,84729,1,0,0:0:0:0:
327,95,84830,1,0,0:0:0:0:
326,102,84931,1,8,0:0:0:0:
324,101,85134,1,0,0:0:0:0:
324,102,85337,1,0,0:0:0:0:
324,102,85540,1,0,0:0:0:0:
324,102,85742,1,8,0:0:0:0:
326,102,85945,1,0,0:0:0:0:
324,101,86148,1,0,0:0:0:0:
324,102,86350,1,8,0:0:0:0:
324,102,86553,1,8,0:0:0:0:
324,102,86756,1,0,0:0:0:0:
326,102,86958,1,0,0:0:0:0:
324,101,87161,1,8,0:0:0:0:
324,102,87364,1,8,0:0:0:0:
324,102,87567,1,0,0:0:0:0:
324,102,87769,1,0,0:0:0:0:
326,102,87972,1,12,0:0:0:0:
324,101,88175,1,12,0:0:0:0:
324,102,88377,1,8,0:0:0:0:
