osu file format v14

[General]
AudioFilename: audio.mp3
AudioLeadIn: 0
PreviewTime: 61825
Countdown: 0
SampleSet: Normal
StackLeniency: 0.7
Mode: 1
LetterboxInBreaks: 0
WidescreenStoryboard: 1

[Editor]
Bookmarks: 75045
DistanceSpacing: 1.1
BeatDivisor: 4
GridSize: 4
TimelineZoom: 1.399999

[Metadata]
Title:Irokousui (TV Size)
TitleUnicode:色香水 (TV Size)
Artist:Kamiyama Yoh
ArtistUnicode:神山羊
Creator:kanpakyin
Version:Kantan
Source:ホリミヤ
Tags:堀さんと宮村くん horimiya japanese jpop j-pop pop anime Hori san and to Miyamura kun
BeatmapID:2854814
BeatmapSetID:1381677

[Difficulty]
HPDrainRate:8
CircleSize:5
OverallDifficulty:3
ApproachRate:5
SliderMultiplier:1.4
SliderTickRate:1

[Events]
//Background and Video events
0,0,"BG2.jpg",0,30
Video,-225,"Video.mp4"
//Break Periods
//Storyboard Layer 0 (Background)
//Storyboard Layer 1 (Fail)
//Storyboard Layer 2 (Pass)
//Storyboard Layer 3 (Foreground)
//Storyboard Layer 4 (Overlay)
//Storyboard Sound Samples

[TimingPoints]
1013,405.405405405405,4,1,0,75,1,0
1013,-142.857142857143,4,1,0,50,0,0
10742,-100,4,1,0,70,0,0
62634,-111.111111111111,4,1,0,70,0,1
68107,-100,4,1,0,70,0,1
68715,-100,4,1,0,70,0,1
74391,-100,4,1,0,70,0,0
75607,-100,4,1,0,70,0,1
87972,-100,4,1,0,70,0,1
88377,-100,4,1,0,70,0,0

[Colours]
Combo1 : 176,201,240
Combo2 : 74,66,136
Combo3 : 175,97,97
Combo4 : 73,69,99

[HitObjects]
385,143,1013,5,0,0:0:0:0:
385,143,1621,1,8,0:0:0:0:
385,143,2229,1,0,0:0:0:0:
384,142,4256,1,0,0:0:0:0:
377,144,4864,1,8,0:0:0:0:
377,144,5472,1,0,0:0:0:0:
376,135,6688,1,0,0:0:0:0:
376,135,7499,1,0,0:0:0:0:
373,123,7904,1,8,0:0:0:0:
373,123,8310,1,8,0:0:0:0:
365,119,8715,1,8,0:0:0:0:
365,119,9121,1,0,0:0:0:0:
422,113,10742,5,4,0:0:0:0:
422,113,11148,1,8,0:0:0:0:
422,106,11958,1,8,0:0:0:0:
422,106,12364,1,0,0:0:0:0:
422,106,12769,1,8,0:0:0:0:
422,106,13580,1,8,0:0:0:0:
408,106,13985,1,0,0:0:0:0:
408,106,14391,1,8,0:0:0:0:
408,106,15202,1,8,0:0:0:0:
408,106,15607,1,0,0:0:0:0:
411,91,16823,1,8,0:0:0:0:
411,91,17229,1,0,0:0:0:0:
419,83,17634,1,8,0:0:0:0:
419,83,18445,1,8,0:0:0:0:
419,83,18850,1,0,0:0:0:0:
419,83,19256,1,8,0:0:0:0:
419,83,20067,1,8,0:0:0:0:
419,83,20472,1,0,0:0:0:0:
419,83,20877,1,8,0:0:0:0:
419,83,21688,1,8,0:0:0:0:
419,83,22094,1,0,0:0:0:0:
419,83,22904,1,8,0:0:0:0:
419,83,23310,1,8,0:0:0:0:
419,83,23715,1,4,0:0:0:0:
406,83,24931,1,8,0:0:0:0:
406,83,25337,1,0,0:0:0:0:
401,79,25945,1,0,0:0:0:0:
406,83,26553,1,8,0:0:0:0:
406,83,26958,1,0,0:0:0:0:
406,83,27364,1,0,0:0:0:0:
406,83,28175,1,8,0:0:0:0:
406,83,28580,1,8,0:0:0:0:
388,79,29796,1,8,0:0:0:0:
388,80,30202,1,0,0:0:0:0:
381,69,30607,1,8,0:0:0:0:
380,78,31418,1,8,0:0:0:0:
380,78,31823,1,0,0:0:0:0:
396,88,32431,1,0,0:0:0:0:
377,93,33040,1,8,0:0:0:0:
387,93,33445,1,0,0:0:0:0:
387,92,34661,1,8,0:0:0:0:
393,101,35067,1,8,0:0:0:0:
398,105,35472,1,0,0:0:0:0:
389,104,35877,1,8,0:0:0:0:
389,98,36283,1,8,0:0:0:0:
387,106,36688,1,4,0:0:0:0:
393,108,37904,1,8,0:0:0:0:
390,110,38310,1,0,0:0:0:0:
384,108,38715,1,8,0:0:0:0:
381,106,39526,1,8,0:0:0:0:
383,118,39931,1,0,0:0:0:0:
374,108,40540,1,8,0:0:0:0:
391,117,41148,1,0,0:0:0:0:
393,118,41553,1,8,0:0:0:0:
393,118,41958,1,0,0:0:0:0:
380,114,42769,1,8,0:0:0:0:
368,112,43175,1,4,0:0:0:0:
372,102,44391,1,8,0:0:0:0:
378,108,44796,1,0,0:0:0:0:
381,111,45404,1,0,0:0:0:0:
405,111,46215,1,0,0:0:0:0:
406,104,46823,1,8,0:0:0:0:
406,104,47634,1,0,0:0:0:0:
404,128,48040,1,8,0:0:0:0:
408,128,48445,1,0,0:0:0:0:
392,118,49256,1,0,0:0:0:0:
411,133,49661,1,4,0:0:0:0:
399,144,50877,1,8,0:0:0:0:
394,141,51283,1,0,0:0:0:0:
394,141,52094,1,0,0:0:0:0:
394,141,52499,1,8,0:0:0:0:
392,141,52904,1,0,0:0:0:0:
369,150,53715,1,0,0:0:0:0:
369,150,54121,1,8,0:0:0:0:
380,147,54526,1,0,0:0:0:0:
370,146,54931,1,8,0:0:0:0:
383,132,55742,1,0,0:0:0:0:
362,133,56148,1,4,0:0:0:0:
359,134,56553,1,8,0:0:0:0:
343,109,57364,1,8,0:0:0:0:
338,109,57769,1,0,0:0:0:0:
336,116,58985,1,8,0:0:0:0:
338,114,59391,1,8,0:0:0:0:
336,115,59796,1,8,0:0:0:0:
336,116,60202,1,0,0:0:0:0:
336,116,61012,1,12,0:0:0:0:
333,117,61418,1,12,0:0:0:0:
342,142,62634,5,4,0:0:0:0:
342,142,63445,1,8,0:0:0:0:
348,134,64256,1,8,0:0:0:0:
349,121,64661,1,0,0:0:0:0:
348,121,65067,1,8,0:0:0:0:
348,106,65877,1,0,0:0:0:0:
327,108,66688,1,8,0:0:0:0:
327,108,67094,1,0,0:0:0:0:
327,108,67499,1,8,0:0:0:0:
327,108,68310,1,8,0:0:0:0:
327,108,68715,1,0,0:0:0:0:
327,108,69121,1,4,0:0:0:0:
323,96,70337,1,8,0:0:0:0:
324,88,70742,1,8,0:0:0:0:
333,87,71148,1,8,0:0:0:0:
319,89,71553,1,0,0:0:0:0:
326,99,72364,1,0,0:0:0:0:
326,99,72769,1,8,0:0:0:0:
326,99,73175,1,0,0:0:0:0:
326,99,73580,1,8,0:0:0:0:
326,99,73985,1,4,0:0:0:0:
326,99,74391,1,4,0:0:0:0:
318,95,75607,1,4,0:0:0:0:
340,80,76418,1,0,0:0:0:0:
345,92,76823,1,8,0:0:0:0:
355,95,77229,1,0,0:0:0:0:
326,102,78040,1,0,0:0:0:0:
338,102,78445,1,8,0:0:0:0:
326,102,78850,1,0,0:0:0:0:
331,102,79661,1,8,0:0:0:0:
326,102,80067,1,8,0:0:0:0:
330,99,80472,1,0,0:0:0:0:
330,100,81283,1,8,0:0:0:0:
331,102,81688,1,8,0:0:0:0:
330,100,82094,1,4,0:0:0:0:
330,99,82499,1,8,0:0:0:0:
330,100,83310,1,8,0:0:0:0:
331,102,83715,1,0,0:0:0:0:
330,99,84526,1,0,0:0:0:0:
324,102,84931,1,8,0:0:0:0:
324,102,85337,1,0,0:0:0:0:
324,101,86148,1,0,0:0:0:0:
324,102,86553,1,8,0:0:0:0:
326,102,86958,1,0,0:0:0:0:
320,97,87364,1,8,0:0:0:0:
324,102,87972,1,12,0:0:0:0:
324,102,88377,1,8,0:0:0:0:
