osu file format v14

[General]
AudioFilename: audio.mp3
AudioLeadIn: 0
PreviewTime: 61825
Countdown: 0
SampleSet: Soft
StackLeniency: 0.4
Mode: 0
LetterboxInBreaks: 0
WidescreenStoryboard: 1

[Editor]
Bookmarks: 75045
DistanceSpacing: 1.1
BeatDivisor: 4
GridSize: 4
TimelineZoom: 2.599999

[Metadata]
Title:Irokousui (TV Size)
TitleUnicode:色香水 (TV Size)
Artist:Kamiyama Yoh
ArtistUnicode:神山羊
Creator:kanpakyin
Version:Insane
Source:ホリミヤ
Tags:堀さんと宮村くん horimiya japanese jpop j-pop pop anime Hori san and to Miyamura kun
BeatmapID:2869483
BeatmapSetID:1381677

[Difficulty]
HPDrainRate:5.5
CircleSize:4.2
OverallDifficulty:7
ApproachRate:8
SliderMultiplier:1.5
SliderTickRate:1

[Events]
//Background and Video events
0,0,"BG.jpg",0,0
Video,-225,"Video.mp4"
//Break Periods
//Storyboard Layer 0 (Background)
//Storyboard Layer 1 (Fail)
//Storyboard Layer 2 (Pass)
//Storyboard Layer 3 (Foreground)
//Storyboard Layer 4 (Overlay)
//Storyboard Sound Samples

[TimingPoints]
1013,405.405405405405,4,1,1,100,1,0
1013,-133.333333333333,4,2,2,45,0,0
10742,-100,4,2,1,65,0,0
15100,-100,4,2,1,5,0,0
15202,-100,4,2,1,65,0,0
21181,-100,4,2,1,5,0,0
21283,-100,4,2,1,65,0,0
21992,-100,4,2,1,5,0,0
22094,-100,4,2,1,65,0,0
30202,-100,4,2,3,45,0,0
30303,-100,4,2,1,65,0,0
36587,-100,4,2,1,45,0,0
36688,-100,4,2,3,45,0,0
36790,-100,4,2,1,65,0,0
42262,-100,4,2,1,5,0,0
42364,-100,4,2,1,65,0,0
43175,-100,4,2,1,40,0,0
43276,-100,4,2,1,65,0,0
46722,-100,4,2,3,50,0,0
46823,-100,4,2,1,65,0,0
49661,-100,4,2,1,45,0,0
49762,-100,4,2,1,65,0,0
55540,-100,4,2,1,45,0,0
55641,-100,4,2,1,25,0,0
55742,-100,4,2,1,65,0,0
56148,-100,4,2,1,45,0,0
56249,-100,4,2,1,65,0,0
61114,-100,4,2,1,5,0,0
61215,-100,4,2,1,65,0,0
61317,-100,4,2,1,5,0,0
61418,-100,4,2,1,65,0,0
61621,-100,4,2,1,5,0,0
62634,-111.111111111111,4,2,3,80,0,1
62735,-111.111111111111,4,2,1,65,0,1
63850,-111.111111111111,4,2,3,45,0,1
64560,-111.111111111111,4,2,1,65,0,1
64762,-111.111111111111,4,2,4,95,0,1
64813,-111.111111111111,4,2,3,45,0,1
64965,-111.111111111111,4,2,1,65,0,1
65472,-111.111111111111,4,2,3,50,0,1
65776,-111.111111111111,4,2,1,65,0,1
67296,-111.111111111111,4,2,3,45,0,1
67600,-111.111111111111,4,2,1,5,0,1
67702,-111.111111111111,4,2,3,45,0,1
67803,-111.111111111111,4,2,1,5,0,1
67904,-111.111111111111,4,2,3,45,0,1
68006,-111.111111111111,4,2,1,5,0,1
68107,-111.111111111111,4,2,3,45,0,1
68208,-111.111111111111,4,2,1,5,0,1
68310,-111.111111111111,4,2,1,65,0,1
68715,-111.111111111111,4,2,3,45,0,1
68918,-111.111111111111,4,2,3,55,0,1
69019,-111.111111111111,4,2,1,65,0,1
69121,-100,4,2,1,65,0,1
70235,-100,4,2,3,45,0,1
71046,-100,4,2,1,65,0,1
71958,-100,4,2,3,50,0,1
72262,-100,4,2,1,5,0,1
72364,-100,4,2,1,65,0,1
73783,-100,4,2,3,50,0,1
73985,-100,4,2,3,65,0,1
74087,-100,4,2,1,5,0,1
74188,-100,4,2,1,65,0,1
74290,-100,4,2,1,5,0,1
74391,-166.666666666667,4,2,1,65,0,0
74492,-166.666666666667,4,2,1,5,0,0
74796,-166.666666666667,4,2,1,65,0,0
75100,-166.666666666667,4,2,1,5,0,0
75202,-100,4,2,1,65,0,0
75607,-100,4,2,1,65,0,1
88377,-200,4,2,1,65,0,0
88580,-200,4,2,1,50,0,0

[Colours]
Combo1 : 176,201,240
Combo2 : 74,66,136
Combo3 : 175,97,97
Combo4 : 73,69,99

[HitObjects]
138,231,1013,6,0,L|127:301,1,56.2500021457673,6|0,0:0|0:0,0:0:0:0:
72,332,1418,1,0,0:0:0:0:
77,193,1621,2,0,P|123:206|180:177,1,112.500004291535,2|0,0:0|0:0,0:0:0:0:
41,123,2229,1,2,0:0:0:0:
41,123,4256,6,0,L|113:115,1,56.2500021457673,6|0,0:0|0:0,0:0:0:0:
218,27,4661,1,0,0:0:0:0:
140,170,4864,2,0,P|110:116|133:60,1,112.500004291535,2|0,0:0|0:0,0:0:0:0:
214,143,5472,2,0,L|281:153,1,56.2500021457673,2|0,0:0|0:0,0:0:0:0:
429,77,6688,5,6,0:0:0:0:
429,77,7094,2,0,L|417:141,1,56.2500021457673,0|0,0:0|0:0,0:0:0:0:
456,194,7499,1,2,0:0:0:0:
374,319,7702,2,0,L|351:265,1,56.2500021457673,0|0,0:0|0:0,0:0:0:0:
456,194,8107,1,2,0:0:0:0:
286,306,8310,2,0,L|211:291,1,56.2500021457673,2|0,0:0|0:0,0:0:0:0:
433,268,8715,5,0,0:0:0:0:
316,375,8918,1,2,0:0:0:0:
284,228,9121,2,0,L|306:170,1,56.2500021457673,2|0,0:0|0:0,0:0:0:0:
273,108,9526,1,0,0:0:0:0:
377,165,9729,1,0,0:0:0:0:
308,40,9931,6,0,B|277:27|277:27|243:56|183:49,1,112.500004291535,6|0,0:0|0:0,0:0:0:0:
132,25,10540,1,2,0:0:0:0:
28,81,10742,6,0,L|42:160,1,75,4|0,3:2|3:0,0:0:0:0:
193,232,11148,2,0,P|212:198|207:144,1,75,8|0,0:0|0:0,0:0:0:0:
56,231,11553,1,0,3:2:0:0:
111,180,11756,1,0,3:2:0:0:
102,290,11958,2,0,L|92:376,1,75,10|0,0:0|0:0,0:0:0:0:
234,328,12364,6,0,P|270:334|319:302,1,75,0|0,3:0|3:0,0:0:0:0:
361,259,12769,2,0,L|453:286,1,75,8|0,0:0|0:0,0:0:0:0:
411,147,13175,1,0,3:0:0:0:
495,236,13377,1,0,3:0:0:0:
472,96,13580,6,0,P|428:100|359:49,1,112.5,10|0,0:0|0:0,0:0:0:0:
355,41,13985,2,0,L|278:53,1,75,0|0,3:0|3:0,0:0:0:0:
145,131,14391,1,8,0:0:0:0:
212,23,14594,1,0,0:0:0:0:
210,175,14796,1,0,3:0:0:0:
146,58,14999,2,0,L|65:39,1,75,0|10,0:0|0:0,0:0:0:0:
15,88,15404,1,0,0:0:0:0:
181,132,15607,6,0,P|220:91|201:0,1,150,0|8,3:0|0:0,0:0:0:0:
72,40,16215,1,0,3:0:0:0:
161,216,16418,2,0,L|269:195,1,75,0|0,0:0|3:2,0:0:0:0:
373,125,16823,1,10,0:0:0:0:
328,297,17026,5,8,0:0:0:0:
328,297,17127,1,8,0:0:0:0:
328,297,17229,2,0,P|312:269|321:212,1,75,4|0,3:2|3:0,0:0:0:0:
463,150,17634,2,0,L|291:105,1,150,8|0,0:0|3:0,0:0:0:0:
266,57,18242,1,0,3:0:0:0:
448,60,18445,6,0,P|464:115|412:210,1,150,10|0,0:0|3:0,0:0:0:0:
359,226,19053,1,0,3:0:0:0:
374,74,19256,6,0,L|459:57,1,75,8|0,0:0|0:0,0:0:0:0:
501,215,19661,2,0,L|422:195,1,75,0|0,3:0|3:0,0:0:0:0:
294,301,20067,2,0,B|263:324|263:324|291:253|259:205,1,150,10|0,0:0|3:0,0:0:0:0:
205,170,20675,1,0,3:0:0:0:
118,259,20877,2,0,P|97:261|40:231,1,75,8|0,0:0|0:0,0:0:0:0:
182,310,21283,2,0,L|187:388,1,75,0|0,3:0|3:0,0:0:0:0:
245,260,21688,2,0,P|320:255|374:202,1,150,10|0,0:0|3:0,0:0:0:0:
258,142,22296,1,0,3:0:0:0:
304,303,22499,6,0,P|338:262|329:163,1,150,8|0,0:0|0:0,0:0:0:0:
204,203,23107,1,0,3:0:0:0:
285,297,23310,2,0,L|364:284,1,75,10|10,0:0|0:0,0:0:0:0:
476,209,23715,5,4,3:2:0:0:
465,283,23918,1,0,3:0:0:0:
452,357,24121,2,0,B|405:371|377:353|377:353|358:370|333:376,1,112.5,8|0,0:0|0:0,0:0:0:0:
336,381,24526,2,0,L|245:368,1,75,0|0,3:0|3:0,0:0:0:0:
169,201,24931,1,8,0:0:0:0:
108,245,25134,2,0,P|74:238|44:208,1,75,0|0,0:0|3:0,0:0:0:0:
160,126,25540,5,0,3:0:0:0:
176,280,25742,2,0,L|147:361,1,75,8|0,0:0|3:0,0:0:0:0:
250,184,26148,5,0,0:0:0:0:
274,254,26350,1,0,3:2:0:0:
300,324,26553,2,0,B|339:362|417:345|434:291,1,150,8|0,0:0|3:0,0:0:0:0:
447,229,27161,1,0,3:0:0:0:
335,381,27364,2,0,P|368:342|363:260,1,112.5,10|0,0:0|0:0,0:0:0:0:
447,229,27769,2,0,L|521:239,1,75,0|0,3:0|3:0,0:0:0:0:
302,168,28175,6,0,B|262:178|262:178|198:151|198:151|128:166,1,150,10|2,0:0|3:2,0:0:0:0:
270,91,28783,1,2,3:2:0:0:
194,238,28985,2,0,L|218:329,1,75,8|2,0:0|3:2,0:0:0:0:
162,366,29391,5,2,0:0:0:0:
278,264,29594,1,2,3:2:0:0:
130,297,29796,2,0,L|23:278,1,75,8|8,0:0|0:0,0:0:0:0:
56,283,30100,1,8,0:0:0:0:
56,283,30202,1,4,3:2:0:0:
194,238,30404,1,0,0:0:0:0:
27,213,30607,6,0,B|5:175|25:105|25:105|43:118|82:112,1,150,8|2,0:0|3:2,0:0:0:0:
132,140,31215,1,0,3:0:0:0:
194,97,31418,2,0,P|208:72|211:10,1,75,10|2,0:0|0:0,0:0:0:0:
62,113,31823,5,0,3:0:0:0:
143,39,32026,1,0,3:0:0:0:
77,189,32229,1,10,0:0:0:0:
245,159,32431,2,0,B|304:188|369:143|369:143|384:165,1,150,0|0,3:0|3:2,0:0:0:0:
434,209,33040,5,10,0:0:0:0:
324,280,33242,2,0,L|315:368,1,75,2|0,0:0|3:0,0:0:0:0:
252,237,33648,1,0,3:0:0:0:
194,350,33850,2,0,P|161:356|110:337,1,75,10|0,0:0|0:0,0:0:0:0:
61,304,34154,2,0,L|13:318,1,37.5,8|0,0:0|3:0,0:0:0:0:
260,312,34458,1,0,3:0:0:0:
122,269,34661,6,0,L|137:402,1,112.5,10|8,0:0|0:0,0:0:0:0:
134,380,35067,1,2,3:2:0:0:
201,276,35269,1,2,3:2:0:0:
68,209,35472,1,8,0:0:0:0:
68,209,35877,5,10,0:2:0:0:
128,324,36080,1,0,3:2:0:0:
173,173,36283,1,8,0:0:0:0:
173,173,36384,1,8,0:0:0:0:
173,173,36485,2,0,L|159:132,1,37.5,8|8,0:3|0:3,0:0:0:0:
234,86,36688,6,0,L|247:9,1,75,4|0,3:2|3:0,0:0:0:0:
73,75,37094,2,0,L|163:57,1,75,10|0,0:0|0:0,0:0:0:0:
328,181,37499,2,0,L|241:165,1,75,0|0,3:2|3:0,0:0:0:0:
396,128,37904,1,10,0:0:0:0:
449,278,38107,1,0,0:0:0:0:
475,156,38310,2,0,P|480:117|460:74,1,75,0|0,3:0|3:0,0:0:0:0:
304,256,38715,2,0,P|327:260|388:239,1,75,10|2,0:0|3:0,0:0:0:0:
384,230,39323,5,0,3:0:0:0:
225,288,39526,2,0,L|116:274,1,75,10|2,0:0|0:3,0:0:0:0:
304,256,39931,2,0,P|308:280|289:336,1,75,0|0,3:0|3:0,0:0:0:0:
234,209,40337,2,0,P|257:184|309:176,1,75,8|0,0:0|0:0,0:0:0:0:
385,265,40742,1,0,3:0:0:0:
448,123,40945,1,2,3:0:0:0:
308,183,41148,6,0,P|255:190|188:134,1,112.5,10|0,0:0|0:0,0:0:0:0:
205,162,41553,1,2,3:2:0:0:
303,70,41756,1,2,3:2:0:0:
129,146,41958,2,0,L|135:230,1,75,8|2,0:0|3:2,0:0:0:0:
184,87,42364,5,2,0:0:0:0:
53,139,42567,1,2,3:2:0:0:
214,197,42769,2,0,L|196:286,1,75,8|8,0:0|0:0,0:0:0:0:
184,282,43073,1,8,0:0:0:0:
184,282,43175,2,0,L|201:368,1,75,4|0,3:2|3:0,0:0:0:0:
330,308,43580,6,0,B|399:325|405:258|472:285,1,150,10|0,0:0|3:0,0:0:0:0:
511,220,44188,1,2,3:0:0:0:
403,150,44391,1,10,0:0:0:0:
471,284,44594,1,0,0:0:0:0:
480,145,44796,6,0,B|489:113|489:113|478:62,1,75,2|0,3:0|3:0,0:0:0:0:
387,222,45202,1,10,0:0:0:0:
215,173,45404,2,0,L|338:157,1,112.5,2|0,3:0|0:0,0:0:0:0:
333,146,45810,1,0,3:0:0:0:
213,91,46012,5,8,0:0:0:0:
243,249,46215,2,0,P|181:246|139:187,1,112.5,0|0,3:0|0:0,0:0:0:0:
99,191,46621,1,0,3:2:0:0:
82,199,46722,1,2,0:0:0:0:
49,235,46823,2,0,L|-1:223,2,37.5,8|0|0,0:0|0:0|3:0,0:0:0:0:
88,302,47127,6,0,L|72:391,1,75,10|0,0:0|0:0,0:0:0:0:
160,282,47431,2,0,L|167:360,1,75,0|2,3:0|0:0,0:0:0:0:
315,219,47837,1,8,0:0:0:0:
279,364,48040,5,2,3:2:0:0:
231,266,48242,1,2,3:2:0:0:
360,338,48445,2,0,L|439:333,1,75,8|0,0:0|3:0,0:0:0:0:
500,371,48749,2,0,P|511:340|499:298,1,75,8|0,0:0|0:0,0:0:0:0:
438,260,49053,1,8,0:0:0:0:
498,151,49256,1,8,0:0:0:0:
357,211,49458,1,8,0:3:0:0:
478,151,49661,6,0,L|490:64,1,75,4|0,3:2|3:0,0:0:0:0:
337,28,50067,1,8,0:0:0:0:
295,90,50269,2,0,P|325:101|380:88,1,75,0|0,0:0|3:0,0:0:0:0:
446,12,50675,5,0,3:0:0:0:
400,169,50877,2,0,L|422:284,1,112.5,8|0,0:0|0:0,0:0:0:0:
407,300,51283,2,0,B|371:307|371:307|328:291,1,75,0|0,3:0|3:0,0:0:0:0:
285,237,51688,1,10,0:0:0:0:
255,357,51891,1,0,0:0:0:0:
155,202,52094,5,0,3:0:0:0:
224,285,52296,1,0,3:0:0:0:
90,245,52499,6,0,L|14:236,1,75,10|0,0:0|0:0,0:0:0:0:
4,310,52904,1,0,3:0:0:0:
65,353,53107,1,0,3:0:0:0:
160,275,53310,6,0,P|164:248|138:175,1,75,8|0,0:0|0:0,0:0:0:0:
86,169,53715,1,0,3:0:0:0:
34,223,53918,1,0,3:0:0:0:
126,343,54121,6,0,P|168:352|212:333,1,75,8|0,0:0|0:0,0:0:0:0:
257,297,54526,1,0,3:0:0:0:
265,222,54729,1,0,3:0:0:0:
383,365,54931,6,0,L|366:284,1,75,8|0,0:0|0:0,0:0:0:0:
398,263,55235,2,0,P|368:275|315:257,1,75,8|0,0:0|0:0,0:0:0:0:
265,222,55540,2,0,P|258:206|259:177,1,37.5,4|0,3:0|0:0,0:0:0:0:
282,110,55742,2,0,L|187:124,1,75,8|8,0:3|0:0,0:0:0:0:
146,70,56046,5,8,0:0:0:0:
146,70,56148,2,0,L|64:58,1,75,4|0,2:0|0:0,0:0:0:0:
21,165,56553,6,0,B|7:194|7:194|40:232|22:298,1,112.5,8|0,0:0|0:0,0:0:0:0:
17,282,56958,2,0,L|100:267,1,75,0|0,3:0|3:0,0:0:0:0:
213,356,57364,2,0,P|166:370|111:337,1,112.5,8|0,0:0|0:0,0:0:0:0:
163,286,57769,6,0,P|166:258|140:212,1,75,0|0,3:0|3:0,0:0:0:0:
316,301,58175,2,0,P|285:300|243:271,1,75,10|0,0:0|0:0,0:0:0:0:
425,248,58580,1,0,3:0:0:0:
357,372,58783,1,0,3:0:0:0:
472,311,58985,1,10,0:0:0:0:
350,233,59188,1,0,0:0:0:0:
492,196,59391,6,0,P|499:173|483:119,1,75,0|0,3:0|3:0,0:0:0:0:
275,222,59796,2,0,L|360:234,1,75,8|0,0:0|0:0,0:0:0:0:
322,82,60202,5,0,3:0:0:0:
423,166,60404,1,0,3:0:0:0:
445,27,60607,1,8,0:0:0:0:
400,90,60810,1,0,0:0:0:0:
216,153,61012,6,0,P|236:151|253:122,1,37.5,8|0,0:0|0:0,0:0:0:0:
145,118,61215,6,0,P|127:109|90:115,1,37.5,8|0,0:0|0:0,0:0:0:0:
1,191,61418,6,0,P|31:194|77:162,1,75,8|0,0:0|0:0,0:0:0:0:
114,320,62634,6,0,L|81:163,1,134.999995880127,4|0,0:0|0:0,0:0:0:0:
129,119,63242,1,0,3:0:0:0:
221,261,63445,2,0,P|154:278|93:233,1,134.999995880127,8|2,2:0|3:2,0:0:0:0:
246,181,64053,1,0,0:0:0:0:
266,362,64256,6,0,L|167:354,1,67.4999979400635,2|0,0:0|0:0,0:0:0:0:
168,201,64661,1,2,0:0:0:0:
168,201,64762,1,8,0:0:0:0:
168,201,64864,1,0,0:0:0:0:
300,284,65067,2,0,P|363:287|414:236,1,134.999995880127,8|2,0:0|0:0,0:0:0:0:
434,161,65675,1,2,3:2:0:0:
434,316,65877,6,0,P|401:317|370:305,1,67.4999979400635,0|0,3:0|0:0,0:0:0:0:
355,182,66283,1,0,0:0:0:0:
489,259,66485,1,0,3:2:0:0:
348,323,66688,6,0,B|294:309|259:362|193:334,1,134.999995880127,8|0,0:0|3:0,0:0:0:0:
120,219,67296,1,2,0:0:0:0:
120,219,67398,1,2,0:0:0:0:
120,219,67499,2,0,L|36:230,1,67.4999979400635,2|2,0:0|0:0,0:0:0:0:
163,285,67904,1,2,0:0:0:0:
219,118,68107,1,2,0:0:0:0:
59,241,68310,2,0,B|23:264|23:264|48:204|6:156,1,134.999995880127,8|2,0:0|0:0,0:0:0:0:
140,46,68918,6,0,L|157:87,1,33.7499989700318,8|0,0:0|0:0,0:0:0:0:
219,118,69121,2,0,P|243:122|299:91,1,75,4|0,3:2|0:0,0:0:0:0:
378,5,69526,1,8,0:0:0:0:
420,177,69729,2,0,L|508:189,1,75,0|0,3:2|0:0,0:0:0:0:
451,257,70134,1,0,3:0:0:0:
343,303,70337,5,10,0:0:0:0:
343,303,70438,1,2,0:0:0:0:
343,303,70540,2,0,L|248:313,1,75,2|2,0:0|3:2,0:0:0:0:
198,287,70844,1,2,0:0:0:0:
198,287,70945,2,0,P|169:286|117:248,1,75,2|8,0:0|0:0,0:0:0:0:
215,147,71350,1,0,3:0:0:0:
80,213,71553,6,0,L|96:335,1,112.5,0|0,0:0|0:0,0:0:0:0:
33,365,71958,1,10,0:0:0:0:
33,365,72060,1,2,0:0:0:0:
33,365,72161,2,0,P|11:357|-8:338,1,37.5,2|0,0:0|0:0,0:0:0:0:
180,298,72364,6,0,L|163:388,1,75,0|0,3:0|0:0,0:0:0:0:
245,241,72769,1,8,0:0:0:0:
298,344,72972,1,0,0:0:0:0:
423,312,73175,2,0,P|393:310|347:278,1,75,0|0,3:0|3:0,0:0:0:0:
411,226,73580,2,0,L|447:372,1,150,8|10,0:0|0:2,0:0:0:0:
494,243,74188,1,8,0:2:0:0:
354,312,74391,6,0,L|214:286,1,134.999995880127,8|0,0:2|0:0,0:0:0:0:
62,345,75202,6,0,P|54:326|70:263,1,75,8|8,0:0|0:0,0:0:0:0:
117,223,75506,1,8,0:0:0:0:
117,223,75607,2,0,L|43:231,1,75,4|2,3:2|0:0,0:0:0:0:
136,57,76012,1,8,0:0:0:0:
68,109,76215,1,0,3:0:0:0:
183,180,76418,2,0,B|209:206|276:194|291:148,1,112.5,2|0,0:0|0:0,0:0:0:0:
327,99,76823,2,0,L|305:21,1,75,10|0,0:0|0:0,0:0:0:0:
233,66,77229,5,0,3:0:0:0:
360,167,77431,1,2,0:0:0:0:
424,0,77634,2,0,L|393:94,1,75,8|0,0:0|3:0,0:0:0:0:
243,151,78040,6,0,B|180:132|158:197|91:173,1,150,0|10,0:0|0:0,0:0:0:0:
42,115,78648,1,0,0:0:0:0:
51,99,78749,1,8,0:0:0:0:
61,83,78850,1,0,3:0:0:0:
222,233,79053,2,0,L|202:319,1,75,0|8,3:0|0:0,0:0:0:0:
141,358,79458,5,0,3:0:0:0:
73,244,79661,2,0,P|50:245|-2:223,1,75,2|0,0:0|0:0,0:0:0:0:
192,164,80067,5,8,0:0:0:0:
135,285,80269,1,0,0:0:0:0:
105,136,80472,1,0,3:0:0:0:
219,247,80675,2,0,L|267:236,1,37.5,0|0,3:0|0:0,0:0:0:0:
361,330,80877,2,0,P|313:322|280:300,1,75,8|0,0:0|3:0,0:0:0:0:
454,231,81283,5,8,0:0:0:0:
441,212,81384,1,8,0:0:0:0:
428,193,81485,1,0,3:0:0:0:
473,46,81688,6,0,L|464:85,1,37.5,8|8,0:0|0:0,0:0:0:0:
348,50,81891,2,0,L|395:39,1,37.5,8|8,0:0|0:0,0:0:0:0:
304,120,82094,2,0,P|264:123|217:95,1,75,4|0,3:2|3:0,0:0:0:0:
281,11,82499,1,8,0:0:0:0:
154,145,82702,1,0,0:0:0:0:
110,75,82904,1,0,3:0:0:0:
232,109,83107,1,0,3:0:0:0:
86,199,83310,2,0,L|8:192,1,75,8|0,0:0|0:0,0:0:0:0:
158,247,83715,5,0,3:0:0:0:
110,75,83918,1,0,3:0:0:0:
247,210,84121,2,0,L|220:339,1,112.5,8|0,0:0|0:0,0:0:0:0:
205,334,84526,2,0,P|173:341|125:327,1,75,0|0,3:0|3:0,0:0:0:0:
314,265,84931,1,8,0:0:0:0:
314,265,85337,5,0,3:0:0:0:
369,326,85540,1,0,3:0:0:0:
471,259,85742,2,0,P|480:230|465:180,1,75,8|0,0:0|0:0,0:0:0:0:
342,122,86148,1,0,3:0:0:0:
391,187,86350,1,0,3:0:0:0:
438,50,86553,2,0,L|524:65,1,75,8|0,0:0|0:0,0:0:0:0:
368,92,86958,6,0,P|356:71|362:13,1,75,0|0,3:0|3:0,0:0:0:0:
440,134,87364,2,0,P|401:172|326:161,1,112.5,8|0,0:0|0:0,0:0:0:0:
345,172,87769,1,0,3:0:0:0:
278,65,87972,1,8,0:0:0:0:
244,228,88175,1,8,0:0:0:0:
131,152,88377,6,0,L|169:144,1,37.5,8|0,0:0|3:0,0:0:0:0:
