osu file format v14

[General]
AudioFilename: audio.mp3
AudioLeadIn: 0
PreviewTime: 61825
Countdown: 0
SampleSet: Soft
StackLeniency: 0.4
Mode: 0
LetterboxInBreaks: 0
WidescreenStoryboard: 1

[Editor]
Bookmarks: 75045
DistanceSpacing: 0.5
BeatDivisor: 4
GridSize: 4
TimelineZoom: 2.599999

[Metadata]
Title:Irokousui (TV Size)
TitleUnicode:色香水 (TV Size)
Artist:Kamiyama Yoh
ArtistUnicode:神山羊
Creator:kanpakyin
Version:Hard
Source:ホリミヤ
Tags:堀さんと宮村くん horimiya japanese jpop j-pop pop anime Hori san and to Miyamura kun
BeatmapID:2860135
BeatmapSetID:1381677

[Difficulty]
HPDrainRate:5
CircleSize:4
OverallDifficulty:6
ApproachRate:7.3
SliderMultiplier:1.4
SliderTickRate:1

[Events]
//Background and Video events
0,0,"BG.jpg",0,0
Video,-225,"Video.mp4"
//Break Periods
//Storyboard Layer 0 (Background)
//Storyboard Layer 1 (Fail)
//Storyboard Layer 2 (Pass)
//Storyboard Layer 3 (Foreground)
//Storyboard Layer 4 (Overlay)
//Storyboard Sound Samples

[TimingPoints]
1013,405.405405405405,4,1,1,100,1,0
1013,-133.333333333333,4,2,2,45,0,0
10742,-100,4,2,1,65,0,0
15100,-100,4,2,1,5,0,0
15202,-100,4,2,1,65,0,0
21181,-100,4,2,1,5,0,0
21283,-100,4,2,1,65,0,0
21992,-100,4,2,1,5,0,0
22094,-100,4,2,1,65,0,0
30202,-100,4,2,3,45,0,0
30303,-100,4,2,1,65,0,0
36587,-100,4,2,1,45,0,0
36688,-100,4,2,3,45,0,0
36790,-100,4,2,1,65,0,0
42262,-100,4,2,1,5,0,0
42364,-100,4,2,1,65,0,0
43175,-100,4,2,1,40,0,0
43276,-100,4,2,1,65,0,0
46722,-100,4,2,3,50,0,0
46823,-100,4,2,1,65,0,0
49661,-100,4,2,1,45,0,0
49762,-100,4,2,1,65,0,0
55540,-100,4,2,1,45,0,0
55641,-100,4,2,1,65,0,0
56148,-100,4,2,1,45,0,0
56249,-100,4,2,1,65,0,0
61114,-100,4,2,1,5,0,0
61215,-100,4,2,1,65,0,0
61317,-100,4,2,1,5,0,0
61418,-100,4,2,1,65,0,0
61722,-100,4,2,1,5,0,0
61823,-100,4,2,1,30,0,0
61925,-100,4,2,1,65,0,0
62127,-100,4,2,1,5,0,0
62229,-100,4,2,2,65,0,0
62634,-111.111111111111,4,2,3,80,0,1
62735,-111.111111111111,4,2,1,65,0,1
63850,-111.111111111111,4,2,3,45,0,1
64560,-111.111111111111,4,2,1,65,0,1
64762,-111.111111111111,4,2,4,95,0,1
64813,-111.111111111111,4,2,3,45,0,1
64965,-111.111111111111,4,2,1,65,0,1
65472,-111.111111111111,4,2,3,50,0,1
65776,-111.111111111111,4,2,1,65,0,1
67296,-111.111111111111,4,2,3,45,0,1
67600,-111.111111111111,4,2,1,5,0,1
67702,-111.111111111111,4,2,3,45,0,1
67803,-111.111111111111,4,2,1,5,0,1
67904,-111.111111111111,4,2,3,45,0,1
68006,-111.111111111111,4,2,1,5,0,1
68107,-111.111111111111,4,2,3,45,0,1
68208,-111.111111111111,4,2,1,5,0,1
68310,-111.111111111111,4,2,1,65,0,1
68715,-111.111111111111,4,2,3,45,0,1
68918,-111.111111111111,4,2,3,55,0,1
69019,-111.111111111111,4,2,1,65,0,1
69121,-100,4,2,1,65,0,1
70235,-100,4,2,3,45,0,1
71046,-100,4,2,1,65,0,1
71958,-100,4,2,3,50,0,1
72262,-100,4,2,1,5,0,1
72364,-100,4,2,1,65,0,1
73783,-100,4,2,3,50,0,1
73985,-100,4,2,3,65,0,1
74087,-100,4,2,1,5,0,1
74188,-100,4,2,1,65,0,1
74290,-100,4,2,1,5,0,1
74391,-100,4,2,1,65,0,0
74492,-100,4,2,1,5,0,0
74796,-100,4,2,1,65,0,0
75100,-100,4,2,1,5,0,0
75202,-100,4,2,1,65,0,0
75607,-100,4,2,1,65,0,1
88377,-100,4,2,1,65,0,0
88580,-100,4,2,1,50,0,0

[Colours]
Combo1 : 176,201,240
Combo2 : 74,66,136
Combo3 : 175,97,97
Combo4 : 73,69,99

[HitObjects]
67,166,1013,6,0,L|123:155,1,52.5000020027161,6|0,0:0|0:0,0:0:0:0:
168,94,1418,1,0,0:0:0:0:
235,188,1621,2,0,L|301:200,1,52.5000020027161,2|0,0:0|0:0,0:0:0:0:
336,258,2026,1,0,0:0:0:0:
443,226,2229,6,0,P|463:182|444:115,1,105.000004005432,2|0,0:0|0:0,0:0:0:0:
453,128,4256,5,6,0:0:0:0:
378,151,4458,1,0,0:0:0:0:
330,87,4661,1,0,0:0:0:0:
443,48,4864,5,2,0:0:0:0:
378,151,5067,1,0,0:0:0:0:
330,87,5269,2,0,L|274:93,1,52.5000020027161,0|2,0:0|0:0,0:0:0:0:
211,48,5675,1,0,0:0:0:0:
179,163,5877,2,0,P|141:169|82:122,1,105.000004005432,0|0,0:0|0:0,0:0:0:0:
211,48,6688,5,6,0:0:0:0:
251,214,7094,2,0,L|240:269,1,52.5000020027161,0|0,0:0|0:0,0:0:0:0:
319,264,7499,2,0,L|328:329,1,52.5000020027161,2|0,0:0|0:0,0:0:0:0:
397,283,7904,2,0,L|432:334,1,52.5000020027161,0|2,0:0|0:0,0:0:0:0:
478,265,8310,1,2,0:0:0:0:
492,168,8512,1,0,0:0:0:0:
416,213,8715,5,0,0:0:0:0:
452,106,8918,1,2,0:0:0:0:
361,162,9121,6,0,B|338:173|338:173|286:141|245:166,1,105.000004005432,2|0,0:0|0:0,0:0:0:0:
214,211,9729,1,0,0:0:0:0:
237,93,9931,2,0,P|199:97|153:72,1,78.7500030040742,6|0,0:0|0:0,0:0:0:0:
148,58,10337,2,0,L|156:-2,1,52.5000020027161,0|2,0:0|0:0,0:0:0:0:
65,82,10742,6,0,L|78:163,1,70,4|0,3:2|3:0,0:0:0:0:
161,252,11148,2,0,B|222:243|234:298|314:278,1,140,8|0,0:0|3:2,0:0:0:0:
371,246,11756,1,0,3:2:0:0:
365,329,11958,2,0,L|447:319,1,70,10|0,0:0|0:0,0:0:0:0:
497,213,12364,5,0,3:0:0:0:
421,185,12567,1,0,3:0:0:0:
486,133,12769,2,0,B|495:106|495:106|472:54|472:54|492:28|474:-3,1,140,8|0,0:0|3:0,0:0:0:0:
394,18,13377,1,0,3:0:0:0:
332,134,13580,2,0,L|347:207,1,70,10|0,0:0|0:0,0:0:0:0:
275,77,13985,6,0,B|230:97|180:62|180:62|170:78|149:90,1,140,0|8,3:0|0:0,0:0:0:0:
85,36,14594,1,0,0:0:0:0:
64,178,14796,2,0,P|38:179|0:155,1,70,0|0,3:0|0:0,0:0:0:0:
141,165,15202,6,0,B|148:253|148:253|165:284,1,105,10|0,0:0|0:0,0:0:0:0:
169,278,15607,2,0,L|243:292,1,70,0|0,3:0|3:0,0:0:0:0:
293,354,16012,2,0,L|376:338,1,70,8|0,0:0|3:0,0:0:0:0:
476,243,16418,1,0,0:0:0:0:
437,374,16621,1,0,3:2:0:0:
351,266,16823,1,10,0:0:0:0:
399,201,17026,5,8,0:0:0:0:
404,187,17127,1,8,0:0:0:0:
409,173,17229,2,0,L|392:99,1,70,4|0,3:2|3:0,0:0:0:0:
458,51,17634,2,0,P|391:76|313:32,1,140,8|0,0:0|3:0,0:0:0:0:
244,153,18242,1,0,3:0:0:0:
191,87,18445,2,0,L|113:75,1,70,10|0,0:0|0:0,0:0:0:0:
68,11,18850,6,0,P|93:66|36:143,1,140,0|8,3:0|0:0,0:0:0:0:
215,278,19661,1,0,3:0:0:0:
166,346,19864,1,0,3:0:0:0:
91,306,20067,2,0,P|60:305|12:262,1,70,10|0,0:0|0:0,0:0:0:0:
85,224,20472,6,0,L|223:181,1,140,0|8,3:0|0:0,0:0:0:0:
272,117,21080,2,0,P|243:105|185:110,1,70,0|0,0:0|3:0,0:0:0:0:
328,54,21485,1,0,3:0:0:0:
295,198,21688,2,0,B|350:191|337:238|413:222,1,105,10|0,0:0|0:0,0:0:0:0:
413,213,22094,2,0,L|398:302,1,70,0|0,3:0|3:0,0:0:0:0:
284,326,22499,2,0,B|241:338|234:296|177:307,1,105,8|0,0:0|0:0,0:0:0:0:
167,317,22904,6,0,L|86:307,1,70,0|0,0:0|3:0,0:0:0:0:
164,232,23310,1,10,0:0:0:0:
204,383,23512,1,10,0:0:0:0:
284,326,23715,5,4,3:2:0:0:
361,293,23918,1,0,3:0:0:0:
363,212,24121,2,0,L|282:195,1,70,8|0,0:0|0:0,0:0:0:0:
315,116,24526,2,0,L|235:131,1,70,0|0,3:0|3:0,0:0:0:0:
164,228,24931,6,0,P|128:167|150:91,1,140,8|0,0:0|3:0,0:0:0:0:
210,53,25540,1,0,3:0:0:0:
246,128,25742,1,8,0:0:0:0:
176,174,25945,2,0,L|85:161,1,70,0|0,3:0|0:0,0:0:0:0:
40,362,26553,6,0,B|7:329|16:271|16:271|56:289,1,140,8|0,0:0|3:0,0:0:0:0:
126,334,27161,1,0,3:0:0:0:
126,334,27364,2,0,L|204:315,1,70,8|0,0:0|0:0,0:0:0:0:
270,353,27769,2,0,P|279:311|260:272,1,70,0|0,3:0|3:0,0:0:0:0:
224,215,28175,6,0,B|275:218|283:180|342:201,1,105,10|0,0:0|0:0,0:0:0:0:
340,188,28580,2,0,P|353:159|349:114,1,70,2|2,3:2|3:2,0:0:0:0:
297,56,28985,1,8,0:0:0:0:
224,215,29391,5,2,0:0:0:0:
224,215,29594,1,2,3:2:0:0:
122,246,29796,2,0,P|97:250|48:222,1,70,8|8,0:0|0:0,0:0:0:0:
47,217,30100,1,8,0:0:0:0:
38,201,30202,2,0,L|45:271,1,70,4|0,3:2|3:0,0:0:0:0:
114,169,30607,6,0,B|139:135|105:70|105:70|129:54|143:31,1,140,8|2,0:0|3:2,0:0:0:0:
231,145,31215,1,0,3:0:0:0:
292,88,31418,2,0,L|372:104,1,70,10|2,0:0|0:0,0:0:0:0:
276,11,31823,5,0,3:0:0:0:
360,101,32026,1,0,3:0:0:0:
220,61,32229,1,10,0:0:0:0:
345,37,32431,2,0,P|361:111|335:176,1,140,0|0,3:0|3:2,0:0:0:0:
348,284,33040,5,10,0:0:0:0:
411,338,33242,2,0,L|485:328,1,70,2|0,0:0|3:0,0:0:0:0:
421,255,33648,1,0,3:0:0:0:
333,360,33850,2,0,L|222:344,1,105,10|8,0:0|0:0,0:0:0:0:
218,353,34256,2,0,P|188:358|130:341,1,70,0|0,3:0|3:0,0:0:0:0:
178,231,34661,1,10,0:0:0:0:
72,358,34864,2,0,L|80:314,1,35,0|8,0:0|0:0,0:0:0:0:
76,305,35067,6,0,L|64:234,1,70,2|2,3:2|3:2,0:0:0:0:
178,231,35472,1,8,0:0:0:0:
178,231,35877,1,10,0:2:0:0:
91,166,36080,1,0,3:2:0:0:
148,311,36283,2,0,L|188:304,1,35,8|8,0:0|0:0,0:0:0:0:
198,303,36485,2,0,L|271:313,1,70,8|4,0:3|3:2,0:0:0:0:
343,349,36891,5,0,3:0:0:0:
399,286,37094,2,0,P|422:232|407:149,1,140,10|0,0:0|3:2,0:0:0:0:
331,122,37702,1,0,3:0:0:0:
442,77,37904,1,10,0:0:0:0:
363,46,38107,6,0,L|277:33,1,70,0|0,0:0|3:0,0:0:0:0:
204,114,38512,1,0,3:0:0:0:
155,45,38715,1,10,0:0:0:0:
105,165,38918,6,0,P|50:169|1:103,1,140,2|0,3:0|3:0,0:0:0:0:
51,39,39526,1,10,0:0:0:0:
105,165,39729,2,0,L|120:253,1,70,2|0,0:3|3:0,0:0:0:0:
200,245,40134,2,0,L|185:319,1,70,0|8,3:0|0:0,0:0:0:0:
253,364,40540,1,0,0:0:0:0:
356,289,40742,2,0,B|397:297|397:297|448:272|448:272|504:288,1,140,0|10,3:0|0:0,0:0:0:0:
477,199,41350,1,0,0:0:0:0:
356,289,41553,6,0,L|371:366,1,70,2|2,3:2|3:2,0:0:0:0:
287,239,41958,1,8,0:0:0:0:
287,239,42364,5,2,0:0:0:0:
373,158,42567,1,2,3:2:0:0:
243,173,42769,2,0,L|152:157,1,70,8|8,0:0|0:0,0:0:0:0:
165,166,43073,1,8,0:0:0:0:
156,171,43175,6,0,P|128:176|69:156,1,70,4|0,3:2|3:0,0:0:0:0:
52,90,43580,2,0,L|28:248,1,140,10|0,0:0|3:0,0:0:0:0:
85,292,44188,1,2,3:0:0:0:
161,257,44391,2,0,L|235:274,1,70,10|0,0:0|0:0,0:0:0:0:
265,360,44796,5,2,3:0:0:0:
265,360,44999,2,0,L|182:342,1,70,0|10,3:0|0:0,0:0:0:0:
297,222,45404,2,0,B|339:212|339:212|392:228|392:228|444:216,1,140,2|0,3:0|0:0,0:0:0:0:
462,140,46012,1,8,0:0:0:0:
310,144,46215,6,0,L|285:286,1,140,0|0,3:0|3:2,0:0:0:0:
277,287,46722,1,2,0:0:0:0:
268,292,46823,2,0,P|238:299|183:278,1,70,8|0,0:0|3:0,0:0:0:0:
194,298,47127,2,0,P|164:294|142:270,1,35,10|2,0:0|0:0,0:0:0:0:
117,219,47431,1,0,3:0:0:0:
81,295,47634,2,0,L|99:379,1,70,2|8,0:0|0:0,0:0:0:0:
36,230,48040,5,2,3:2:0:0:
160,291,48242,1,2,3:2:0:0:
147,146,48445,2,0,B|183:157|220:121|251:143,1,105,8|8,0:0|0:0,0:0:0:0:
261,149,48850,2,0,L|244:66,1,70,0|10,3:0|0:0,0:0:0:0:
366,40,49256,1,8,0:0:0:0:
332,116,49458,1,8,0:3:0:0:
285,6,49661,6,0,B|241:39|186:11|186:11|150:19|140:39,1,140,4|8,3:2|0:0,0:0:0:0:
108,94,50269,2,0,L|30:79,1,70,0|0,0:0|3:0,0:0:0:0:
59,162,50675,1,0,3:0:0:0:
178,137,50877,2,0,P|194:215|160:275,1,140,8|0,0:0|3:0,0:0:0:0:
93,304,51485,1,0,3:0:0:0:
162,351,51688,2,0,L|248:344,1,70,10|0,0:0|0:0,0:0:0:0:
303,300,52094,5,0,3:0:0:0:
301,383,52296,1,0,3:0:0:0:
376,346,52499,2,0,P|393:302|426:254,1,105,10|0,0:0|0:0,0:0:0:0:
443,235,52904,2,0,L|520:225,1,70,0|0,3:0|3:0,0:0:0:0:
384,182,53310,2,0,B|393:166|393:166|362:119|396:68,1,105,8|0,0:0|0:0,0:0:0:0:
402,82,53715,2,0,L|314:72,1,70,0|0,3:0|3:0,0:0:0:0:
253,110,54120,6,0,P|242:72|256:33,1,70,8|0,0:0|0:0,0:0:0:0:
324,151,54526,2,0,P|362:160|389:192,1,70,0|0,3:0|3:0,0:0:0:0:
255,188,54931,2,0,P|227:216|186:223,1,70,8|0,0:0|0:0,0:0:0:0:
196,236,55235,6,0,P|176:232|145:215,1,35,8|0,0:0|3:0,0:0:0:0:
108,114,55540,1,4,3:0:0:0:
177,153,55742,1,8,0:3:0:0:
220,51,55945,5,8,0:0:0:0:
220,51,56046,1,8,0:0:0:0:
220,51,56148,2,0,L|299:61,1,70,4|0,2:0|0:0,0:0:0:0:
367,27,56553,1,8,0:0:0:0:
355,110,56756,2,0,L|442:99,1,70,0|0,0:0|3:0,0:0:0:0:
400,212,57161,1,0,3:0:0:0:
478,178,57364,6,0,B|488:213|488:213|465:320,1,140,8|0,0:0|3:0,0:0:0:0:
405,354,57972,1,0,3:0:0:0:
329,249,58175,5,10,0:0:0:0:
398,278,58377,1,0,0:0:0:0:
269,358,58580,5,0,3:0:0:0:
336,324,58783,1,0,3:0:0:0:
252,260,58985,2,0,L|167:267,1,70,10|0,0:0|0:0,0:0:0:0:
92,188,59391,5,0,3:0:0:0:
162,163,59594,1,0,3:0:0:0:
225,83,59796,6,0,L|133:69,1,70
42,49,60202,5,0,3:0:0:0:
112,4,60404,1,0,3:0:0:0:
84,118,60607,6,0,L|92:197,1,70,8|0,0:0|0:0,0:0:0:0:
146,295,61012,2,0,P|161:260|154:211,1,70,8|8,0:0|0:0,0:0:0:0:
48,254,61418,1,8,0:0:0:0:
414,271,62634,6,0,L|260:251,1,125.999996154785,4|0,0:0|0:0,0:0:0:0:
221,288,63242,1,0,3:0:0:0:
152,176,63445,2,0,B|119:179|119:179|62:159|62:159|23:164,1,125.999996154785,8|2,2:0|3:2,0:0:0:0:
17,88,64053,1,0,0:0:0:0:
83,52,64256,1,2,0:0:0:0:
152,176,64458,2,0,L|131:256,1,62.9999980773926,0|2,0:0|0:0,0:0:0:0:
119,246,64762,1,8,0:0:0:0:
102,255,64864,1,2,0:0:0:0:
205,267,65067,6,0,L|226:368,1,94.499997116089,8|0,0:0|0:0,0:0:0:0:
239,368,65472,2,0,P|259:370|304:357,1,62.9999980773926,2|2,0:0|3:2,0:0:0:0:
375,266,65877,1,0,3:0:0:0:
375,266,66283,6,0,L|446:277,1,62.9999980773926,0|0,0:0|3:2,0:0:0:0:
495,226,66688,2,0,B|506:196|506:196|491:85,1,125.999996154785,8|0,0:0|3:0,0:0:0:0:
417,98,67296,1,2,0:0:0:0:
417,98,67398,1,2,0:0:0:0:
417,98,67499,2,0,L|422:28,1,62.9999980773926,2|2,0:0|0:0,0:0:0:0:
364,156,67904,5,2,0:0:0:0:
441,172,68107,1,2,0:0:0:0:
335,85,68310,2,0,B|283:71|266:111|192:89,1,125.999996154785,8|2,0:0|0:0,0:0:0:0:
139,71,68918,1,8,0:0:0:0:
139,71,69019,1,0,0:0:0:0:
139,71,69121,2,0,L|117:-22,1,70,4|0,3:2|0:0,0:0:0:0:
88,156,69526,6,0,B|152:145|160:203|245:189,1,140,8|0,0:0|0:0,0:0:0:0:
226,275,70134,2,0,L|306:269,1,70,0|10,3:0|0:0,0:0:0:0:
359,325,70540,2,0,P|321:282|338:197,1,140,2|2,0:0|0:0,0:0:0:0:
395,150,71148,1,8,0:0:0:0:
395,150,71553,2,0,L|482:161,1,70,0|0,0:0|3:0,0:0:0:0:
490,78,71958,1,10,0:0:0:0:
485,68,72060,1,2,0:0:0:0:
480,58,72161,1,2,0:0:0:0:
354,87,72364,6,0,P|302:97|251:67,1,105,0|0,3:0|0:0,0:0:0:0:
258,56,72769,2,0,L|276:136,1,70,8|0,0:0|0:0,0:0:0:0:
195,191,73175,5,0,3:0:0:0:
166,75,73377,1,0,3:0:0:0:
290,131,73580,2,0,P|254:135|214:117,1,70,8|2,0:0|0:0,0:0:0:0:
125,199,73985,6,0,L|211:189,1,70,10|8,0:2|0:2,0:0:0:0:
258,56,74391,1,8,0:2:0:0:
117,222,75202,5,8,0:0:0:0:
194,190,75404,1,8,0:0:0:0:
210,197,75506,1,8,0:0:0:0:
225,204,75607,2,0,L|267:198,1,35,4|0,3:2|0:0,0:0:0:0:
291,223,75810,6,0,P|332:228|370:203,1,70,2|8,0:0|0:0,0:0:0:0:
453,170,76215,1,0,3:0:0:0:
370,155,76418,2,0,L|391:261,1,105,2|0,0:0|0:0,0:0:0:0:
402,275,76823,2,0,L|392:353,1,70,10|0,0:0|0:0,0:0:0:0:
271,345,77229,5,0,3:0:0:0:
308,281,77431,1,2,0:0:0:0:
187,283,77634,2,0,P|154:284|111:258,1,70,8|0,0:0|3:0,0:0:0:0:
75,204,78040,2,0,L|-4:215,1,70,0|0,0:0|3:0,0:0:0:0:
41,125,78445,1,10,0:0:0:0:
146,162,78648,5,0,0:0:0:0:
150,149,78749,1,8,0:0:0:0:
154,135,78850,2,0,L|170:213,1,70,0|0,3:0|3:0,0:0:0:0:
257,123,79256,2,0,B|274:94|248:41|248:41|258:22,1,105,8|0,0:0|0:0,0:0:0:0:
271,15,79661,6,0,L|349:23,1,70,2|0,0:0|0:0,0:0:0:0:
374,99,80067,1,8,0:0:0:0:
452,69,80269,1,0,0:0:0:0:
488,144,80472,2,0,L|496:217,1,70,0|0,3:0|3:0,0:0:0:0:
405,311,80877,6,0,L|417:235,1,70,8|0,0:0|3:0,0:0:0:0:
380,169,81283,1,8,0:0:0:0:
366,173,81384,1,8,0:0:0:0:
352,177,81485,2,0,P|323:177|279:156,1,70,0|8,3:0|0:0,0:0:0:0:
247,96,81891,5,8,0:0:0:0:
247,96,81992,1,8,0:0:0:0:
247,96,82094,2,0,L|228:255,1,140,4|8,3:2|0:0,0:0:0:0:
183,305,82702,1,0,0:0:0:0:
111,261,82904,1,0,3:0:0:0:
159,192,83107,1,0,3:0:0:0:
181,292,83310,2,0,L|193:363,1,70,8|0,0:0|0:0,0:0:0:0:
315,257,83715,5,0,3:0:0:0:
345,335,83918,2,0,L|275:325,1,70,0|8,3:0|0:0,0:0:0:0:
394,272,84323,1,0,0:0:0:0:
394,272,84526,2,0,P|422:279|469:259,1,70,0|0,3:0|3:0,0:0:0:0:
497,191,84931,2,0,L|470:346,1,140,8|0,0:0|3:0,0:0:0:0:
407,382,85540,5,0,3:0:0:0:
318,304,85742,2,0,L|245:313,1,70,8|0,0:0|0:0,0:0:0:0:
303,195,86148,1,0,3:0:0:0:
362,243,86350,1,0,3:0:0:0:
238,237,86553,6,0,L|154:225,1,70,8|0,0:0|0:0,0:0:0:0:
292,121,86958,1,0,3:0:0:0:
303,195,87161,1,0,3:0:0:0:
187,149,87364,6,0,L|105:163,1,70,8|0,0:0|0:0,0:0:0:0:
53,121,87769,1,0,3:0:0:0:
158,74,87972,5,8,0:0:0:0:
52,196,88175,1,8,0:0:0:0:
187,149,88377,6,0,L|166:240,1,70,8|0,0:0|3:0,0:0:0:0:
