osu file format v14

[General]
AudioFilename: audio.mp3
AudioLeadIn: 0
PreviewTime: 61825
Countdown: 0
SampleSet: Soft
StackLeniency: 0
Mode: 0
LetterboxInBreaks: 0
WidescreenStoryboard: 1

[Editor]
Bookmarks: 75045
DistanceSpacing: 1.1
BeatDivisor: 4
GridSize: 4
TimelineZoom: 2.599999

[Metadata]
Title:Irokousui (TV Size)
TitleUnicode:色香水 (TV Size)
Artist:Kamiyama Yoh
ArtistUnicode:神山羊
Creator:kanpakyin
Version:Easy
Source:ホリミヤ
Tags:堀さんと宮村くん horimiya japanese jpop j-pop pop anime Hori san and to Miyamura kun
BeatmapID:2854812
BeatmapSetID:1381677

[Difficulty]
HPDrainRate:3
CircleSize:3.5
OverallDifficulty:3
ApproachRate:4.5
SliderMultiplier:0.8
SliderTickRate:1

[Events]
//Background and Video events
0,0,"BG.jpg",0,0
Video,-225,"Video.mp4"
//Break Periods
//Storyboard Layer 0 (Background)
//Storyboard Layer 1 (Fail)
//Storyboard Layer 2 (Pass)
//Storyboard Layer 3 (Foreground)
//Storyboard Layer 4 (Overlay)
//Storyboard Sound Samples

[TimingPoints]
1013,405.405405405405,4,2,2,45,1,0
10742,-100,4,2,1,65,0,0
15100,-100,4,2,1,5,0,0
15202,-100,4,2,1,65,0,0
21181,-100,4,2,1,5,0,0
21283,-100,4,2,1,65,0,0
21992,-100,4,2,1,5,0,0
22094,-100,4,2,1,65,0,0
30202,-100,4,2,3,45,0,0
30303,-100,4,2,1,65,0,0
36587,-100,4,2,1,45,0,0
36688,-100,4,2,3,45,0,0
36790,-100,4,2,1,65,0,0
42262,-100,4,2,1,5,0,0
42364,-100,4,2,1,65,0,0
43175,-100,4,2,1,40,0,0
43276,-100,4,2,1,65,0,0
46722,-100,4,2,3,50,0,0
46823,-100,4,2,1,65,0,0
49661,-100,4,2,1,45,0,0
49762,-100,4,2,1,65,0,0
55540,-100,4,2,1,45,0,0
55641,-100,4,2,1,65,0,0
56148,-100,4,2,1,45,0,0
56249,-100,4,2,1,65,0,0
61114,-100,4,2,1,5,0,0
61215,-100,4,2,1,65,0,0
61317,-100,4,2,1,5,0,0
61418,-100,4,2,1,65,0,0
62634,-100,4,2,3,80,0,1
62735,-100,4,2,1,65,0,1
63850,-100,4,2,3,45,0,1
64560,-100,4,2,1,65,0,1
64762,-100,4,2,4,95,0,1
64813,-100,4,2,3,45,0,1
64965,-100,4,2,1,65,0,1
65472,-100,4,2,3,50,0,1
65776,-100,4,2,1,65,0,1
67296,-100,4,2,3,45,0,1
67600,-100,4,2,1,5,0,1
67702,-100,4,2,3,45,0,1
67803,-100,4,2,1,5,0,1
67904,-100,4,2,3,45,0,1
68006,-100,4,2,1,5,0,1
68107,-100,4,2,3,45,0,1
68208,-100,4,2,1,5,0,1
68310,-100,4,2,1,65,0,1
68715,-100,4,2,3,45,0,1
68918,-100,4,2,3,55,0,1
69019,-100,4,2,1,65,0,1
70235,-100,4,2,3,45,0,1
71046,-100,4,2,1,65,0,1
71958,-100,4,2,3,50,0,1
72262,-100,4,2,1,5,0,1
72364,-100,4,2,1,65,0,1
73783,-100,4,2,3,50,0,1
73985,-100,4,2,3,65,0,1
74087,-100,4,2,1,5,0,1
74188,-100,4,2,1,65,0,1
74290,-100,4,2,1,5,0,1
74391,-100,4,2,1,65,0,0
74492,-100,4,2,1,5,0,0
74796,-100,4,2,1,65,0,0
75100,-100,4,2,1,5,0,0
75202,-100,4,2,1,65,0,0
75607,-100,4,2,1,65,0,1
88377,-100,4,2,1,65,0,0
88580,-100,4,2,1,50,0,0

[Colours]
Combo1 : 176,201,240
Combo2 : 74,66,136
Combo3 : 175,97,97
Combo4 : 73,69,99

[HitObjects]
81,238,1013,6,0,L|201:219,1,120,6|2,0:0|0:0,0:0:0:0:
246,95,2229,1,2,0:0:0:0:
321,139,2634,1,0,0:0:0:0:
321,139,4256,6,0,B|347:163|347:163|313:199|333:242,1,120,6|2,0:0|0:0,0:0:0:0:
413,344,5472,1,2,0:0:0:0:
149,365,6688,1,6,0:0:0:0:
61,212,7499,6,0,L|147:196,1,80,2|0,0:0|0:0,0:0:0:0:
127,110,8310,2,0,L|224:126,1,80,2|0,0:0|0:0,0:0:0:0:
217,35,9121,2,0,B|293:31|281:104|376:96,1,160,2|6,0:0|0:0,0:0:0:0:
436,53,10337,1,0,0:0:0:0:
436,140,10742,6,0,L|449:227,1,80,4|8,3:2|0:0,0:0:0:0:
365,249,11553,1,0,3:2:0:0:
339,333,11958,2,0,P|369:340|418:321,2,80,10|0|8,0:0|3:0|0:0,0:0:0:0:
280,267,13175,2,0,L|192:284,1,80,0|10,3:0|0:0,0:0:0:0:
140,345,13985,6,0,P|89:293|101:202,1,160,0|0,3:0|3:0,0:0:0:0:
168,162,15202,1,10,0:0:0:0:
86,129,15607,2,0,L|-9:147,2,80,0|8|0,3:0|0:0|0:0,0:0:0:0:
155,75,16823,1,10,0:0:0:0:
237,107,17229,6,0,P|314:118|370:66,1,160,4|0,3:2|3:0,0:0:0:0:
291,222,18850,2,0,P|218:216|156:277,1,160,0|0,3:0|3:0,0:0:0:0:
224,330,20067,1,10,0:0:0:0:
307,302,20472,2,0,L|469:321,1,160,0|0,3:0|3:0,0:0:0:0:
509,244,21688,1,10,0:0:0:0:
454,174,22094,6,0,B|399:197|357:131|296:152,1,160,0|0,3:0|0:0,0:0:0:0:
239,86,23310,1,10,0:0:0:0:
302,25,23715,1,4,3:2:0:0:
372,78,24121,6,0,L|342:247,1,160,8|8,0:0|0:0,0:0:0:0:
399,304,25337,1,0,3:0:0:0:
330,359,25742,1,8,0:0:0:0:
278,287,26148,2,0,L|192:300,1,80,0|8,0:0|0:0,0:0:0:0:
145,228,26958,1,0,3:0:0:0:
209,168,27364,2,0,L|369:194,1,160,10|10,0:0|0:0,0:0:0:0:
453,175,28580,6,0,B|468:139|468:139|452:96,1,80,2|8,3:2|0:2,0:2:0:0:
501,26,29391,2,0,L|412:7,1,80,2|8,0:2|0:0,0:0:0:0:
365,75,30202,1,4,0:0:0:0:
282,44,30607,6,0,B|240:70|166:39|166:39|148:50|116:61,1,160,8|10,0:0|0:0,0:0:0:0:
43,41,31823,1,0,3:0:0:0:
67,125,32229,2,0,L|97:294,1,160,10|10,0:0|0:0,0:0:0:0:
10,307,33445,1,0,3:0:0:0:
71,370,33850,1,10,0:0:0:0:
156,346,34256,1,0,3:0:0:0:
181,261,34661,1,10,0:0:0:0:
265,286,35067,6,0,B|298:272|339:290|339:290|352:236|401:231,1,160,2|10,3:2|0:2,0:0:0:0:
475,202,36283,1,8,0:0:0:0:
483,114,36688,1,4,3:2:0:0:
402,149,37094,6,0,L|228:128,1,160,10|10,0:0|0:0,0:0:0:0:
160,99,38310,1,0,3:0:0:0:
229,45,38715,2,0,L|219:1,1,40,8|2,0:0|3:0,0:0:0:0:
334,71,39526,6,0,B|345:135|345:135|328:172|328:172|338:234,1,160,10|8,0:0|0:0,0:0:0:0:
275,288,40742,1,0,3:0:0:0:
207,231,41148,2,0,L|218:152,1,80,10|2,0:0|3:2,0:0:0:0:
132,158,41958,2,0,P|59:160|17:84,1,160,8|8,0:0|0:0,0:0:0:0:
76,27,43175,5,4,3:2:0:0:
152,70,43580,1,10,0:0:0:0:
132,158,43985,2,0,L|142:253,1,80,0|10,3:0|0:0,0:0:0:0:
217,279,44796,2,0,B|264:272|276:322|330:309,1,120,2|2,3:0|3:0,0:0:0:0:
458,337,46012,6,0,L|444:284,1,40,8|0,0:0|3:0,0:0:0:0:
435,166,46823,2,0,P|447:121|436:88,1,80,8|2,0:0|0:0,0:0:0:0:
354,60,47634,1,2,0:0:0:0:
307,134,48040,2,0,L|221:124,1,80,2|8,3:2|0:0,0:0:0:0:
249,39,48850,2,0,P|208:43|166:22,1,80,0|8,3:0|0:0,0:0:0:0:
89,54,49661,6,0,L|54:216,1,160,4|0,3:2|3:0,0:0:0:0:
95,288,50877,2,0,P|59:299|11:282,1,80,8|0,0:0|3:0,0:0:0:0:
173,184,52094,5,0,3:0:0:0:
237,243,52499,2,0,B|276:233|276:233|349:271|349:271|389:259,1,160,10|8,0:0|0:0,0:0:0:0:
457,210,53715,1,0,3:0:0:0:
461,298,54121,1,8,0:0:0:0:
385,343,54526,2,0,P|346:349|304:338,1,80,0|8,3:0|0:0,0:0:0:0:
229,381,55337,2,0,P|219:338|234:295,1,80,0|8,3:0|0:3,0:0:0:0:
295,247,56148,6,0,L|141:201,1,160,4|0,2:0|3:0,0:0:0:0:
85,133,57364,1,8,0:0:0:0:
144,68,57769,1,0,3:0:0:0:
238,216,58580,6,0,L|332:198,1,80,0|10,3:0|0:0,0:0:0:0:
361,125,59391,1,0,3:0:0:0:
435,170,59796,1,8,0:0:0:0:
389,245,60202,2,0,L|475:256,1,80,0|8,3:0|0:0,0:0:0:0:
466,343,61012,6,0,P|493:346|517:329,2,40,8|8|8,0:0|0:0|0:0,0:0:0:0:
203,312,62634,6,0,B|160:329|160:329|129:266|179:212,1,160,4|8,0:0|2:0,0:0:0:0:
92,180,63850,2,0,L|3:192,2,80,2|2|2,3:2|0:0|0:0,0:0:0:0:
171,141,65067,2,0,B|197:106|173:37|173:37|201:4|224:22,1,160,8|0,0:0|3:0,0:0:0:0:
369,105,66688,5,8,0:0:0:0:
375,193,67094,2,0,P|338:188|298:151,1,80,0|2,3:0|0:0,0:0:0:0:
284,77,67904,1,2,0:0:0:0:
369,105,68310,1,8,0:0:0:0:
375,193,68715,2,0,L|353:277,1,80,2|4,0:0|3:2,0:0:0:0:
275,231,69526,5,8,0:0:0:0:
281,318,69931,1,0,0:0:0:0:
199,351,70337,2,0,P|169:361|115:351,1,80,10|2,0:0|3:2,0:0:0:0:
157,273,71148,2,0,P|119:251|102:202,1,80,8|0,0:0|0:0,0:0:0:0:
185,186,71958,2,0,P|169:149|180:98,1,80,10|0,0:0|3:0,0:0:0:0:
258,135,72769,2,0,L|420:103,1,160,8|8,0:0|0:0,0:0:0:0:
477,41,73985,6,0,L|493:0,2,40,10|8|8,0:2|0:2|0:2,0:0:0:0:
402,213,75202,1,8,0:0:0:0:
443,290,75607,6,0,B|370:284|364:342|287:325,1,160,4|2,3:2|0:0,0:0:0:0:
223,269,76823,1,10,0:0:0:0:
306,240,77229,5,0,3:0:0:0:
291,325,77634,1,8,0:0:0:0:
207,353,78040,2,0,L|116:347,1,80,0|10,0:0|0:0,0:0:0:0:
71,276,78850,2,0,B|52:256|52:256|86:218|56:157|56:157|84:124,1,160,0|2,3:0|0:0,0:0:0:0:
159,161,80067,2,0,L|253:138,1,80,8|0,0:0|3:0,0:0:0:0:
316,104,80877,1,8,0:0:0:0:
257,38,81283,6,0,B|189:10|173:82|101:52,1,160,8|4,0:0|3:2,0:0:0:0:
32,104,82499,2,0,L|49:189,1,80,8|0,0:0|3:0,0:0:0:0:
121,230,83310,1,8,0:0:0:0:
200,192,83715,2,0,B|241:203|241:203|282:192,1,80,0|8,3:0|0:0,0:0:0:0:
340,131,84526,1,0,3:0:0:0:
365,215,84931,2,0,L|347:376,1,160,8|8,0:0|0:0,0:0:0:0:
435,368,86148,5,0,3:0:0:0:
504,314,86553,1,8,0:0:0:0:
493,226,86958,2,0,B|500:169|500:169|492:144,1,80,0|8,3:0|0:0,0:0:0:0:
439,77,87769,1,0,3:0:0:0:
354,52,88175,2,0,L|313:43,2,40,8|8|0,0:0|0:0|3:0,0:0:0:0:
