osu file format v14

[General]
AudioFilename: audio.mp3
AudioLeadIn: 0
PreviewTime: 61720
Countdown: 0
SampleSet: Soft
StackLeniency: 0.2
Mode: 0
LetterboxInBreaks: 0
WidescreenStoryboard: 0

[Editor]
DistanceSpacing: 1.1
BeatDivisor: 2
GridSize: 4
TimelineZoom: 1.6

[Metadata]
Title:Irokousui (TV Size)
TitleUnicode:色香水 (TV Size)
Artist:Kamiyama Yoh
ArtistUnicode:神山羊
Creator:KumiDaiko
Version:Nostalgia
Source:ホリミヤ
Tags:堀さんと宮村くん horimiya opening op japanese jpop j-pop pop anime hori san hori-san and to miyamura-kun miyamura kun iro kousui
BeatmapID:3173425
BeatmapSetID:1553187

[Difficulty]
HPDrainRate:4.5
CircleSize:5
OverallDifficulty:6.5
ApproachRate:7.5
SliderMultiplier:1.7
SliderTickRate:1

[Events]
//Background and Video events
0,0,"bg.jpg",0,0
Video,0,"vid.mp4"
//Break Periods
//Storyboard Layer 0 (Background)
//Storyboard Layer 1 (Fail)
//Storyboard Layer 2 (Pass)
//Storyboard Layer 3 (Foreground)
//Storyboard Layer 4 (Overlay)
//Storyboard Sound Samples

[TimingPoints]
-2230,405.405405405405,4,2,1,35,1,0
1013,-133.333333333333,4,2,1,35,0,0
9931,-105.263157894737,4,2,1,35,0,0
10742,-105.263157894737,4,2,1,45,0,0
59391,-105.263157894737,4,2,1,50,0,0
60202,-105.263157894737,4,2,1,55,0,0
61012,-90.9090909090909,4,2,1,65,0,0
61823,-133.333333333333,4,2,1,45,0,0
62634,-117.647058823529,4,2,1,50,0,1
69121,-105.263157894737,4,2,1,50,0,1
73985,-90.9090909090909,4,2,1,65,0,1
74391,-90.9090909090909,4,2,1,65,0,0
74594,-133.333333333333,4,2,1,45,0,0
75607,-105.263157894737,4,2,1,50,0,1
88378,-117.647058823529,4,2,1,50,0,0

[Colours]
Combo1 : 143,184,205
Combo2 : 75,126,233

[HitObjects]
93,162,1013,6,0,L|77:312,1,127.5,2|0,2:0|0:0,0:0:0:0:
116,348,1621,2,0,L|266:364,1,127.5
312,371,2229,1,2,2:0:0:0:
447,337,2634,5,2,2:0:0:0:
447,337,2837,1,2,2:0:0:0:
363,70,3648,6,0,L|356:133,2,63.7500000000002,2|2|2,2:0|2:0|2:0,0:0:0:0:
309,25,4256,2,0,L|182:11,1,127.5,0|2,0:0|2:0,0:0:0:0:
121,47,4864,2,0,L|107:173,1,127.5,2|0,2:0|0:0,0:0:0:0:
128,241,5472,1,2,2:0:0:0:
63,365,5877,6,0,L|0:358,2,63.7500000000002,2|2|2,2:0|2:0|2:0,0:0:0:0:
126,334,6485,1,2,2:0:0:0:
248,266,6891,5,2,2:0:0:0:
248,266,7094,2,0,L|311:272,1,63.7500000000002,2|2,2:0|2:0,0:0:0:0:
368,313,7499,1,2,2:0:0:0:
429,279,7702,2,0,B|479:198|479:198|433:81,1,191.250000000001,2|0,2:0|0:0,0:0:0:0:
408,47,8512,6,0,L|345:41,1,63.7500000000002,2|2,2:0|2:0,0:0:0:0:
274,35,8918,1,2,2:0:0:0:
220,80,9121,5,0,0:0:0:0:
288,102,9323,1,0,0:0:0:0:
288,172,9526,1,0,0:0:0:0:
220,192,9729,1,2,2:0:0:0:
180,135,9931,6,0,B|166:151|166:151|88:131|88:131|74:144,1,121.124996765614,2|0,2:0|0:0,0:0:0:0:
48,175,10337,1,2,2:0:0:0:
48,175,10540,1,2,2:0:0:0:
37,254,10742,6,0,L|28:339,1,80.7499999999999,4|0,1:2|1:2,0:0:0:0:
94,381,11148,1,8,2:0:0:0:
94,381,11350,1,0,0:0:0:0:
154,326,11553,2,0,L|239:335,1,80.7499999999999,0|0,1:2|1:2,0:0:0:0:
305,295,11958,2,0,B|314:335|314:335|296:389,1,80.7499999999999,10|0,2:0|0:0,0:0:0:0:
382,370,12364,5,2,1:2:0:0:
382,370,12567,1,0,1:2:0:0:
463,384,12769,2,0,L|470:303,1,80.7499999999999,8|0,2:0|0:0,0:0:0:0:
474,222,13175,2,0,L|393:214,1,80.7499999999999,0|0,1:2|1:2,0:0:0:0:
442,149,13580,1,10,2:0:0:0:
442,149,13783,1,0,0:0:0:0:
395,83,13985,6,0,L|476:75,1,80.7499999999999,2|0,1:2|1:2,0:0:0:0:
434,3,14391,2,0,L|353:11,1,80.7499999999999,8|0,2:0|0:0,0:0:0:0:
302,74,14796,1,0,1:2:0:0:
302,74,14999,1,0,1:2:0:0:
229,41,15202,2,0,B|220:81|220:81|238:135,1,80.7499999999999,10|0,2:0|0:0,0:0:0:0:
296,169,15607,6,0,L|288:250,1,80.7499999999999,2|0,1:2|1:2,0:0:0:0:
224,299,16012,1,8,2:0:0:0:
224,299,16215,1,0,1:2:0:0:
154,257,16418,2,0,L|73:249,1,80.7499999999999,0|0,1:2|1:2,0:0:0:0:
8,296,16823,1,10,2:0:0:0:
63,354,17026,5,8,2:0:0:0:
63,354,17127,1,8,2:0:0:0:
63,354,17229,2,0,L|144:346,1,80.7499999999999,6|0,1:2|1:2,0:0:0:0:
216,312,17634,1,8,2:0:0:0:
216,312,17837,1,0,0:0:0:0:
295,328,18040,2,0,L|287:247,1,80.7499999999999,0|0,1:2|1:2,0:0:0:0:
247,177,18445,2,0,B|287:168|287:168|341:186,1,80.7499999999999,10|0,2:0|0:0,0:0:0:0:
398,212,18850,5,2,1:2:0:0:
398,212,19053,1,0,1:2:0:0:
469,167,19256,2,0,L|461:86,1,80.7499999999999,8|0,2:0|0:0,0:0:0:0:
406,26,19661,2,0,L|325:34,1,80.7499999999999,0|0,1:2|1:2,0:0:0:0:
259,80,20067,1,10,2:0:0:0:
259,80,20269,1,0,0:0:0:0:
183,50,20472,6,0,L|175:131,1,80.7499999999999,2|0,1:2|1:2,0:0:0:0:
139,203,20877,2,0,B|179:212|179:212|233:194,1,80.7499999999999,8|0,2:0|0:0,0:0:0:0:
288,160,21283,1,0,1:2:0:0:
288,160,21485,1,0,1:2:0:0:
347,214,21688,2,0,L|339:295,1,80.7499999999999,10|0,2:0|0:0,0:0:0:0:
295,363,22094,6,0,L|376:371,1,80.7499999999999,2|0,1:2|1:2,0:0:0:0:
446,332,22499,1,8,2:0:0:0:
446,332,22702,1,0,0:0:0:0:
511,284,22904,1,0,1:2:0:0:
463,218,23107,5,2,1:2:0:0:
473,137,23310,1,10,2:0:0:0:
483,56,23512,1,10,2:0:0:0:
409,88,23715,5,4,1:2:0:0:
409,88,23918,1,0,1:2:0:0:
337,124,24121,6,0,L|150:107,1,161.5,10|2,2:0|1:2,0:0:0:0:
95,103,24729,1,2,1:2:0:0:
23,64,24931,1,10,2:0:0:0:
14,144,25134,2,0,L|-3:331,1,161.5,2|2,2:0|1:2,0:0:0:0:
52,366,25742,1,10,2:0:0:0:
122,322,25945,2,0,B|177:331|177:331|220:360|220:360|297:374,1,161.5,2|0,1:2|1:2,0:0:0:0:
352,353,26553,5,10,2:0:0:0:
318,279,26756,2,0,B|287:185|287:185|303:124,1,161.5,2|0,2:0|1:2,0:0:0:0:
374,86,27364,1,10,2:0:0:0:
331,18,27567,2,0,B|237:-12|237:-12|176:3,1,161.5,2|0,2:0|1:2,0:0:0:0:
103,38,28175,1,10,2:0:0:0:
144,110,28377,1,2,2:0:0:0:
113,184,28580,5,0,1:2:0:0:
113,184,28783,1,0,1:2:0:0:
83,259,28985,2,0,L|92:354,1,80.7499999999999,8|0,2:0|1:2,0:0:0:0:
164,372,29391,5,0,1:2:0:0:
164,372,29594,1,0,1:2:0:0:
244,364,29797,1,8,2:0:0:0:
313,322,29999,5,8,2:0:0:0:
313,322,30100,1,8,2:0:0:0:
313,322,30202,2,0,B|354:306|354:306|397:324,1,80.7499999999999,4|0,1:2|1:2,0:0:0:0:
452,271,30607,6,0,L|441:100,1,161.5,10|2,2:0|1:2,0:0:0:0:
434,29,31215,1,2,1:2:0:0:
359,61,31418,2,0,L|271:68,1,80.7499999999999,10|2,2:0|2:0,0:0:0:0:
198,79,31823,1,2,1:2:0:0:
198,79,32026,1,2,1:2:0:0:
136,131,32229,1,10,2:0:0:0:
78,186,32431,2,0,B|115:211|115:211|243:196,1,161.5,2|0,1:2|1:2,0:0:0:0:
311,184,33040,5,10,2:0:0:0:
374,134,33242,2,0,B|388:164|388:164|375:306,1,161.5,2|0,2:0|1:2,0:0:0:0:
365,372,33850,5,10,2:0:0:0:
303,319,34053,2,0,L|254:326,1,40.3749999999999,2|8,2:0|2:0,0:0:0:0:
223,332,34256,1,0,1:2:0:0:
161,384,34458,1,0,1:2:0:0:
85,354,34661,5,10,2:0:0:0:
20,306,34864,2,0,L|13:257,1,40.3749999999999,2|8,2:0|2:0,0:0:0:0:
4,226,35067,6,0,L|16:132,1,80.7499999999999,0|0,1:2|1:2,0:0:0:0:
28,66,35472,2,0,L|122:78,1,80.7499999999999,8|0,2:0|1:2,0:0:0:0:
188,87,35877,1,8,2:0:0:0:
268,97,36080,1,0,1:2:0:0:
343,68,36283,5,8,2:0:0:0:
343,68,36384,1,8,2:0:0:0:
343,68,36485,1,0,3:0:0:0:
383,137,36688,6,0,B|399:178|399:178|381:221,1,80.7499999999999,4|0,1:2|1:2,0:0:0:0:
335,276,37094,6,0,L|254:265,1,80.7499999999999,10|0,2:0|0:0,0:0:0:0:
178,291,37499,1,2,1:2:0:0:
99,311,37702,1,2,1:2:0:0:
20,329,37904,2,0,L|30:248,1,80.7499999999999,10|2,2:0|2:0,0:0:0:0:
80,185,38310,5,2,1:2:0:0:
80,185,38512,1,2,1:2:0:0:
62,106,38715,1,10,2:0:0:0:
138,133,38918,2,0,B|202:151|202:151|315:120,1,161.5,2|0,1:2|1:2,0:0:0:0:
371,102,39526,5,10,2:0:0:0:
403,175,39729,2,0,L|375:354,1,161.5,2|0,2:0|1:2,0:0:0:0:
300,357,40337,1,10,2:0:0:0:
222,378,40540,2,0,L|43:350,1,161.5,2|0,2:0|1:2,0:0:0:0:
28,279,41148,1,10,2:0:0:0:
1,202,41350,1,2,2:0:0:0:
68,154,41553,5,0,1:2:0:0:
68,154,41756,1,0,1:2:0:0:
137,112,41958,2,0,L|129:14,1,80.7499999999999,8|0,2:0|1:2,0:0:0:0:
208,8,42364,5,0,1:2:0:0:
208,8,42567,1,0,1:2:0:0:
278,48,42769,1,8,2:0:0:0:
349,85,42972,5,8,2:0:0:0:
349,85,43073,1,8,2:0:0:0:
349,85,43175,2,0,B|391:104|391:104|445:76,1,80.7499999999999,4|0,1:2|1:2,0:0:0:0:
492,49,43580,6,0,L|472:230,1,161.5,10|2,2:0|1:2,0:0:0:0:
463,289,44188,1,2,1:2:0:0:
463,289,44391,1,10,2:0:0:0:
393,330,44594,1,2,2:0:0:0:
315,307,44796,2,0,L|228:280,1,80.7499999999999,2|2,1:2|1:2,0:0:0:0:
159,305,45202,1,10,2:0:0:0:
184,226,45404,2,0,B|195:174|195:174|167:63,1,161.5,2|0,1:2|1:2,0:0:0:0:
222,8,46012,5,10,2:0:0:0:
280,63,46215,2,0,L|461:83,1,161.5,2|0,1:2|1:2,0:0:0:0:
480,86,46722,1,0,0:0:0:0:
480,86,46823,1,10,2:0:0:0:
439,155,47026,2,0,L|433:212,1,40.3749999999999,2|8,1:2|2:0,0:0:0:0:
430,235,47229,1,0,0:0:0:0:
358,272,47431,1,0,1:2:0:0:
411,332,47634,6,0,B|359:343|359:343|304:330,1,80.7499999999999,2|10,2:0|2:0,0:0:0:0:
257,304,48040,5,0,1:2:0:0:
257,304,48242,1,0,1:2:0:0:
181,334,48445,2,0,L|162:194,1,121.124996765614,8|8,2:0|2:0,0:0:0:0:
158,174,48850,5,2,1:2:0:0:
158,174,49053,1,2,1:2:0:0:
90,217,49256,1,10,2:0:0:0:
21,259,49458,1,2,3:2:0:0:
27,178,49661,6,0,L|34:82,1,80.7499999999999,6|0,1:2|1:2,0:0:0:0:
72,26,50067,2,0,L|168:33,1,80.7499999999999,8|0,2:0|0:0,0:0:0:0:
233,39,50472,1,0,1:2:0:0:
188,106,50675,1,2,1:2:0:0:
140,171,50877,2,0,B|176:188|176:188|245:178,1,80.7499999999999,10|0,2:0|0:0,0:0:0:0:
296,165,51283,2,0,L|385:149,1,80.7499999999999,2|0,1:2|1:2,0:0:0:0:
454,134,51688,5,8,2:0:0:0:
442,213,51891,1,0,0:0:0:0:
487,279,52094,1,0,1:2:0:0:
475,358,52296,6,0,L|386:342,1,80.7499999999999,2|10,1:2|2:0,0:0:0:0:
336,288,52702,2,0,B|273:301|273:301|255:325|255:325|177:341,1,161.499995687485,2|2,2:0|1:2,0:0:0:0:
110,354,53310,1,10,2:0:0:0:
110,354,53512,1,2,2:0:0:0:
30,369,53715,5,2,1:2:0:0:
37,288,53918,1,2,1:2:0:0:
45,207,54121,1,10,2:0:0:0:
9,134,54323,6,0,B|41:121|41:121|117:143,1,80.7499978437424,2|0,2:0|1:2,0:0:0:0:
162,158,54729,1,2,1:2:0:0:
162,158,54931,2,0,L|281:133,1,121.124996765614,10|8,2:0|2:0,0:0:0:0:
319,122,55337,1,0,1:2:0:0:
397,103,55540,5,2,1:2:0:0:
390,183,55742,1,10,3:2:0:0:
384,263,55945,5,10,2:0:0:0:
384,263,56046,1,8,2:0:0:0:
384,263,56148,2,0,L|376:354,1,80.7499999999999,4|0,1:2|1:2,0:0:0:0:
300,371,56553,6,0,L|209:363,1,80.7499999999999,8|0,2:0|0:0,0:0:0:0:
139,355,56958,1,2,1:2:0:0:
139,355,57161,1,2,1:2:0:0:
58,345,57364,2,0,L|51:264,1,80.7499999999999,10|0,2:0|0:0,0:0:0:0:
42,184,57769,2,0,B|94:191|94:191|138:168|138:168|208:177,1,161.499995687485,2|8,1:2|2:0,0:0:0:0:
276,187,58377,5,0,0:0:0:0:
276,187,58580,1,0,1:2:0:0:
338,238,58783,5,2,1:2:0:0:
403,284,58985,2,0,L|412:203,1,80.7499978437424,10|2,2:0|2:0,0:0:0:0:
421,123,59391,5,2,1:2:0:0:
342,106,59593,1,2,1:2:0:0:
278,155,59796,2,0,L|289:245,1,80.7499999999999,10|2,2:0|2:0,0:0:0:0:
300,315,60202,5,2,1:2:0:0:
221,332,60404,1,2,1:2:0:0:
157,283,60607,2,0,L|168:193,1,80.7499999999999,10|2,2:0|2:0,0:0:0:0:
179,110,61012,6,0,B|227:95|227:95|272:127,2,93.5,10|8|8,2:0|2:0|2:0,0:0:0:0:
80,152,61823,6,0,L|80:290,1,127.500004863739,2|2,2:0|2:0,0:0:0:0:
81,356,62431,1,2,2:0:0:0:
167,356,62634,5,6,1:2:0:0:
167,356,62837,2,0,L|255:356,1,72.2500013780594,2|0,2:0|0:0,0:0:0:0:
326,356,63242,1,0,1:2:0:0:
412,356,63445,1,10,2:0:0:0:
410,182,63850,6,0,L|410:270,1,72.2500013780594,2|0,2:0|0:0,0:0:0:0:
322,253,64256,2,0,L|322:180,1,72.2500013780594,2|0,2:0|0:0,0:0:0:0:
235,182,64661,2,0,L|235:221,2,36.1250006890297,2|2|2,0:0|0:0|0:0,0:0:0:0:
147,182,65067,1,8,2:0:0:0:
145,268,65269,2,0,L|72:268,1,72.2500013780594,2|0,2:0|0:0,0:0:0:0:
70,355,65675,1,2,1:2:0:0:
156,358,65877,6,0,B|258:358|258:358|294:329,1,144.500002756119,0|2,1:2|2:0,0:0:0:0:
373,360,66485,1,2,1:2:0:0:
459,360,66688,2,0,L|459:206,1,144.500002756119,10|2,2:0|1:2,0:0:0:0:
457,41,67499,6,0,L|457:121,1,72.2500013780594,2|2,2:0|2:0,0:0:0:0:
370,113,67904,1,2,2:0:0:0:
370,113,68107,1,2,2:0:0:0:
283,114,68310,1,8,2:0:0:0:
268,199,68512,6,0,L|281:122,1,72.2500000000003,2|2,2:0|2:0,0:0:0:0:
296,42,68918,5,10,2:0:0:0:
296,42,69019,1,8,2:0:0:0:
296,42,69121,2,0,L|215:54,1,80.7499978437424,6|2,1:2|2:0,0:0:0:0:
149,98,69526,5,8,2:0:0:0:
149,98,69729,1,0,1:2:0:0:
82,143,69931,2,0,L|95:230,1,80.7499978437424,2|2,2:0|1:2,0:0:0:0:
167,257,70337,1,8,2:0:0:0:
241,288,70540,2,0,B|295:310|295:310|410:282,1,161.499995687485,2|0,2:0|0:0,0:0:0:0:
473,263,71148,1,8,2:0:0:0:
473,263,71350,1,0,1:2:0:0:
458,342,71553,6,0,L|369:364,1,80.7499978437424,2|0,2:0|1:2,0:0:0:0:
300,343,71958,2,0,L|317:414,2,40.3749989218712,10|0|0,2:0|0:0|0:0,0:0:0:0:
225,306,72364,2,0,B|212:247|212:247|248:149,1,161.499995687485,2|10,1:2|2:0,0:0:0:0:
272,75,72972,2,0,B|213:88|213:88|115:52,1,161.499995687485,2|0,2:0|1:2,0:0:0:0:
49,95,73580,1,10,2:0:0:0:
49,95,73783,1,2,2:0:0:0:
122,179,73985,6,0,B|147:214|147:214|133:262,2,93.5,8|8|8,2:0|2:0|2:0,0:0:0:0:
45,168,74594,5,2,2:0:0:0:
45,168,74796,2,0,L|65:305,1,127.5,2|10,2:0|2:0,0:0:0:0:
109,372,75405,5,10,2:0:0:0:
109,372,75506,1,8,2:0:0:0:
109,372,75607,2,0,L|202:359,1,80.7499978437424,6|2,1:2|2:0,0:0:0:0:
276,347,76012,1,8,2:0:0:0:
359,377,76215,5,2,1:2:0:0:
446,362,76418,2,0,L|433:269,1,80.7499978437424,2|0,2:0|1:2,0:0:0:0:
420,194,76823,5,10,2:0:0:0:
338,229,77026,1,2,2:0:0:0:
253,200,77229,2,0,L|160:213,1,80.7499978437424,2|2,1:2|2:0,0:0:0:0:
85,225,77634,1,8,2:0:0:0:
47,144,77837,5,2,1:2:0:0:
15,60,78040,2,0,L|108:47,1,80.7499978437424,2|0,2:0|1:0,0:0:0:0:
183,36,78445,5,8,0:0:0:0:
246,98,78648,1,0,0:0:0:0:
246,98,78749,1,8,2:0:0:0:
246,98,78851,2,0,L|259:191,1,80.7499978437424,2|0,1:2|0:0,0:0:0:0:
338,214,79256,1,8,0:0:0:0:
419,250,79459,5,2,1:2:0:0:
500,284,79661,2,0,L|511:204,1,80.7499978437424,2|0,2:0|0:0,0:0:0:0:
487,117,80067,5,10,2:0:0:0:
465,31,80269,1,2,2:0:0:0:
391,81,80472,2,0,B|351:103|351:103|316:94,1,80.7499978437424,2|2,1:2|2:0,0:0:0:0:
230,68,80878,1,8,2:0:0:0:
58,22,81283,5,10,2:0:0:0:
58,22,81384,1,8,2:0:0:0:
34,137,81688,6,0,L|73:128,1,40.3749989218712,8|8,2:0|2:0,0:0:0:0:
104,96,81891,2,0,L|143:105,1,40.3749989218712,8|8,2:0|2:0,0:0:0:0:
171,139,82094,5,4,1:2:0:0:
259,130,82296,1,0,1:2:0:0:
347,121,82499,1,8,2:0:0:0:
417,175,82702,5,2,2:0:0:0:
417,175,82904,2,0,L|406:276,1,80.7499978437424,2|2,1:2|1:2,0:0:0:0:
334,305,83310,1,10,2:0:0:0:
259,348,83512,2,0,B|205:357|205:357|167:344|167:344|97:357,1,161.499995687485,2|0,2:0|1:2,0:0:0:0:
29,301,84121,1,10,2:0:0:0:
91,237,84323,2,0,B|122:200|122:200|99:68,1,161.499995687485,2|2,2:0|1:2,0:0:0:0:
151,13,84932,2,0,L|250:-3,1,80.7499978437424,10|0,2:0|0:0,0:0:0:0:
308,44,85337,5,4,1:2:0:0:
330,129,85540,1,0,1:2:0:0:
402,180,85742,1,8,2:0:0:0:
424,265,85945,5,2,2:0:0:0:
424,265,86148,2,0,L|264:298,1,161.499995687485,2|10,1:2|2:0,0:0:0:0:
205,363,86756,2,0,L|46:330,1,161.499995687485,2|0,2:0|1:2,0:0:0:0:
13,247,87364,1,10,2:0:0:0:
87,198,87567,2,0,B|130:177|130:177|242:200,1,161.499995687485,2|8,2:0|2:0,0:0:0:0:
316,152,88175,1,10,2:0:0:0:
390,103,88377,1,10,2:0:0:0:
