osu file format v14

[General]
AudioFilename: audio.mp3
AudioLeadIn: 0
PreviewTime: 61720
Countdown: 0
SampleSet: Soft
StackLeniency: 0.5
Mode: 0
LetterboxInBreaks: 0
WidescreenStoryboard: 1

[Editor]
DistanceSpacing: 1.1
BeatDivisor: 4
GridSize: 4
TimelineZoom: 2.3

[Metadata]
Title:Irokousui (TV Size)
TitleUnicode:色香水 (TV Size)
Artist:Kamiyama Yoh
ArtistUnicode:神山羊
Creator:KumiDaiko
Version:Normal
Source:ホリミヤ
Tags:堀さんと宮村くん horimiya opening op japanese jpop j-pop pop anime hori san hori-san and to miyamura-kun miyamura kun iro kousui
BeatmapID:3173424
BeatmapSetID:1553187

[Difficulty]
HPDrainRate:3.5
CircleSize:4
OverallDifficulty:4
ApproachRate:5
SliderMultiplier:0.95
SliderTickRate:1

[Events]
//Background and Video events
0,0,"bg.jpg",0,0
Video,0,"vid.mp4"
//Break Periods
//Storyboard Layer 0 (Background)
//Storyboard Layer 1 (Fail)
//Storyboard Layer 2 (Pass)
//Storyboard Layer 3 (Foreground)
//Storyboard Layer 4 (Overlay)
//Storyboard Sound Samples

[TimingPoints]
-2230,405.405405405405,4,2,1,35,1,0
10742,-100,4,2,1,45,0,0
59391,-100,4,2,1,50,0,0
60202,-100,4,2,1,55,0,0
61012,-100,4,2,1,65,0,0
61823,-100,4,2,1,45,0,0
62634,-100,4,2,1,50,0,1
73985,-100,4,2,1,65,0,1
74391,-100,4,2,1,65,0,0
74796,-100,4,2,1,45,0,0
75607,-100,4,2,1,50,0,1
88378,-100,4,2,1,50,0,0

[Colours]
Combo1 : 143,184,205
Combo2 : 75,126,233

[HitObjects]
109,252,1013,6,0,B|156:277|156:277|262:269,1,142.5,2|0,2:0|0:0,0:0:0:0:
400,252,2229,1,2,2:0:0:0:
504,241,2634,2,0,L|499:180,1,47.5,2|2,2:0|2:0,0:0:0:0:
371,28,3648,6,0,L|376:89,1,47.5,2|2,2:0|2:0,0:0:0:0:
347,120,4053,1,2,2:0:0:0:
347,120,4256,2,0,L|204:106,1,142.5,0|2,0:0|2:0,0:0:0:0:
48,90,5472,1,2,2:0:0:0:
108,174,5877,2,0,L|172:180,2,47.5,2|2|2,2:0|2:0|2:0,0:0:0:0:
56,167,6485,1,2,2:0:0:0:
7,259,6891,6,0,L|2:306,1,47.5,2|2,2:0|2:0,0:0:0:0:
30,350,7296,2,0,L|77:354,1,47.5,2|2,2:0|2:0,0:0:0:0:
129,360,7702,1,2,2:0:0:0:
327,293,8512,6,0,L|279:288,2,47.5,2|2|2,2:0|2:0|2:0,0:0:0:0:
360,252,9121,2,0,L|475:266,1,95
495,231,9729,1,2,2:0:0:0:
495,231,9931,2,0,L|507:115,1,95,2|2,2:0|2:0,0:0:0:0:
431,62,10742,6,0,B|381:37|381:37|326:45,1,95,4|8,1:2|2:0,0:0:0:0:
239,64,11553,2,0,L|178:75,1,47.5,0|0,1:2|1:2,0:0:0:0:
141,84,11958,1,10,2:0:0:0:
188,177,12364,6,0,B|213:227|213:227|205:282,1,95,2|8,1:2|2:0,0:0:0:0:
183,367,13175,2,0,L|229:358,1,47.5,0|0,1:2|1:2,0:0:0:0:
280,345,13580,1,10,2:0:0:0:
380,315,13985,6,0,L|484:326,1,95,2|8,1:2|2:0,0:0:0:0:
501,223,14796,2,0,B|507:204|507:204|502:177,1,47.5,0|0,1:2|1:2,0:0:0:0:
491,126,15202,1,10,2:0:0:0:
464,24,15607,6,0,L|369:14,1,95,2|8,1:2|2:0,0:0:0:0:
286,78,16418,2,0,B|267:84|267:84|240:79,1,47.5,0|0,1:2|1:2,0:0:0:0:
189,65,16823,1,10,2:0:0:0:
189,65,17026,1,8,2:0:0:0:
189,65,17229,6,0,B|149:57|149:57|79:74,1,95,6|8,1:2|2:0,0:0:0:0:
4,116,18040,2,0,L|9:182,1,47.5,0|0,1:2|1:2,0:0:0:0:
11,215,18445,1,10,2:0:0:0:
22,318,18850,6,0,B|62:326|62:326|132:309,1,95,2|8,1:2|2:0,0:0:0:0:
212,275,19661,2,0,L|217:341,1,47.5,0|0,1:2|1:2,0:0:0:0:
218,374,20067,1,10,2:0:0:0:
317,341,20472,6,0,L|425:353,1,95,2|8,1:2|2:0,0:0:0:0:
499,295,21283,2,0,B|505:276|505:276|500:249,1,47.5,0|0,1:2|1:2,0:0:0:0:
486,198,21688,1,10,2:0:0:0:
456,97,22094,6,0,L|348:85,1,95,2|8,1:2|2:0,0:0:0:0:
261,114,22904,1,0,1:2:0:0:
261,114,23107,2,0,L|197:107,2,47.5,2|10|10,1:2|2:0|2:0,0:0:0:0:
292,155,23715,1,4,1:2:0:0:
286,259,24121,6,0,B|245:265|245:265|225:259|225:259|174:268,1,95,10|2,2:0|1:2,0:0:0:0:
143,248,24729,2,0,L|97:256,1,47.5,2|10,1:2|2:0,0:0:0:0:
46,238,25134,2,0,L|63:341,1,95,2|2,2:0|1:2,0:0:0:0:
92,374,25742,1,10,2:0:0:0:
92,374,25945,1,2,1:2:0:0:
226,293,26553,5,10,2:0:0:0:
226,293,26756,2,0,B|173:302|173:302|133:278,1,95,2|0,2:0|1:2,0:0:0:0:
96,248,27364,1,10,2:0:0:0:
96,248,27567,2,0,B|87:195|87:195|111:155,1,95,2|0,2:0|1:2,0:0:0:0:
143,120,28175,1,10,2:0:0:0:
225,55,28580,6,0,L|231:7,2,47.5,0|0|8,1:2|1:2|2:0,0:0:0:0:
295,132,29391,2,0,L|288:179,1,47.5,0|0,1:2|1:2,0:0:0:0:
310,226,29796,2,0,L|357:233,1,47.5,8|8,2:0|2:0,0:0:0:0:
408,242,30202,1,4,1:2:0:0:
393,345,30607,6,0,B|362:364|362:364|290:363,1,95,10|2,2:0|1:2,0:0:0:0:
253,347,31215,1,2,1:2:0:0:
203,330,31418,2,0,L|155:328,1,47.5,10|2,2:0|2:0,0:0:0:0:
106,345,31823,2,0,L|118:238,1,95,2|10,1:2|2:0,0:0:0:0:
123,198,32431,1,2,1:2:0:0:
185,53,33040,5,10,2:0:0:0:
185,53,33242,2,0,B|229:81|229:81|282:77,1,95,2|0,2:0|1:2,0:0:0:0:
324,75,33850,1,10,2:0:0:0:
324,75,34053,2,0,B|296:119|296:119|300:172,1,95,2|0,2:0|1:2,0:0:0:0:
304,213,34661,1,10,2:0:0:0:
333,314,35067,6,0,L|285:308,2,47.5,0|0|8,1:2|1:2|2:0,0:0:0:0:
383,299,35675,1,0,1:2:0:0:
383,299,35877,2,0,L|389:251,1,47.5,8|0,2:0|1:2,0:0:0:0:
398,200,36283,1,8,2:0:0:0:
411,96,36688,1,4,1:2:0:0:
478,16,37094,6,0,B|437:22|437:22|417:16|417:16|366:25,1,95,10|2,2:0|1:2,0:0:0:0:
341,50,37702,1,2,1:2:0:0:
341,50,37904,2,0,L|288:43,1,47.5,10|2,2:0|2:0,0:0:0:0:
246,67,38310,2,0,B|230:93|230:93|240:160,1,95,2|10,1:2|2:0,0:0:0:0:
249,208,38918,1,2,1:2:0:0:
270,363,39526,5,10,2:0:0:0:
270,363,39729,2,0,L|172:350,1,95,2|0,2:0|1:2,0:0:0:0:
124,342,40337,1,10,2:0:0:0:
124,342,40540,2,0,L|137:244,1,95,2|0,2:0|1:2,0:0:0:0:
146,196,41148,1,10,2:0:0:0:
244,160,41553,6,0,L|236:220,2,47.5,0|0|8,1:2|1:2|2:0,0:0:0:0:
341,120,42364,2,0,L|334:72,1,47.5,0|0,1:2|1:2,0:0:0:0:
324,22,42769,2,0,L|274:28,1,47.5,8|8,2:0|2:0,0:0:0:0:
224,35,43175,1,4,1:2:0:0:
153,111,43580,6,0,B|120:128|120:128|54:111,1,95,10|2,2:0|1:2,0:0:0:0:
13,101,44188,1,2,1:2:0:0:
13,101,44392,2,0,L|1:147,1,47.5,10|2,2:0|2:0,0:0:0:0:
13,197,44796,2,0,L|27:301,1,95,2|10,1:2|2:0,0:0:0:0:
33,342,45404,1,2,1:2:0:0:
182,295,46012,5,10,2:0:0:0:
182,295,46215,2,0,L|289:309,1,95,2|0,1:2|1:2,0:0:0:0:
328,313,46823,1,10,2:0:0:0:
328,313,47026,2,0,L|342:206,1,95,2|0,1:2|1:2,0:0:0:0:
348,167,47634,1,2,2:0:0:0:
270,96,48040,6,0,L|264:41,2,47.5,0|0|8,1:2|1:2|2:0,0:0:0:0:
201,175,48850,2,0,L|195:222,1,47.5,2|2,1:2|1:2,0:0:0:0:
184,274,49256,1,10,2:0:0:0:
184,274,49458,1,2,3:2:0:0:
184,274,49661,6,0,B|252:259|252:259|375:300,1,190,6|0,1:2|1:2,0:0:0:0:
415,315,50675,1,2,1:2:0:0:
415,315,50877,1,10,2:0:0:0:
488,240,51283,2,0,L|492:131,1,95,2|8,1:2|2:0,0:0:0:0:
436,56,52094,1,0,1:2:0:0:
436,56,52296,6,0,L|378:53,1,47.5,2|10,1:2|2:0,0:0:0:0:
340,32,52702,2,0,B|295:24|295:24|247:40,1,95,2|2,2:0|1:2,0:0:0:0:
200,60,53310,1,10,2:0:0:0:
100,29,53715,2,0,L|96:126,1,95,2|10,1:2|2:0,0:0:0:0:
93,176,54323,2,0,L|190:180,1,95,2|2,2:0|1:2,0:0:0:0:
240,183,54931,1,10,2:0:0:0:
390,226,55540,6,0,L|387:284,1,47.5,2|10,1:2|3:2,0:0:0:0:
363,319,55945,1,10,2:0:0:0:
363,319,56148,2,0,B|295:324|295:324|259:298,1,95,4|8,1:2|2:0,0:0:0:0:
194,239,56958,1,2,1:2:0:0:
194,239,57161,1,2,1:2:0:0:
194,239,57364,2,0,L|190:136,1,95,10|2,2:0|1:2,0:0:0:0:
285,100,58175,2,0,L|288:194,1,95,8|0,2:0|1:2,0:0:0:0:
290,247,58783,1,2,1:2:0:0:
290,247,58985,6,0,L|351:239,1,47.5,10|2,2:0|2:0,0:0:0:0:
379,271,59391,2,0,B|410:285|410:285|474:272,1,95,2|10,1:2|2:0,0:0:0:0:
499,229,59999,1,2,2:0:0:0:
493,176,60202,2,0,L|488:128,1,47.5,2|2,1:2|1:2,0:0:0:0:
444,99,60607,2,0,L|449:51,1,47.5,10|2,2:0|2:0,0:0:0:0:
427,4,61012,2,0,L|475:-1,2,47.5,10|8|8,2:0|2:0|2:0,0:0:0:0:
322,12,61823,5,2,2:0:0:0:
330,116,62229,2,0,L|325:164,1,47.5,2|2,2:0|2:0,0:0:0:0:
314,214,62634,1,6,1:2:0:0:
314,214,62837,2,0,B|272:231|272:231|211:222,1,95,2|0,2:0|1:2,0:0:0:0:
171,215,63445,5,10,2:0:0:0:
222,305,63850,2,0,L|270:311,1,47.5,2|0,2:0|0:0,0:0:0:0:
316,333,64256,1,2,2:0:0:0:
316,333,64458,2,0,B|340:290|340:290|323:190,1,142.5,0|8,0:0|2:0,0:0:0:0:
314,146,65269,5,2,2:0:0:0:
325,95,65472,1,0,0:0:0:0:
336,44,65675,2,0,B|293:20|293:20|193:37,1,142.5,2|2,1:2|2:0,0:0:0:0:
150,48,66485,1,2,1:2:0:0:
150,48,66688,2,0,L|172:161,1,95,10|2,2:0|1:2,0:0:0:0:
192,243,67499,2,0,L|135:232,1,47.5,2|2,2:0|2:0,0:0:0:0:
93,223,67904,1,2,2:0:0:0:
41,213,68107,1,2,2:0:0:0:
2,116,68512,5,2,2:0:0:0:
2,116,68715,2,0,L|13:59,1,47.5,2|10,2:0|2:0,0:0:0:0:
56,43,69121,1,6,1:2:0:0:
101,64,69323,2,0,B|146:60|146:60|164:67|164:67|211:63,1,95,2|0,2:0|1:2,0:0:0:0:
245,76,69931,1,2,2:0:0:0:
245,76,70134,2,0,L|314:69,1,47.5,2|8,1:2|2:0,0:0:0:0:
342,87,70540,2,0,B|370:123|370:123|354:222,1,142.5,2|8,2:0|2:0,0:0:0:0:
359,323,71553,6,0,L|260:305,1,95,2|10,2:0|2:0,0:0:0:0:
172,261,72364,2,0,L|78:277,1,95,2|10,1:2|2:0,0:0:0:0:
27,287,72972,2,0,L|9:192,1,95,2|0,2:0|1:2,0:0:0:0:
30,145,73580,1,10,2:0:0:0:
46,95,73783,1,2,2:0:0:0:
62,45,73985,2,0,L|52:-2,2,47.5,8|8|8,2:0|2:0|2:0,0:0:0:0:
127,126,74796,5,2,2:0:0:0:
221,79,75202,2,0,L|280:89,1,47.5,10|10,2:0|2:0,0:0:0:0:
318,98,75607,1,6,1:2:0:0:
318,98,75810,2,0,L|299:205,1,95,2|2,2:0|1:2,0:0:0:0:
288,242,76418,5,2,2:0:0:0:
345,329,76823,2,0,L|391:321,1,47.5,10|2,2:0|2:0,0:0:0:0:
442,307,77229,1,2,1:2:0:0:
442,307,77431,2,0,L|425:213,1,95,2|2,2:0|1:2,0:0:0:0:
414,162,78040,5,2,2:0:0:0:
449,63,78445,2,0,B|422:54|422:54|391:59,1,47.5,8|0,0:0|0:0,0:0:0:0:
354,75,78850,1,2,1:2:0:0:
354,75,79053,2,0,B|287:90|287:90|250:78,1,95,0|2,0:0|1:2,0:0:0:0:
215,57,79661,5,2,2:0:0:0:
117,20,80067,2,0,B|108:47|108:47|113:78,1,47.5,10|2,2:0|2:0,0:0:0:0:
132,113,80472,1,2,1:2:0:0:
132,113,80675,2,0,B|140:138|140:138|125:205,1,95,2|0,2:0|1:2,0:0:0:0:
108,254,81283,5,10,2:0:0:0:
72,351,81688,1,8,2:0:0:0:
171,317,82094,2,0,B|222:302|222:302|284:315,1,95,4|8,1:2|2:0,0:0:0:0:
313,325,82702,5,2,2:0:0:0:
313,325,82904,2,0,L|381:315,1,47.5,2|2,1:2|1:2,0:0:0:0:
408,339,83310,1,10,2:0:0:0:
455,359,83512,2,0,B|475:302|475:302|457:216,1,142.5,2|10,2:0|2:0,0:0:0:0:
429,177,84324,2,0,L|451:79,1,95,2|2,2:0|1:2,0:0:0:0:
462,33,84931,1,10,2:0:0:0:
368,80,85337,1,4,1:2:0:0:
212,58,85945,5,2,2:0:0:0:
212,58,86148,2,0,B|176:54|176:54|156:66|156:66|115:60,1,95,2|10,1:2|2:0,0:0:0:0:
69,52,86756,2,0,L|46:206,1,142.5,2|10,2:0|2:0,0:0:0:0:
38,244,87567,2,0,L|144:202,1,95,2|10,2:0|2:0,0:0:0:0:
174,188,88175,1,8,2:0:0:0:
222,168,88377,1,10,2:0:0:0:
