osu file format v14

[General]
AudioFilename: audio.mp3
AudioLeadIn: 0
PreviewTime: 52
Countdown: 0
SampleSet: Soft
StackLeniency: 1
Mode: 0
LetterboxInBreaks: 0
WidescreenStoryboard: 1

[Editor]
DistanceSpacing: 1.3
BeatDivisor: 4
GridSize: 16
TimelineZoom: 2.699998

[Metadata]
Title:CUT
TitleUnicode:CUT
Artist:Kamiyama Yoh
ArtistUnicode:神山羊
Creator:Ryuusei Aika
Version:Keitaro's Normal
Source:
Tags:-Keitaro Keitaro Error- Error Fixxis Black Man Black_Man Irohas japanese pop j-pop male vocal 有機酸 uki3/ewe ゆめみるこども Yumemiru Kodomo
BeatmapID:2201287
BeatmapSetID:1053399

[Difficulty]
HPDrainRate:4
CircleSize:3.5
OverallDifficulty:4
ApproachRate:5
SliderMultiplier:1.2
SliderTickRate:1

[Events]
//Background and Video events
0,0,"BG.jpg",0,0
//Break Periods
2,76147,83082
2,116825,123760
2,133096,144099
//Storyboard Layer 0 (Background)
//Storyboard Layer 1 (Fail)
//Storyboard Layer 2 (Pass)
//Storyboard Layer 3 (Foreground)
//Storyboard Layer 4 (Overlay)
//Storyboard Sound Samples

[TimingPoints]
-1141,508.474576271186,4,2,1,50,1,0
9028,-100,4,2,1,60,0,0
15892,-100,4,3,0,30,0,0
16020,-100,4,2,1,60,0,0
17164,-100,4,2,1,70,0,0
24600,-100,4,2,1,40,0,0
25299,-100,4,2,1,50,0,0
41570,-100,4,2,2,50,0,0
46147,-100,4,2,0,50,0,0
46231,-100,4,2,2,50,0,0
49706,-95.2380952380952,4,2,2,70,0,0
65723,-95.2380952380952,4,2,1,50,0,0
68011,-95.2380952380952,4,2,1,70,0,0
74875,-95.2380952380952,4,2,1,50,0,0
93435,-95.2380952380952,4,2,2,50,0,0
93520,-95.2380952380952,4,2,1,50,0,0
95977,-95.2380952380952,4,2,2,50,0,0
96486,-95.2380952380952,4,2,1,50,0,0
97503,-95.2380952380952,4,2,2,50,0,0
97672,-95.2380952380952,4,2,1,50,0,0
99536,-95.2380952380952,4,2,2,50,0,0
100553,-95.2380952380952,4,2,2,70,0,0
105003,-95.2380952380952,4,2,1,50,0,0
105129,-95.2380952380952,4,2,2,70,0,0
105638,-95.2380952380952,4,2,2,70,0,0
113138,-95.2380952380952,4,2,1,50,0,0
113265,-95.2380952380952,4,2,2,70,0,0
113774,-95.2380952380952,4,2,2,70,0,0
124960,-95.2380952380952,4,2,1,70,0,0
132079,-95.2380952380952,4,2,1,50,0,0
133096,-95.2380952380952,4,2,1,30,0,0
147333,-95.2380952380952,4,2,1,40,0,0
147842,-95.2380952380952,4,2,1,50,0,0
148350,-95.2380952380952,4,2,1,5,0,0
149367,-95.2380952380952,4,2,2,70,0,0
154452,-95.2380952380952,4,2,1,50,0,0
154579,-95.2380952380952,4,2,2,70,0,0
155469,-95.2380952380952,4,2,2,70,0,0
157884,-95.2380952380952,4,2,1,50,0,0
158011,-95.2380952380952,4,2,2,70,0,0
164717,-95.2380952380952,4,2,1,50,0,0
165129,-95.2380952380952,4,2,2,70,0,0
165384,-95.2380952380952,4,2,2,70,0,0
170130,-95.2380952380952,4,2,1,50,0,0
170214,-95.2380952380952,4,2,2,70,0,0
170469,-95.2380952380952,4,2,2,70,0,0
172757,-95.2380952380952,4,2,1,50,0,0
173265,-95.2380952380952,4,2,2,70,0,0
173774,-95.2380952380952,4,2,2,70,0,0
178223,-95.2380952380952,4,2,1,50,0,0
178350,-95.2380952380952,4,2,2,70,0,0
178604,-95.2380952380952,4,2,2,70,0,0
181655,-95.2380952380952,4,2,1,60,0,0

[Colours]
Combo1 : 159,159,159
Combo2 : 95,95,95

[HitObjects]
42,50,892,6,0,P|86:36|170:66,1,120,0|8,2:0|0:3,2:0:0:0:
203,116,1655,1,0,2:0:0:0:
203,116,1909,2,0,P|256:133|331:89,1,120,0|8,2:0|0:3,2:0:0:0:
447,29,2926,2,0,B|428:63|428:63|446:160,1,120,0|8,2:0|0:3,2:0:0:0:
478,212,3689,2,0,P|418:193|358:223,1,120,0|0,2:0|2:0,2:0:0:0:
298,177,4452,1,8,0:3:0:0:
267,329,4960,6,0,B|200:346|216:296|146:317,1,120,0|8,0:0|0:3,2:0:0:0:
98,372,5723,2,0,P|75:304|106:249,1,120,0|0,2:0|2:0,2:0:0:0:
165,234,6486,1,8,0:3:0:0:
45,134,6994,2,0,L|184:119,1,120,0|8,0:0|0:3,2:0:0:0:
242,113,7757,1,0,0:0:0:0:
397,98,8265,1,8,0:3:0:0:
397,98,8520,2,0,L|385:166,1,60,8|0,0:3|0:0,0:0:0:0:
341,220,9028,6,0,P|393:200|462:232,1,120,0|8,3:0|3:0,0:0:0:0:
506,165,9791,1,0,2:0:0:0:
506,165,10045,2,0,L|495:298,1,120,0|8,3:0|3:0,2:0:0:0:
356,355,11062,2,0,B|283:361|315:312|218:330,1,120,0|8,3:0|3:0,0:3:0:0:
185,379,11825,2,0,P|165:334|204:255,1,120,0|0,2:0|2:0,2:0:0:0:
260,245,12587,1,8,3:0:0:0:
203,99,13096,6,0,L|132:110,2,60,0|0|8,3:0|2:0|3:0,0:0:0:0:
263,49,13858,2,0,B|316:54|316:54|327:48|327:48|401:51,1,120,0|0,2:0|2:0,2:0:0:0:
457,65,14621,1,8,3:0:0:0:
442,220,15130,2,0,L|512:212,2,60,0|0|8,3:0|2:0|3:0,0:0:0:0:
365,235,15892,2,0,P|373:303|390:376,1,120,2|0,0:0|2:0,0:0:0:0:
309,379,16655,1,8,3:0:0:0:
225,252,17164,6,0,P|179:239|158:239,1,60,0|0,3:0|2:0,2:0:0:0:
120,301,17672,2,0,P|70:314|42:310,1,60,8|0,3:0|2:0,2:0:0:0:
0,361,18181,2,2,P|16:300|14:232,1,120,2|8,3:0|3:0,2:1:0:0:
22,91,19197,2,0,P|58:82|89:79,1,60,0|0,3:0|2:0,2:0:0:0:
147,119,19706,2,0,P|183:120|226:118,1,60,8|0,3:0|2:0,2:0:0:0:
252,56,20214,2,2,B|311:54|299:103|379:95,1,120,0|8,3:0|3:0,2:1:0:0:
495,14,21231,6,0,L|487:78,1,60,0|0,3:0|2:0,2:0:0:0:
438,134,21740,2,0,L|448:206,1,60,8|0,3:0|2:0,2:0:0:0:
489,257,22248,2,2,B|451:247|451:247|396:246|371:267,1,120,0|8,3:0|3:0,2:1:0:0:
311,312,23011,1,0,2:0:0:0:
311,312,23265,1,0,3:0:0:0:
204,360,23647,1,0,0:0:0:0:
108,293,24028,1,0,0:0:0:0:
108,293,24282,2,0,P|102:245|111:165,1,120,0|0,3:0|2:0,2:0:0:0:
72,22,25299,6,0,P|124:14|191:51,1,120,0|8,3:0|3:0,0:0:0:0:
207,116,26062,1,0,0:0:0:0:
207,116,26316,2,0,B|265:117|330:91,1,120,0|8,3:0|3:0,0:0:0:0:
455,9,27333,2,0,P|440:64|457:135,1,120,0|8,3:0|3:0,0:0:0:0:
489,193,28096,2,0,P|493:245|471:320,1,120,0|0,0:0|0:0,2:0:0:0:
409,350,28858,1,8,3:0:0:0:
269,280,29367,6,0,L|207:287,1,60,0|0,3:0|0:0,0:0:0:0:
164,350,29875,1,8,3:0:0:0:
164,350,30130,2,0,P|172:292|139:233,1,120,0|0,0:0|0:0,2:0:0:0:
71,211,30892,1,8,3:0:0:0:
131,66,31401,2,0,B|39:82|39:82|6:68,2,120,0|8|0,3:0|3:0|3:0,0:0:0:0:
275,7,32926,2,0,L|355:14,1,60,8|0,3:0|0:0,2:0:0:0:
408,37,33435,6,0,P|436:84|419:157,1,120,0|8,3:0|3:0,0:0:0:0:
364,193,34197,1,0,2:0:0:0:
364,193,34452,2,0,B|401:185|401:185|497:213,1,120,0|8,3:0|3:0,2:0:0:0:
452,361,35469,2,0,P|381:375|331:357,1,120,0|8,3:0|3:0,0:0:0:0:
291,297,36231,2,0,P|221:277|173:299,1,120,0|0,0:0|0:0,2:0:0:0:
122,347,36994,1,8,3:0:0:0:
80,196,37503,6,0,L|16:188,2,60,0|0|8,3:0|0:0|3:0,0:0:0:0:
122,130,38265,2,0,L|253:127,1,120
301,177,39028,1,0,3:0:0:0:
416,72,39536,2,0,L|412:6,2,60,0|0|8,3:0|0:0|3:0,2:0:0:0:
475,122,40299,2,0,P|498:167|485:252,1,120,0|0,0:0|2:0,2:0:0:0:
432,283,41062,1,8,0:3:0:0:
320,174,41570,6,0,P|250:164|205:189,1,120,0|0,3:0|3:0,2:0:0:0:
176,257,42333,1,2,0:0:0:0:
98,246,42587,2,0,B|113:186|113:186|91:105,1,120,8|2,3:2|0:0,2:0:0:0:
220,33,43604,2,0,L|366:13,1,120,0|0,3:0|3:0,2:0:0:0:
391,74,44367,1,2,0:0:0:0:
354,142,44621,1,8,0:0:0:0:
508,120,45130,1,2,3:2:0:0:
446,242,45638,6,0,L|455:309,1,60,0|0,3:0|2:0,0:0:0:0:
375,303,46147,2,0,L|366:370,1,60,8|2,0:0|0:0,0:0:0:0:
289,367,46655,2,0,P|256:333|167:331,1,120,8|2,0:0|0:0,2:0:0:0:
37,370,47672,2,0,L|27:251,1,120,0|0,3:0|3:0,2:0:0:0:
79,192,48435,1,0,2:0:0:0:
137,243,48689,1,8,0:0:0:0:
351,47,49706,6,2,P|424:43|469:79,1,125.999996154785,2|10,3:1|0:1,0:1:0:0:
496,148,50469,1,0,2:0:0:0:
455,219,50723,1,2,3:1:0:0:
296,177,51231,1,8,0:0:0:0:
269,338,51740,2,0,L|194:323,1,62.9999980773926,0|2,3:0|0:0,0:0:0:0:
156,261,52248,2,0,L|74:269,1,62.9999980773926,8|0,0:0|2:0,0:0:0:0:
37,327,52757,2,0,P|50:269|40:196,1,125.999996154785,0|8,0:0|0:0,2:0:0:0:
10,127,53520,1,2,3:2:0:0:
10,127,53774,5,0,3:0:0:0:
116,3,54282,1,10,0:0:0:0:
234,115,54791,2,0,L|311:122,1,62.9999980773926,2|2,3:2|0:0,0:0:0:0:
340,189,55299,2,0,L|429:183,1,62.9999980773926,8|2,0:0|0:0,2:0:0:0:
456,122,55808,2,0,P|481:179|450:255,1,125.999996154785,2|10,3:2|0:0,0:0:0:0:
488,316,56570,2,2,P|432:282|358:288,1,125.999996154785,2|2,3:2|0:1,0:1:0:0:
309,335,57333,1,10,0:0:0:0:
149,297,57842,6,2,L|154:148,1,125.999996154785,2|10,3:1|0:1,0:1:0:0:
156,89,58604,1,2,2:1:0:0:
156,89,58858,2,0,P|93:77|21:120,1,125.999996154785,0|8,3:1|0:0,2:0:0:0:
13,263,59875,2,0,L|27:351,1,62.9999980773926,0|0,3:0|2:0,0:0:0:0:
94,364,60384,2,0,L|166:370,1,62.9999980773926,8|2,0:0|0:0,0:0:0:0:
205,303,60892,2,0,P|241:273|330:279,1,125.999996154785,0|8,3:0|0:0,2:0:0:0:
378,327,61655,1,2,0:0:0:0:
445,281,61909,6,0,L|437:151,1,125.999996154785,0|8,3:0|0:0,0:0:0:0:
350,15,62926,2,0,P|298:76|230:70,1,125.999996154785,0|8,3:0|0:0,2:0:0:0:
180,49,63689,1,2,0:0:0:0:
108,89,63943,2,0,L|91:242,1,125.999996154785,2|8,3:1|0:0,0:0:0:0:
168,360,64960,2,0,B|315:282|264:405|428:329,1,251.999992309571,0|0,3:0|0:0,0:0:0:0:
491,41,68011,6,0,P|433:24|387:83,1,125.999996154785,2|10,3:0|0:3,2:0:0:0:
430,136,68774,1,0,2:0:0:0:
430,136,69028,2,2,P|376:114|290:118,1,125.999996154785,2|8,3:0|3:0,0:1:0:0:
171,23,70045,2,0,B|166:69|166:69|173:99|173:99|168:147,1,125.999996154785,0|8,3:0|3:0,2:0:0:0:
121,215,70808,1,2,0:3:0:0:
121,215,71062,2,2,B|147:185|147:185|181:173|235:201,1,125.999996154785,0|8,3:0|3:0,0:1:0:0:
322,333,72079,6,0,P|397:343|410:295,1,125.999996154785,0|8,3:0|3:0,2:0:0:0:
493,317,72842,1,2,0:3:0:0:
493,317,73096,2,2,P|454:264|453:198,1,125.999996154785,0|8,3:0|3:0,0:1:0:0:
489,46,74113,1,0,3:0:0:0:
371,10,74494,1,0,2:0:0:0:
338,128,74875,1,2,0:3:0:0:
338,128,75130,2,0,P|275:153|205:118,1,125.999996154785,0|0,3:0|2:0,0:0:0:0:
55,45,84282,6,0,P|90:117|93:177,1,125.999996154785,0|8,0:0|0:3,2:0:0:0:
39,316,85299,2,0,P|88:301|169:317,1,125.999996154785,2|0,0:0|0:0,0:0:0:0:
319,271,86316,2,0,P|384:283|440:227,1,125.999996154785,2|8,0:0|0:3,2:0:0:0:
483,187,87079,1,0,0:0:0:0:
394,49,87587,2,0,L|325:39,1,62.9999980773926,2|8,0:0|0:3,2:0:0:0:
168,19,88350,6,0,B|145:57|145:57|162:148,1,125.999996154785,2|8,0:0|0:3,2:0:0:0:
214,198,89113,2,0,P|173:187|94:236,1,125.999996154785,0|0,0:0|0:0,2:0:0:0:
68,298,89875,1,8,0:3:0:0:
219,360,90384,2,0,L|359:342,1,125.999996154785,2|8,0:0|0:3,0:0:0:0:
410,296,91147,1,0,0:0:0:0:
475,344,91401,1,2,0:0:0:0:
415,21,92418,6,0,P|374:42|312:33,1,83.9999974365235,0|0,3:0|0:0,2:0:0:0:
285,22,92926,2,0,P|222:16|193:34,1,83.9999974365235,2|0,3:0|0:0,0:0:0:0:
170,67,93435,2,0,L|181:214,1,125.999996154785,8|8,0:0|0:3,0:0:0:0:
286,317,94452,2,0,P|335:322|374:301,1,83.9999974365235,0|0,3:0|0:0,2:0:0:0:
417,326,94960,2,0,P|448:289|456:249,1,83.9999974365235,2|2,3:0|0:3,0:0:0:0:
498,220,95469,2,0,P|474:158|478:74,1,125.999996154785,0|8,0:0|0:0,0:0:0:0:
338,4,96486,6,0,P|299:44|236:41,1,83.9999974365235,0|0,3:0|0:0,2:0:0:0:
220,34,96994,1,0,3:0:0:0:
57,13,97503,2,0,P|68:65|56:106,1,83.9999974365235,8|0,0:0|0:0,2:0:0:0:
31,140,98011,1,0,0:0:0:0:
88,293,98520,2,0,B|138:311|176:294|176:294|248:318,2,125.999996154785,0|0|10,3:0|3:0|0:0,2:0:0:0:
271,21,100553,6,2,P|331:68|344:137,1,125.999996154785,2|10,3:1|0:1,0:1:0:0:
330,194,101316,1,2,0:1:0:0:
284,262,101570,2,0,L|136:244,1,125.999996154785,2|8,0:1|0:0,2:0:0:0:
19,160,102587,2,0,P|11:118|14:87,1,62.9999980773926,0|2,3:0|0:0,0:0:0:0:
54,27,103096,2,0,P|90:9|140:13,1,62.9999980773926,8|2,0:0|3:2,0:0:0:0:
189,33,103604,2,0,P|249:68|328:66,1,125.999996154785,2|8,0:0|0:0,2:0:0:0:
453,4,104621,6,0,B|484:42|484:42|473:139,1,125.999996154785,2|8,3:2|0:0,2:0:0:0:
498,280,105638,2,0,P|457:260|421:267,1,62.9999980773926,2|2,0:0|3:2,2:0:0:0:
362,235,106147,1,10,0:0:0:0:
299,287,106401,1,2,0:0:0:0:
262,360,106655,2,0,P|220:359|166:284,1,125.999996154785,2|8,3:2|0:0,0:0:0:0:
87,318,107418,2,2,P|119:294|136:192,1,125.999996154785,2|2,3:2|0:1,0:1:0:0:
95,146,108181,1,8,0:0:0:0:
221,42,108689,6,2,B|277:34|277:34|361:65,1,125.999996154785,2|10,3:1|0:1,0:1:0:0:
423,48,109452,1,2,0:1:0:0:
423,48,109706,2,0,P|369:87|363:163,1,125.999996154785,2|8,0:0|0:0,0:0:0:0:
315,300,110723,2,0,L|456:287,1,125.999996154785,0|10,3:0|0:0,0:0:0:0:
496,228,111486,1,2,3:2:0:0:
473,149,111740,2,0,P|415:111|344:147,1,125.999996154785,2|8,0:0|0:0,2:0:0:0:
245,237,112757,6,0,P|176:242|126:195,1,125.999996154785,0|8,3:0|0:0,0:0:0:0:
99,48,113774,1,2,0:0:0:0:
19,191,114282,2,0,L|36:264,1,62.9999980773926,8|2,0:0|0:0,0:0:0:0:
34,334,114791,2,0,B|60:298|60:298|101:287|152:307,1,125.999996154785,2|8,3:1|0:0,0:0:0:0:
214,268,115553,1,2,3:2:0:0:
214,268,115808,2,0,P|274:280|344:228,1,125.999996154785,0|0,3:2|3:0,0:0:0:0:
405,60,124960,6,0,P|358:43|292:97,1,125.999996154785,0|10,3:0|0:3,0:0:0:0:
251,148,125723,1,0,2:0:0:0:
251,148,125977,2,2,P|197:159|144:103,1,125.999996154785,2|8,3:0|0:3,0:1:0:0:
18,13,126994,2,0,B|36:46|36:46|25:153,1,125.999996154785,0|8,3:0|3:0,0:0:0:0:
53,211,127757,1,2,0:3:0:0:
53,211,128011,2,2,P|97:202|163:260,1,125.999996154785,2|10,3:0|3:0,0:1:0:0:
290,345,129028,6,0,P|323:347|359:341,1,62.9999980773926,0|2,3:0|0:3,2:0:0:0:
430,365,129536,2,0,P|475:334|487:306,1,62.9999980773926,8|2,0:3|0:3,2:0:0:0:
498,248,130045,2,2,P|475:189|478:105,1,125.999996154785,0|8,3:0|3:0,0:1:0:0:
343,27,131062,1,0,3:0:0:0:
300,141,131443,1,0,2:0:0:0:
216,50,131825,1,2,0:3:0:0:
216,50,132079,2,0,P|155:56|129:135,1,125.999996154785,0|0,3:0|3:0,2:0:0:0:
256,192,145299,12,0,148350,0:0:0:0:
74,49,149367,6,2,L|88:118,1,62.9999980773926,2|2,3:1|0:1,0:1:0:0:
161,142,149875,2,2,L|146:219,1,62.9999980773926,10|2,0:1|0:1,0:1:0:0:
110,276,150384,1,2,0:1:0:0:
256,348,150892,2,0,P|299:345|339:329,1,62.9999980773926,8|0,0:0|0:0,2:0:0:0:
392,373,151401,2,0,P|374:312|381:233,1,125.999996154785,0|8,3:0|0:0,2:0:0:0:
418,179,152164,1,2,3:2:0:0:
418,179,152418,2,0,P|422:121|393:49,1,125.999996154785,2|8,0:0|0:0,2:0:0:0:
323,26,153181,1,2,0:0:0:0:
252,67,153435,5,0,3:0:0:0:
96,15,153943,1,8,0:0:0:0:
26,163,154452,2,0,L|42:245,1,62.9999980773926,2|2,0:0|3:2,2:0:0:0:
119,224,154960,2,0,L|111:308,1,62.9999980773926,8|2,0:0|0:0,2:0:0:0:
59,348,155469,2,0,B|92:332|92:332|145:334|179:370,1,125.999996154785,2|8,3:2|0:0,0:0:0:0:
253,346,156231,2,2,P|303:345|363:282,1,125.999996154785,0|2,3:0|0:1,0:1:0:0:
371,215,156994,1,8,0:0:0:0:
302,66,157503,6,2,B|360:38|360:38|437:59,2,125.999996154785,2|10|0,3:1|0:1|0:0,0:1:0:0:
262,137,158774,1,0,3:0:0:0:
220,207,159028,2,0,P|167:216|141:207,1,62.9999980773926,8|0,0:0|2:0,0:0:0:0:
92,166,159536,2,0,B|62:90|107:111|82:19,2,125.999996154785,0|8|2,3:0|0:0|0:0,0:0:0:0:
42,322,161062,2,0,P|85:329|110:352,1,62.9999980773926,8|2,0:0|0:0,2:0:0:0:
175,308,161570,6,0,P|225:335|308:304,1,125.999996154785,0|8,3:0|0:0,0:0:0:0:
446,370,162587,2,0,P|473:318|441:240,1,125.999996154785,2|8,0:0|0:0,2:0:0:0:
404,192,163350,1,2,0:0:0:0:
349,131,163604,2,0,L|361:-7,1,125.999996154785,2|8,3:1|0:0,0:0:0:0:
195,6,164621,2,0,B|202:62|202:62|193:84|193:84|205:157,1,125.999996154785,0|8,0:0|0:0,0:0:0:0:
235,203,165384,1,2,0:0:0:0:
235,203,165638,6,0,P|182:168|105:188,1,125.999996154785,0|8,3:0|0:0,0:0:0:0:
48,210,166401,1,2,0:0:0:0:
32,290,166655,1,2,0:0:0:0:
177,364,167164,1,8,0:0:0:0:
320,285,167672,2,0,L|333:141,1,125.999996154785,0|8,3:0|0:0,2:0:0:0:
388,100,168435,1,2,3:2:0:0:
343,31,168689,1,2,0:0:0:0:
183,68,169197,1,8,0:0:0:0:
212,229,169706,6,0,P|265:270|333:250,1,125.999996154785,2|8,0:0|0:0,2:0:0:0:
392,221,170469,1,2,0:0:0:0:
392,221,170723,2,0,L|386:79,1,125.999996154785,2|8,0:0|0:0,0:0:0:0:
242,16,171740,2,0,P|193:78|129:91,1,125.999996154785,0|8,3:0|0:0,2:0:0:0:
70,70,172503,1,0,3:0:0:0:
70,70,172757,2,0,B|57:109|57:109|73:199,1,125.999996154785,2|8,0:0|0:0,2:0:0:0:
13,345,173774,6,2,L|83:336,1,62.9999980773926,0|0,3:0|0:0,0:1:0:0:
148,299,174282,2,2,L|236:307,1,62.9999980773926,10|2,0:1|0:1,0:1:0:0:
276,354,174791,2,2,P|330:364|390:302,1,125.999996154785,2|8,0:1|0:0,0:1:0:0:
509,217,175808,2,2,P|457:175|457:107,1,125.999996154785,2|10,3:1|0:1,0:1:0:0:
475,41,176570,1,2,3:2:0:0:
395,19,176825,1,0,0:0:0:0:
360,178,177333,1,8,0:0:0:0:
234,72,177842,6,0,P|155:63|111:116,1,125.999996154785,0|8,3:0|0:0,2:0:0:0:
84,162,178604,1,2,0:0:0:0:
44,236,178858,2,0,L|30:364,1,125.999996154785,2|8,0:0|0:0,2:0:0:0:
168,272,179875,2,0,P|229:265|280:308,1,125.999996154785,2|8,3:2|0:0,2:0:0:0:
328,367,180638,2,0,L|398:355,1,62.9999980773926,2|0,3:2|3:0,2:0:0:0:
411,276,181147,1,8,0:0:0:0:
384,198,181401,1,8,0:0:0:0:
418,123,181655,1,8,0:0:0:0:
