osu file format v14

[General]
AudioFilename: audio.mp3
AudioLeadIn: 0
PreviewTime: 52
Countdown: 0
SampleSet: Soft
StackLeniency: 0.2
Mode: 0
LetterboxInBreaks: 0
WidescreenStoryboard: 1

[Editor]
DistanceSpacing: 1.1
BeatDivisor: 4
GridSize: 4
TimelineZoom: 3.399998

[Metadata]
Title:CUT
TitleUnicode:CUT
Artist:Kamiyama Yoh
ArtistUnicode:神山羊
Creator:Ryuusei Aika
Version:Irohas' Insane
Source:
Tags:-Keitaro Keitaro Error- Error Fixxis Black Man Black_Man Irohas japanese pop j-pop male vocal 有機酸 uki3/ewe ゆめみるこども Yumemiru Kodomo
BeatmapID:2201286
BeatmapSetID:1053399

[Difficulty]
HPDrainRate:5
CircleSize:4.2
OverallDifficulty:8
ApproachRate:8.3
SliderMultiplier:1.5
SliderTickRate:1

[Events]
//Background and Video events
0,0,"BG.jpg",0,0
//Break Periods
2,76147,83578
2,117025,124256
2,133096,144595
//Storyboard Layer 0 (Background)
//Storyboard Layer 1 (Fail)
//Storyboard Layer 2 (Pass)
//Storyboard Layer 3 (Foreground)
//Storyboard Layer 4 (Overlay)
//Storyboard Sound Samples

[TimingPoints]
-1141,508.474576271186,4,2,1,50,1,0
130,-333.333333333333,4,2,1,50,0,0
892,-142.857142857143,4,2,1,50,0,0
2503,-142.857142857143,4,2,1,5,0,0
2672,-142.857142857143,4,2,1,50,0,0
4537,-142.857142857143,4,2,1,5,0,0
4705,-142.857142857143,4,2,1,50,0,0
5977,-142.857142857143,4,2,1,50,0,0
6486,-142.857142857143,4,2,1,50,0,0
6570,-142.857142857143,4,2,1,5,0,0
6740,-142.857142857143,4,2,1,50,0,0
8265,-66.6666666666667,4,2,1,50,0,0
8392,-66.6666666666667,4,2,1,5,0,0
8520,-200,4,2,1,50,0,0
8901,-200,4,2,1,5,0,0
9028,-105.263157894737,4,2,1,60,0,0
15892,-105.263157894737,4,3,0,30,0,0
16020,-105.263157894737,4,2,1,60,0,0
16146,-105.263157894737,4,3,0,30,0,0
16401,-105.263157894737,4,2,1,60,0,0
17164,-90.9090909090909,4,2,1,70,0,0
23647,-100,4,2,1,70,0,0
24600,-100,4,2,1,40,0,0
25299,-105.263157894737,4,2,1,50,0,0
40553,-333.333333333333,4,2,1,50,0,0
41570,-100,4,2,2,50,0,0
42842,-83.3333333333333,4,2,2,50,0,0
42969,-83.3333333333333,4,2,2,5,0,0
43096,-83.3333333333333,4,2,2,50,0,0
43223,-83.3333333333333,4,2,2,5,0,0
43350,-83.3333333333333,4,2,2,50,0,0
43477,-83.3333333333333,4,2,2,5,0,0
43604,-100,4,2,2,50,0,0
44875,-83.3333333333333,4,2,2,50,0,0
45002,-83.3333333333333,4,2,2,50,0,0
45003,-83.3333333333333,4,2,2,50,0,0
45130,-83.3333333333333,4,2,2,50,0,0
45257,-83.3333333333333,4,2,2,5,0,0
45384,-83.3333333333333,4,2,2,50,0,0
45511,-83.3333333333333,4,2,2,5,0,0
45638,-83.3333333333333,4,2,2,50,0,0
46147,-83.3333333333333,4,2,0,50,0,0
46337,-83.3333333333333,4,2,2,50,0,0
47672,-105.263157894737,4,2,2,50,0,0
48181,-80,4,2,2,50,0,0
48689,-95.2380952380954,4,2,2,50,0,0
48774,-95.2380952380954,4,2,2,50,0,0
48943,-66.6666666666667,4,2,2,50,0,0
49706,-90.9090909090909,4,2,2,70,0,0
51231,-90.9090909090909,4,2,2,70,0,0
51613,-90.9090909090909,4,2,2,70,0,0
52248,-90.9090909090909,4,2,2,70,0,0
53011,-100,4,2,2,70,0,0
53265,-83.3333333333333,4,2,2,70,0,0
53774,-90.9090909090909,4,2,2,70,0,0
54282,-100,4,2,2,70,0,0
55808,-100,4,2,2,70,0,0
56570,-100,4,2,2,70,0,0
57842,-71.4285714285714,4,2,2,70,0,1
57969,-71.4285714285714,4,2,2,5,0,1
58096,-71.4285714285714,4,2,2,70,0,1
58223,-71.4285714285714,4,2,2,5,0,1
58350,-71.4285714285714,4,2,2,70,0,1
58477,-71.4285714285714,4,2,2,5,0,1
58604,-71.4285714285714,4,2,2,70,0,1
58731,-71.4285714285714,4,2,2,5,0,1
58858,-71.4285714285714,4,2,2,70,0,1
59239,-71.4285714285714,4,2,2,70,0,1
59240,-71.4285714285714,4,2,2,70,0,1
59367,-71.4285714285714,4,2,2,70,0,1
59494,-71.4285714285714,4,2,2,5,0,1
59621,-71.4285714285714,4,2,2,70,0,1
59748,-71.4285714285714,4,2,2,5,0,1
59875,-71.4285714285714,4,2,2,70,0,1
60002,-71.4285714285714,4,2,2,70,0,1
60003,-71.4285714285714,4,2,2,70,0,1
60130,-71.4285714285714,4,2,2,70,0,1
60257,-71.4285714285714,4,2,2,70,0,1
60384,-71.4285714285714,4,2,2,70,0,1
60765,-71.4285714285714,4,2,2,70,0,1
60892,-83.3333333333333,4,2,2,70,0,1
61401,-166.666666666667,4,2,2,70,0,0
61909,-100,4,2,2,70,0,0
62418,-100,4,2,2,70,0,0
63435,-100,4,2,2,70,0,0
63943,-100,4,2,2,70,0,0
64960,-100,4,2,2,70,0,0
65723,-100,4,2,1,50,0,0
65977,-100,4,2,2,70,0,0
66231,-166.666666666667,4,2,1,50,0,0
67418,-111.111111111111,4,2,1,50,0,0
68011,-83.3333333333333,4,2,1,70,0,0
68774,-83.3333333333333,4,2,1,70,0,0
69028,-100,4,2,1,70,0,0
69620,-100,4,2,1,70,0,0
69621,-100,4,2,1,70,0,0
69791,-100,4,2,1,70,0,0
70045,-100,4,2,1,70,0,0
70808,-100,4,2,1,70,0,0
71062,-100,4,2,1,70,0,0
71654,-100,4,2,1,70,0,0
71655,-100,4,2,1,70,0,0
71825,-100,4,2,1,70,0,0
72079,-76.9230769230769,4,2,1,70,0,0
73096,-100,4,2,1,70,0,0
73688,-100,4,2,1,70,0,0
73689,-100,4,2,1,70,0,0
73858,-100,4,2,1,70,0,0
74113,-76.9230769230769,4,2,1,70,0,0
74621,-100,4,2,1,50,0,0
75384,-100,4,2,1,5,0,0
75702,-100,4,2,1,50,0,0
76147,-100,4,2,1,50,0,0
84282,-125,4,2,1,50,0,0
87333,-166.666666666667,4,2,1,50,0,0
88350,-125,4,2,1,50,0,0
91655,-200,4,3,0,40,0,0
92418,-105.263157894737,4,2,1,50,0,0
93435,-105.263157894737,4,2,2,50,0,0
93689,-105.263157894737,4,2,1,50,0,0
95977,-105.263157894737,4,2,2,50,0,0
96486,-105.263157894737,4,2,1,50,0,0
97503,-105.263157894737,4,2,2,50,0,0
97672,-105.263157894737,4,2,1,50,0,0
99536,-105.263157894737,4,2,2,50,0,0
99791,-125,4,2,2,50,0,0
100553,-90.9090909090909,4,2,2,70,0,0
102079,-90.9090909090909,4,2,2,70,0,0
102587,-90.9090909090909,4,2,2,70,0,0
103096,-90.9090909090909,4,2,2,70,0,0
104113,-100,4,2,2,70,0,0
104367,-83.3333333333333,4,2,2,70,0,0
104621,-90.9090909090909,4,2,2,70,0,0
105003,-90.9090909090909,4,2,1,50,0,0
105130,-90.9090909090909,4,2,2,70,0,0
106655,-100,4,2,2,70,0,0
107418,-100,4,2,2,70,0,0
108181,-83.3333333333333,4,2,2,70,0,0
108435,-83.3333333333333,4,2,1,50,0,0
108689,-71.4285714285714,4,2,2,70,0,1
108816,-71.4285714285714,4,2,2,5,0,1
108943,-71.4285714285714,4,2,2,70,0,1
109070,-71.4285714285714,4,2,2,5,0,1
109197,-71.4285714285714,4,2,2,70,0,1
109324,-71.4285714285714,4,2,2,70,0,1
109325,-71.4285714285714,4,2,2,70,0,1
109452,-71.4285714285714,4,2,2,70,0,1
109579,-71.4285714285714,4,2,2,5,0,1
109706,-71.4285714285714,4,2,2,70,0,1
110087,-71.4285714285714,4,2,2,5,0,1
110214,-71.4285714285714,4,2,2,70,0,1
110341,-71.4285714285714,4,2,2,70,0,1
110342,-71.4285714285714,4,2,2,70,0,1
110469,-71.4285714285714,4,2,2,70,0,1
110596,-71.4285714285714,4,2,2,5,0,1
110723,-71.4285714285714,4,2,2,70,0,1
110850,-71.4285714285714,4,2,2,5,0,1
110977,-71.4285714285714,4,2,2,70,0,1
111231,-55.5555555555556,4,2,2,70,0,1
111613,-55.5555555555556,4,2,2,70,0,1
111740,-55.5555555555556,4,2,2,70,0,1
112248,-166.666666666667,4,2,2,70,0,0
112757,-100,4,2,2,70,0,0
113138,-100,4,2,1,50,0,0
113265,-100,4,2,2,70,0,0
114282,-100,4,2,2,70,0,0
114791,-100,4,2,2,70,0,0
115808,-111.111111111111,4,2,2,70,0,0
116825,-125,4,2,1,50,0,0
124452,-100,4,2,1,50,0,0
124960,-83.3333333333333,4,2,1,70,0,0
125977,-83.3333333333333,4,2,1,70,0,0
126486,-83.3333333333333,4,2,1,70,0,0
128011,-83.3333333333333,4,2,1,70,0,0
128520,-111.111111111111,4,2,1,70,0,0
129028,-83.3333333333333,4,2,1,70,0,0
130045,-83.3333333333333,4,2,1,70,0,0
130553,-83.3333333333333,4,2,1,70,0,0
132079,-90.9090909090909,4,2,1,50,0,0
133096,-90.9090909090909,4,2,1,30,0,0
147206,-100,4,2,1,5,0,0
147333,-83.3333333333333,4,2,1,40,0,0
147842,-83.3333333333333,4,2,1,50,0,0
148350,-83.3333333333333,4,2,1,5,0,0
148604,-100,4,2,1,40,0,0
149367,-83.3333333333333,4,2,2,70,0,0
149748,-83.3333333333333,4,2,1,50,0,0
149875,-83.3333333333333,4,2,2,70,0,0
150892,-100,4,2,2,70,0,0
153816,-100,4,2,1,50,0,0
153943,-83.3333333333333,4,2,2,70,0,0
154070,-83.3333333333333,4,2,1,50,0,0
154197,-83.3333333333333,4,2,2,70,0,0
155469,-100,4,2,2,70,0,0
156231,-71.4285714285714,4,2,2,70,0,0
156994,-76.9230769230769,4,2,2,70,0,0
157503,-71.4285714285714,4,2,2,70,0,1
157630,-71.4285714285714,4,2,2,5,0,1
157757,-71.4285714285714,4,2,2,70,0,1
157884,-71.4285714285714,4,2,1,5,0,1
158011,-71.4285714285714,4,2,2,70,0,1
158138,-71.4285714285714,4,2,2,5,0,1
158265,-71.4285714285714,4,2,2,70,0,1
158392,-71.4285714285714,4,2,2,5,0,1
158520,-71.4285714285714,4,2,2,70,0,1
158774,-100,4,2,2,70,0,1
159028,-71.4285714285714,4,2,2,70,0,1
159155,-71.4285714285714,4,2,2,5,0,1
159282,-71.4285714285714,4,2,2,70,0,1
159409,-71.4285714285714,4,2,2,5,0,1
159536,-71.4285714285714,4,2,2,70,0,1
159663,-71.4285714285714,4,2,2,70,0,1
159664,-71.4285714285714,4,2,2,70,0,1
159791,-71.4285714285714,4,2,2,70,0,1
159918,-71.4285714285714,4,2,2,70,0,1
160045,-71.4285714285714,4,2,2,70,0,1
161062,-100,4,2,2,70,0,0
162079,-90.9090909090909,4,2,2,70,0,0
163096,-100,4,2,2,70,0,0
163604,-100,4,2,2,70,0,0
164113,-83.3333333333333,4,2,2,70,0,0
164717,-83.3333333333333,4,2,1,50,0,0
165002,-83.3333333333333,4,2,2,70,0,0
165130,-100,4,2,2,70,0,0
165638,-100,4,2,2,70,0,0
166147,-100,4,2,2,70,0,0
166655,-100,4,2,2,70,0,0
172757,-100,4,2,1,50,0,0
173265,-100,4,2,2,70,0,0
174282,-100,4,2,2,70,0,0
174791,-100,4,2,2,70,0,0
175299,-100,4,2,2,70,0,0
175808,-100,4,2,2,70,0,0
176316,-100,4,2,2,70,0,0
176825,-100,4,2,2,70,0,0
177333,-100,4,2,2,70,0,0
181570,-100,4,2,1,60,0,0
181909,-100,4,2,1,50,0,0
181952,-100,4,2,1,50,0,0
182163,-100,4,2,1,40,0,0

[Colours]
Combo1 : 243,233,188
Combo2 : 239,188,252
Combo3 : 159,159,159
Combo4 : 188,233,232

[HitObjects]
435,338,130,6,0,P|450:330|433:334,1,44.999998626709,0|0,2:0|2:0,2:0:0:0:
435,338,892,6,0,L|450:232,1,104.999996795654,0|8,2:0|0:3,2:0:0:0:
376,171,1655,1,0,2:0:0:0:
376,171,1909,2,0,L|315:181,1,52.4999983978272,0|0,2:0|2:0,2:0:0:0:
234,242,2418,2,0,L|173:232,1,52.4999983978272,8|0,0:3|2:0,0:0:0:0:
99,185,2926,6,0,P|63:184|32:288,1,157.499995193482,0|0,2:0|2:0,2:0:0:0:
178,111,4197,2,0,L|156:-7,1,104.999996795654,0|0,2:0|2:0,2:0:0:0:
291,109,4960,6,0,L|279:172,2,52.4999983978272,0|0|8,0:0|0:0|0:3,2:0:0:0:
241,36,5723,1,0,2:0:0:0:
507,214,6231,5,0,2:0:0:0:
423,217,6486,1,8,0:3:0:0:
373,277,6740,1,0,2:0:0:0:
385,355,6994,5,0,0:0:0:0:
264,308,7248,2,0,L|203:321,1,52.4999983978272,0|8,0:0|0:3,0:0:0:0:
137,277,7757,1,0,0:0:0:0:
37,358,8011,5,0,0:0:0:0:
240,204,8265,2,0,P|245:166|256:125,1,56.2500021457673,8|0,0:3|0:0,0:0:0:0:
132,55,8520,2,0,L|145:124,1,56.25,8|0,0:3|0:0,0:0:0:0:
142,110,9028,6,0,P|81:68|11:76,1,142.49999619484,0|8,3:0|3:0,0:0:0:0:
169,213,9791,1,0,2:0:0:0:
169,213,10045,2,0,L|246:203,1,71.2499980974198,0|0,3:0|0:0,2:0:0:0:
63,365,10553,2,0,P|59:325|49:285,1,71.2499980974198,8|0,3:0|0:0,0:0:0:0:
275,115,11062,6,0,L|251:270,1,142.49999619484,0|8,3:0|3:0,0:3:0:0:
340,384,11825,2,0,P|347:343|345:310,1,71.2499980974198,0|0,2:0|3:0,2:0:0:0:
226,354,12333,5,0,2:0:0:0:
443,268,12587,2,0,L|530:286,1,71.2499980974198,8|0,3:0|2:0,0:0:0:0:
354,18,13096,5,0,3:0:0:0:
312,97,13350,1,0,2:0:0:0:
233,127,13604,1,8,3:0:0:0:
150,102,13858,1,0,2:0:0:0:
0,231,14113,2,0,L|90:215,1,71.2499980974198,0|0,3:0|2:0,0:0:0:0:
254,324,14621,2,0,P|218:314|171:314,1,71.2499980974198,8|0,3:0|0:0,2:0:0:0:
406,240,15130,6,0,P|445:235|493:321,1,142.49999619484,0|8,3:0|3:0,0:0:0:0:
317,180,15892,2,0,P|324:140|333:87,1,71.2499980974198,2|0,0:0|0:0,0:0:0:0:
171,7,16401,2,0,P|185:44|191:79,1,71.2499980974198,0|8,2:0|3:0,0:0:0:0:
87,84,16909,1,0,0:0:0:0:
277,0,17164,5,0,3:0:0:0:
355,41,17418,2,0,L|409:32,1,41.2500012588501,0|0,2:0|0:0,0:0:0:0:
470,0,17672,1,8,3:0:0:0:
512,100,17842,6,0,L|466:90,1,27.5000008392334,0|0,0:0|2:0,0:0:0:0:
486,95,18181,6,2,L|510:234,1,137.500004196167,2|0,3:0|0:0,2:1:0:0:
443,279,18689,2,0,L|407:274,1,27.5000008392334,8|0,3:0|0:0,0:0:0:0:
316,313,18943,1,0,0:0:0:0:
323,340,19070,1,0,0:0:0:0:
331,368,19197,5,0,3:0:0:0:
192,295,19452,2,0,L|202:244,1,41.2500012588501,0|0,2:0|0:0,0:0:0:0:
160,187,19706,5,8,3:0:0:0:
44,257,19875,2,0,L|75:250,1,27.5000008392334,0|0,0:0|2:0,0:0:0:0:
221,121,20214,6,2,B|244:23|244:23|227:36|205:36,1,137.500004196167,0|0,3:0|0:0,2:1:0:0:
127,12,20723,1,8,3:0:0:0:
312,150,20977,1,0,0:0:0:0:
490,36,21231,5,0,3:0:0:0:
397,1,21486,2,0,L|351:12,1,41.2500012588501,0|0,2:0|0:0,0:0:0:0:
477,169,21740,2,0,L|431:158,1,41.2500012588501,8|0,3:0|0:0,2:0:0:0:
305,121,21994,6,0,L|346:112,1,41.2500012588501,0|0,2:0|0:0,0:0:0:0:
511,253,22248,2,2,P|475:210|387:205,1,137.500004196167,0|0,3:0|0:0,2:1:0:0:
329,238,22757,1,8,3:0:0:0:
224,345,23011,1,0,2:0:0:0:
256,360,23138,1,0,0:0:0:0:
297,358,23265,1,0,3:0:0:0:
134,257,23689,1,0,0:0:0:0:
129,253,23774,6,0,P|93:260|47:270,1,75
239,78,24282,2,2,P|309:88|315:175,1,150,0|0,3:0|2:0,2:1:0:0:
325,156,25299,6,0,L|475:135,1,142.49999619484,0|8,3:0|3:0,0:0:0:0:
327,271,26062,1,0,0:0:0:0:
327,271,26316,2,0,P|287:259|248:258,1,71.2499980974198,0|0,3:0|0:0,0:0:0:0:
56,163,26825,2,0,L|137:150,1,71.2499980974198,8|0,3:0|0:0,0:0:0:0:
311,29,27333,6,0,P|275:52|200:47,1,106.87499714613,0|0,3:0|0:0,0:0:0:0:
142,14,27842,1,8,3:0:0:0:
288,215,28096,2,0,L|303:128,1,71.2499980974198,0|0,0:0|3:0,2:0:0:0:
176,242,28604,1,0,0:0:0:0:
258,360,28858,1,8,3:0:0:0:
54,287,29113,1,0,0:0:0:0:
201,139,29367,5,0,3:0:0:0:
176,242,29621,1,0,0:0:0:0:
151,347,29875,1,8,3:0:0:0:
338,302,30130,6,0,P|387:296|440:376,1,142.49999619484,0|0,0:0|0:0,2:0:0:0:
282,196,30892,1,8,3:0:0:0:
396,120,31147,5,0,0:0:0:0:
174,245,31401,2,0,P|124:237|75:230,1,71.2499980974198,0|0,3:0|0:0,0:0:0:0:
27,292,31909,5,8,3:0:0:0:
143,89,32164,2,0,P|152:124|154:159,1,71.2499980974198,0|0,0:0|3:0,0:0:0:0:
54,9,32672,1,0,0:0:0:0:
266,103,32926,1,8,3:0:0:0:
78,264,33181,1,0,0:0:0:0:
187,348,33435,6,0,P|248:306|318:314,1,142.49999619484,0|8,3:0|3:0,0:0:0:0:
433,371,34197,1,0,2:0:0:0:
433,371,34452,2,0,P|440:321|451:284,1,71.2499980974198,0|0,3:0|0:0,2:0:0:0:
266,145,34960,2,0,L|282:229,1,71.2499980974198,8|0,3:0|0:0,2:0:0:0:
445,151,35469,6,0,P|462:102|438:33,1,106.87499714613,0|0,3:0|0:0,0:0:0:0:
375,0,35977,1,8,3:0:0:0:
213,65,36231,2,0,L|306:76,1,71.2499980974198,0|0,0:0|3:0,2:0:0:0:
156,190,36740,1,0,0:0:0:0:
0,93,36994,1,8,3:0:0:0:
144,0,37248,1,0,0:0:0:0:
109,104,37503,5,0,3:0:0:0:
63,220,37757,1,0,0:0:0:0:
195,273,38011,1,8,3:0:0:0:
245,145,38265,1,0,0:0:0:0:
156,190,38520,6,0,P|164:248|179:352,1,142.49999619484,0|0,3:0|3:0,0:0:0:0:
93,384,39282,1,0,0:0:0:0:
276,261,39536,1,0,3:0:0:0:
436,314,39791,2,0,P|395:321|340:330,1,71.2499980974198,0|8,0:0|3:0,0:0:0:0:
265,380,40299,5,0,0:0:0:0:
501,230,40553,2,0,P|509:215|497:227,1,44.999998626709,0|8,3:0|0:3,0:0:0:0:
501,230,41570,6,0,P|507:187|520:136,1,75,0|2,3:0|0:0,2:0:0:0:
398,49,41952,1,0,0:0:0:0:
394,54,42079,2,0,L|408:140,1,75,0|2,3:0|0:0,0:0:0:0:
512,62,42587,1,8,3:2:0:0:
304,132,42842,6,0,L|238:120,1,44.999998626709,2|0,0:0|0:0,2:0:0:0:
178,69,43096,2,0,L|112:81,1,44.999998626709,2|0,0:0|0:0,0:0:0:0:
44,131,43350,2,0,L|-22:119,1,44.999998626709,2|0,0:0|0:0,0:0:0:0:
154,241,43604,6,0,B|165:200|165:200|151:152,1,75,0|2,3:0|0:0,2:0:0:0:
48,236,43986,1,0,0:0:0:0:
45,241,44113,2,0,L|60:327,1,75,0|2,3:0|0:0,0:0:0:0:
129,380,44452,2,0,L|134:355,2,25,0|0|8,0:0|0:0|0:0,0:0:0:0:
242,276,44875,6,0,L|185:286,1,44.999998626709,2|0,0:0|0:0,2:0:0:0:
354,365,45130,2,0,L|297:355,1,44.999998626709,2|0,3:2|0:0,0:0:0:0:
463,266,45384,2,0,L|406:276,1,44.999998626709,2|0,0:0|0:0,0:0:0:0:
329,230,45638,5,0,3:0:0:0:
329,191,45808,5,0,0:0:0:0:
365,205,45977,5,0,0:0:0:0:
340,207,46147,5,8,0:0:0:0:
243,90,46401,6,0,L|237:120,2,29.9999990844727,0|2|0,0:0|0:0|0:0,0:0:0:0:
122,17,46655,5,8,0:0:0:0:
122,59,46825,5,0,0:0:0:0:
158,41,46994,5,0,0:0:0:0:
133,40,47164,5,2,0:0:0:0:
4,155,47418,2,0,L|58:147,1,44.999998626709,2|0,0:0|0:0,0:0:0:0:
212,208,47672,5,0,3:0:0:0:
205,202,47863,2,0,L|151:212,1,53.4374985730648
0,315,48181,6,0,P|41:287|94:288,1,93.75,0|0,3:0|2:0,2:0:0:0:
155,349,48520,2,0,L|147:387,1,31.25
43,174,48689,2,0,L|49:143,1,26.2499991989136,8|0,0:0|0:0,0:0:0:0:
358,268,49197,5,0,0:0:0:0:
365,273,49261,2,0,L|404:268,1,28.1250010728836
398,259,49706,6,2,B|322:249|324:307|240:303,1,165.000005035401,2|10,3:1|0:1,0:1:0:0:
95,168,50469,1,0,2:0:0:0:
0,273,50723,2,0,L|93:257,1,82.5000025177003,2|2,3:1|0:0,0:0:0:0:
185,190,51231,1,8,0:0:0:0:
77,3,51486,1,2,3:2:0:0:
242,85,51740,6,0,L|344:70,1,82.5000025177003,0|2,3:0|0:0,0:0:0:0:
500,159,52248,2,0,P|507:105|522:52,1,82.5000025177003,8|0,0:0|2:0,0:0:0:0:
353,196,52757,2,0,L|369:287,1,82.5000025177003,0|2,0:0|0:0,2:0:0:0:
274,369,53181,1,0,3:0:0:0:
268,362,53265,2,0,L|278:314,1,44.999998626709,8|0,0:0|0:0,0:0:0:0:
384,384,53520,1,2,3:2:0:0:
160,311,53774,6,0,B|84:301|86:359|2:355,1,165.000005035401,0|10,3:0|0:0,0:0:0:0:
142,195,54536,1,2,3:2:0:0:
256,236,54791,2,0,L|339:223,1,75,2|2,3:2|0:0,0:0:0:0:
485,155,55299,1,8,0:0:0:0:
412,349,55553,1,2,0:0:0:0:
319,104,55808,1,2,3:2:0:0:
512,254,56062,1,0,0:0:0:0:
284,365,56316,1,10,0:0:0:0:
399,241,56570,6,2,L|427:74,1,150,2|2,3:2|0:1,0:1:0:0:
297,0,57333,2,0,P|304:43|313:92,1,75,10|2,0:0|0:0,0:0:0:0:
249,138,57714,1,0,0:0:0:0:
242,143,57842,6,0,L|182:132,1,52.4999983978272,2|0,3:1|0:0,0:0:0:0:
82,206,58096,2,0,L|140:217,1,52.4999983978272,2|0,0:1|0:0,0:0:0:0:
51,116,58350,6,2,L|0:125,1,52.4999983978272,10|0,0:1|0:0,0:1:0:0:
190,295,58604,2,2,L|241:285,1,52.4999983978272,2|0,2:1|0:0,0:1:0:0:
313,223,58858,6,2,P|366:219|391:323,1,157.499995193482,2|0,3:1|0:0,2:1:0:0:
493,346,59367,2,0,P|496:316|506:281,1,52.4999983978272,10|0,0:1|0:0,0:0:0:0:
410,163,59621,2,0,L|422:236,1,52.4999983978272,2|0,2:1|0:0,0:0:0:0:
504,138,59875,6,2,L|514:78,1,52.4999983978272,2|0,3:1|0:0,0:1:0:0:
424,0,60130,2,2,L|415:54,1,52.4999983978272,2|0,2:1|0:0,0:1:0:0:
309,85,60384,6,2,B|236:78|238:132|150:125,1,157.499995193482,10|0,0:1|0:0,0:1:0:0:
80,75,60892,1,0,3:0:0:0:
146,282,61147,1,2,0:0:0:0:
0,214,61401,6,0,L|64:202,1,44.999998626709,8|2,0:0|0:0,0:0:0:0:
196,377,61909,6,0,P|160:334|59:332,1,150,0|8,3:0|0:0,0:0:0:0:
364,113,62672,1,0,0:0:0:0:
252,46,62926,2,0,L|278:211,1,150,0|8,3:0|0:0,2:0:0:0:
444,261,63689,1,2,0:0:0:0:
346,384,63943,6,0,P|353:339|359:297,1,75,2|0,3:1|0:0,0:0:0:0:
137,123,64452,1,8,0:0:0:0:
216,357,64706,1,0,0:0:0:0:
0,315,64960,6,0,B|55:246|177:197|222:285|105:356|58:232,1,300,0|0,3:0|0:0,0:0:0:0:
67,251,66231,6,0,L|78:182,2,67.4999979400635,0|0|0,0:0|0:0|0:0,2:0:0:0:
239,366,67439,6,0,P|282:327|351:329,1,126.562496137619
434,357,68011,6,0,L|484:348,1,44.999998626709,2|0,3:0|0:0,2:0:0:0:
357,220,68265,2,0,L|312:227,1,44.999998626709
236,278,68520,1,10,0:3:0:0:
150,207,68689,6,0,L|156:170,1,29.9999990844727,0|0,0:0|2:0,0:0:0:0:
0,328,69028,6,2,P|44:286|116:285,1,125,2|0,3:0|0:0,0:1:0:0:
150,207,69536,2,0,L|144:174,1,25,8|0,3:0|0:0,0:0:0:0:
235,65,69791,1,0,0:0:0:0:
211,80,69918,1,0,0:0:0:0:
238,96,70045,1,0,3:0:0:0:
119,39,70299,5,2,0:3:0:0:
359,151,70553,1,8,3:0:0:0:
432,93,70723,6,0,L|424:54,1,25,0|2,0:0|0:3,0:0:0:0:
510,200,71062,2,2,P|471:194|436:268,1,125,0|0,3:0|0:0,0:1:0:0:
349,325,71570,2,0,L|356:290,1,25,8|0,3:0|0:0,0:0:0:0:
451,376,71825,1,0,0:0:0:0:
247,295,72079,6,0,L|198:304,1,48.7499977684022,0|0,3:0|0:0,2:0:0:0:
77,195,72333,2,0,L|124:203,1,48.7499977684022,2|0,0:3|0:0,0:0:0:0:
47,303,72587,6,0,L|0:311,1,48.7499977684022,8|0,3:0|0:0,2:0:0:0:
236,168,72842,2,0,L|283:176,1,48.7499977684022,2|0,0:3|0:0,0:0:0:0:
364,135,73096,6,2,P|354:83|338:-4,1,125,0|0,3:0|0:0,0:1:0:0:
446,81,73604,2,0,L|479:76,1,25,8|0,3:0|0:0,0:0:0:0:
340,12,73858,1,0,0:0:0:0:
72,155,74113,6,0,B|130:154|141:113|207:122,1,129.999994049073,0|0,3:0|0:0,0:0:0:0:
256,208,74536,1,0,0:0:0:0:
256,208,74621,2,0,P|215:227|172:228,1,75,8|2,3:0|0:3,0:0:0:0:
363,135,75130,2,0,L|448:148,1,75,0|0,3:0|0:0,0:0:0:0:
504,350,84282,6,0,L|516:287,1,60,0|0,0:0|0:0,2:0:0:0:
366,189,84791,2,0,P|375:219|377:247,1,60,8|0,0:3|0:0,0:0:0:0:
290,297,85299,2,0,L|164:282,1,120,2|0,0:0|0:0,0:0:0:0:
90,325,86062,1,0,0:0:0:0:
4,237,86316,5,2,0:0:0:0:
83,203,86570,1,0,0:0:0:0:
105,124,86825,1,8,0:3:0:0:
52,61,87079,1,0,0:0:0:0:
242,135,87333,6,0,L|300:126,1,52.4999983978272,2|2,0:0|0:0,0:0:0:0:
512,261,87884,6,0,L|467:267,1,44.999998626709,2|2,0:0|0:0,0:0:0:0:
382,219,88350,6,0,P|353:213|307:283,1,120,2|8,0:0|0:3,2:0:0:0:
231,337,89113,1,0,0:0:0:0:
153,289,89367,2,0,L|163:226,1,60,2|0,0:0|0:0,0:0:0:0:
27,167,89875,2,0,P|57:170|91:161,1,60,8|0,0:3|0:0,0:0:0:0:
168,101,90384,6,0,L|156:33,1,60,2|0,0:0|0:0,0:0:0:0:
291,134,90892,2,0,P|282:168|280:196,1,60,8|0,0:3|0:0,0:0:0:0:
404,324,91401,1,2,0:0:0:0:
478,270,91655,6,0,L|470:226,2,37.5,8|8|8,3:0|3:0|3:0,0:0:0:0:
404,324,92418,6,0,L|349:319,1,47.4999987316132,0|0,3:0|0:0,2:0:0:0:
250,361,92757,1,0,0:0:0:0:
247,354,92926,2,0,P|253:317|264:254,1,94.9999974632264,2|0,3:0|0:0,0:0:0:0:
200,194,93435,5,8,0:0:0:0:
117,185,93604,1,0,0:0:0:0:
47,234,93774,1,0,0:0:0:0:
42,315,93943,1,8,0:3:0:0:
189,101,94452,6,0,P|184:74|178:52,1,35.6249990487099,0|0,3:0|0:0,2:0:0:0:
303,0,94706,1,0,0:0:0:0:
296,4,94897,6,0,L|286:61,1,53.4374985730648,2|0,3:0|0:0,0:0:0:0:
354,106,95214,6,0,L|372:104,4,11.8749996829033,2|0|2|0|2,0:3|0:0|0:3|0:0|0:3,0:0:0:0:
289,173,95469,5,0,0:0:0:0:
381,147,95638,1,0,0:0:0:0:
467,125,95808,1,0,0:0:0:0:
512,205,95977,5,8,0:0:0:0:
315,25,96231,1,0,0:0:0:0:
234,67,96486,6,0,L|181:61,2,47.4999987316132,0|0|0,3:0|0:0|0:0,2:0:0:0:
315,25,96994,1,0,3:0:0:0:
136,242,97248,6,0,L|131:263,4,11.8749996829033
63,201,97503,2,0,L|10:207,2,47.4999987316132,8|0|0,0:0|0:0|0:0,2:0:0:0:
136,242,98011,5,0,0:0:0:0:
4,75,98265,1,0,0:0:0:0:
272,207,98520,6,0,L|262:274,1,59.3749984145165,0|0,3:0|0:0,2:0:0:0:
171,383,98901,5,0,0:0:0:0:
174,378,99028,2,0,P|170:348|165:326,1,47.4999987316132,0|0,3:0|0:0,2:0:0:0:
82,294,99282,2,0,L|53:301,2,23.7499993658066,0|2|0,0:0|0:3|0:0,0:0:0:0:
0,238,99536,1,10,0:0:0:0:
361,323,100045,6,0,L|417:315,1,40
421,305,100553,6,2,B|345:295|347:353|263:349,1,165.000005035401,2|10,3:1|0:1,0:1:0:0:
70,256,101316,1,2,0:1:0:0:
195,148,101570,2,0,L|181:244,1,82.5000025177003,2|2,0:1|3:2,2:0:0:0:
307,109,102079,1,8,0:0:0:0:
160,1,102333,1,2,0:0:0:0:
297,233,102587,5,0,3:0:0:0:
387,206,102842,1,2,0:0:0:0:
474,246,103096,1,8,0:0:0:0:
493,335,103350,1,2,3:2:0:0:
308,140,103604,6,0,L|328:13,1,123.75000377655,2|0,0:0|0:0,2:0:0:0:
407,105,104113,1,8,0:0:0:0:
214,234,104367,2,0,L|155:225,1,44.999998626709,2|0,0:0|0:0,0:0:0:0:
62,211,104621,6,0,P|72:257|76:296,1,82.5000025177003,2|0,3:2|0:0,2:0:0:0:
227,82,105130,2,0,P|217:36|213:-3,1,82.5000025177003,8|0,0:0|2:0,0:0:0:0:
326,130,105638,1,2,0:0:0:0:
216,271,105892,1,2,3:2:0:0:
301,333,106147,2,0,P|352:318|395:320,1,82.5000025177003,10|2,0:0|0:0,0:0:0:0:
512,127,106655,1,2,3:2:0:0:
328,223,106909,1,0,0:0:0:0:
512,340,107164,1,8,0:0:0:0:
452,259,107418,6,2,L|480:92,1,150,2|2,3:2|0:1,0:1:0:0:
368,21,108181,2,0,L|377:74,1,44.999998626709,8|0,0:0|0:0,0:0:0:0:
382,6,108435,2,0,L|391:59,1,44.999998626709,2|0,0:0|0:0,0:0:0:0:
292,108,108689,6,2,P|262:101|231:100,1,52.4999983978272,2|0,3:1|0:0,0:1:0:0:
117,33,108943,2,0,L|169:26,1,52.4999983978272,2|0,0:1|0:0,0:0:0:0:
9,114,109197,2,2,L|-4:49,1,52.4999983978272,10|0,0:1|0:0,0:1:0:0:
110,164,109452,2,2,P|101:190|99:219,1,52.4999983978272,2|0,0:1|0:0,0:1:0:0:
5,296,109706,6,2,P|54:287|96:371,1,157.499995193482,2|0,0:1|0:0,0:1:0:0:
230,246,110214,6,0,L|166:257,1,52.4999983978272,10|0,0:1|0:0,0:0:0:0:
298,362,110469,2,0,L|234:373,1,52.4999983978272,2|0,0:1|0:0,0:0:0:0:
368,286,110723,6,2,L|419:294,1,52.4999983978272,2|0,3:1|0:0,0:1:0:0:
512,215,110978,2,2,L|460:206,1,52.4999983978272,2|0,0:1|0:0,0:1:0:0:
377,158,111231,6,2,B|319:94|336:3|394:-13|426:83|335:83,1,202.499993820191,10|0,0:1|0:0,0:1:0:0:
210,152,111740,2,0,L|162:145,2,33.7499989700318,2|0|0,0:0|0:0|0:0,2:0:0:0:
297,204,111994,5,0,0:0:0:0:
84,69,112248,2,0,L|93:117,1,44.999998626709,8|2,0:0|0:0,0:0:0:0:
0,198,112757,6,0,P|39:187|82:274,1,150,0|8,3:0|0:0,0:0:0:0:
246,376,113520,1,0,0:0:0:0:
332,324,113774,2,0,B|412:301|412:301|455:318|444:361,1,150,2|8,0:0|0:0,2:0:0:0:
220,213,114536,1,2,0:0:0:0:
335,120,114791,6,0,L|321:199,1,75,2|0,3:1|0:0,0:0:0:0:
445,125,115299,1,8,0:0:0:0:
252,8,115553,1,2,3:2:0:0:
13,135,115808,6,0,B|106:110|106:110|128:170|191:169,1,202.499993820191,0|8,3:2|0:0,0:0:0:0:
263,116,116825,1,2,3:0:0:0:
463,359,124960,6,0,P|471:320|476:307,1,44.999998626709,0|0,3:0|0:0,0:0:0:0:
369,224,125214,2,0,L|379:282,1,44.999998626709
278,384,125469,1,10,0:3:0:0:
208,334,125638,2,0,L|217:295,1,29.9999990844727,0|0,0:0|2:0,0:0:0:0:
214,304,125977,6,2,B|143:290|141:346|58:339,1,149.999995422363,2|0,3:0|0:0,0:1:0:0:
4,293,126486,1,8,0:3:0:0:
113,187,126740,2,0,P|118:158|125:116,1,59.9999981689454
44,49,126994,6,0,P|19:81|19:133,1,89.9999972534181,0|2,3:0|0:3,0:0:0:0:
205,245,127503,1,8,3:0:0:0:
216,251,127672,2,0,L|255:244,3,29.9999990844727,0|2|0|0,0:0|0:3|0:0|0:0,0:0:0:0:
313,179,128011,6,2,B|270:266|270:266|314:319,1,149.999995422363,2|0,3:0|0:0,0:1:0:0:
392,363,128520,2,0,P|421:333|490:328,1,112.499996566773,10|0,3:0|0:0,0:0:0:0:
511,305,129028,6,0,L|524:245,1,44.999998626709,0|0,3:0|0:0,2:0:0:0:
417,207,129282,2,0,L|407:163,1,44.999998626709,2|0,0:3|0:0,0:0:0:0:
512,94,129536,6,0,L|502:137,1,44.999998626709,8|0,0:3|0:0,2:0:0:0:
334,257,129791,2,0,P|330:231|324:213,1,44.999998626709,2|0,0:3|0:0,0:0:0:0:
247,162,130045,6,2,B|158:144|158:144|145:179|97:191,1,149.999995422363,0|0,3:0|0:0,0:1:0:0:
45,150,130553,1,8,3:0:0:0:
253,16,130808,1,0,0:0:0:0:
474,190,131062,6,0,P|442:162|380:162,1,89.9999972534181,0|0,3:0|0:0,0:0:0:0:
247,332,131486,1,0,0:0:0:0:
265,341,131570,2,0,L|371:322,1,89.9999972534181,8|2,0:3|0:3,0:0:0:0:
140,255,132079,6,0,B|42:293|42:293|6:274|13:227,1,165.000005035401,0|0,3:0|3:0,2:0:0:0:
256,192,145299,12,0,147206,0:0:0:0:
294,172,147333,6,0,B|229:221|178:361|283:449|382:274|297:258|209:261,1,359.999989013672,0|0,0:0|0:0,0:0:0:0:
221,261,148858,6,0,L|157:275,1,50,2|0,0:1|0:0,0:0:0:0:
172,271,149367,5,2,3:1:0:0:
98,217,149621,1,2,0:1:0:0:
92,209,149748,1,0,0:0:0:0:
88,203,149875,2,2,L|101:141,1,44.999998626709,10|0,0:1|0:0,0:1:0:0:
0,56,150130,2,0,P|7:80|10:104,1,44.999998626709,2|0,0:1|0:0,0:0:0:0:
214,182,150384,2,0,L|315:166,1,89.9999972534181,2|2,0:1|3:2,0:0:0:0:
512,238,150892,1,8,0:0:0:0:
472,312,151147,2,0,L|482:360,1,37.5
369,283,151401,5,0,3:0:0:0:
493,124,151655,1,0,0:0:0:0:
245,251,151909,1,8,0:0:0:0:
483,383,152164,1,2,3:2:0:0:
296,93,152418,1,2,0:0:0:0:
168,205,152672,6,0,L|119:213,1,50,2|0,0:0|0:0,0:0:0:0:
39,173,152926,1,8,0:0:0:0:
181,312,153181,1,2,0:0:0:0:
176,339,153308,1,0,0:0:0:0:
170,373,153435,5,0,3:0:0:0:
307,283,153689,1,0,0:0:0:0:
319,287,153816,1,2,0:0:0:0:
327,297,153943,6,0,L|387:288,1,44.999998626709,8|0,0:0|0:0,0:0:0:0:
495,363,154197,2,0,L|435:372,1,44.999998626709,2|0,0:0|0:0,0:0:0:0:
234,202,154452,5,2,0:0:0:0:
318,384,154706,1,2,3:2:0:0:
95,270,154960,1,8,0:0:0:0:
333,110,155214,1,2,0:0:0:0:
192,4,155469,5,2,3:2:0:0:
213,98,155723,1,0,0:0:0:0:
234,202,155977,1,8,0:0:0:0:
127,363,156231,6,2,B|67:288|-18:320|-18:320|20:316|42:342,1,209.999993591309,0|2,3:0|0:1,0:1:0:0:
58,220,156994,2,0,L|48:165,1,48.7499977684022,8|0,0:0|0:0,0:0:0:0:
144,51,157248,2,0,P|136:79|131:118,1,48.7499977684022
204,171,157503,6,2,L|267:162,1,52.4999983978272,2|0,3:1|0:0,0:1:0:0:
333,216,157757,2,0,L|396:207,1,52.4999983978272,2|0,0:1|0:0,0:0:0:0:
512,322,158011,6,2,L|460:314,1,52.4999983978272,10|0,0:1|0:0,0:1:0:0:
385,362,158265,2,2,L|333:354,1,52.4999983978272,2|0,0:1|0:0,0:1:0:0:
262,308,158520,6,2,B|183:299|192:354|98:346,1,157.499995193482,2|0,0:1|0:0,0:1:0:0:
0,262,159028,2,0,L|62:253,1,52.4999983978272,10|0,0:1|0:0,0:0:0:0:
109,190,159282,6,0,P|102:157|91:127,1,52.4999983978272,2|0,0:1|0:0,0:0:0:0:
197,25,159536,2,2,L|186:75,1,52.4999983978272,2|0,3:1|0:0,0:1:0:0:
262,141,159791,2,2,L|328:129,1,52.4999983978272,2|0,0:1|0:0,0:1:0:0:
394,68,160045,6,2,P|439:54|493:142,1,157.499995193482,10|0,0:1|0:0,0:1:0:0:
438,212,160553,2,0,L|445:250,2,26.2499991989136,2|0|0,0:0|0:0|0:0,2:0:0:0:
496,131,160808,1,0,0:0:0:0:
311,248,161062,1,8,0:0:0:0:
496,371,161316,2,0,L|503:325,1,37.5,2|0,0:0|0:0,0:0:0:0:
383,279,161570,6,0,L|219:312,1,150,0|8,3:0|0:0,0:0:0:0:
17,188,162333,1,0,0:0:0:0:
126,51,162587,2,0,B|160:140|160:140|144:182|90:162,1,165.000005035401,2|8,0:0|0:0,2:0:0:0:
0,278,163350,1,2,0:0:0:0:
160,375,163604,6,0,L|175:291,1,75,2|0,3:1|0:0,0:0:0:0:
0,112,164113,1,8,0:0:0:0:
75,334,164367,1,0,0:0:0:0:
210,202,164621,6,0,P|260:167|340:174,1,134.999995880127
415,219,165130,2,0,L|467:212,1,50,8|0,0:0|0:0,0:0:0:0:
493,232,165384,2,0,L|485:274,1,37.5,2|0,0:0|0:0,0:0:0:0:
450,109,165638,5,0,3:0:0:0:
256,192,165765,12,8,167164,0:0:0:0:
