osu file format v14

[General]
AudioFilename: audio.mp3
AudioLeadIn: 0
PreviewTime: 65695
Countdown: 0
SampleSet: Soft
StackLeniency: 0.7
Mode: 0
LetterboxInBreaks: 0
WidescreenStoryboard: 1

[Editor]
Bookmarks: 7726,22458,31931,40615,40658,40728,104112,110583
DistanceSpacing: 1
BeatDivisor: 4
GridSize: 32
TimelineZoom: 1.250004

[Metadata]
Title:2nd SIDE
TitleUnicode:2nd SIDE
Artist:Kamiya Nao (CV : Matsui Eriko)
ArtistUnicode:神谷奈緒 (CV:松井恵理子)
Creator:domSaur
Version:REGULAR
Source:アイドルマスターシンデレラガールズ
Tags:the idolm@ster cinderella girls master 027 idolmaster imas im@s starlight stage deresute esti dubturt
BeatmapID:1524997
BeatmapSetID:714166

[Difficulty]
HPDrainRate:4
CircleSize:3.5
OverallDifficulty:4
ApproachRate:5
SliderMultiplier:1.1
SliderTickRate:1

[Events]
//Background and Video events
0,0,"nao.png",0,0
//Break Periods
//Storyboard Layer 0 (Background)
//Storyboard Layer 1 (Fail)
//Storyboard Layer 2 (Pass)
//Storyboard Layer 3 (Foreground)
//Storyboard Sound Samples

[TimingPoints]
507,451.127819548872,4,2,1,50,1,0
65469,-100,4,2,1,65,0,1
79454,-100,4,2,1,50,0,0
79905,-100,4,2,1,65,0,1
95694,-100,4,2,1,65,0,1
96146,-100,4,2,1,65,0,0

[Colours]
Combo1 : 79,104,223
Combo2 : 198,79,249
Combo3 : 155,200,255
Combo4 : 235,213,240

[HitObjects]
77,144,7725,6,0,P|112:143|156:133,1,55,6|0,0:0|0:0,0:0:0:0:
184,125,8176,1,8,0:0:0:0:
276,65,8627,2,0,P|295:119|284:170,1,110,2|8,0:0|0:0,0:0:0:0:
202,242,9529,6,0,P|191:295|210:346,1,110,2|8,0:0|0:0,0:0:0:0:
263,360,10206,1,0,0:0:0:0:
263,360,10431,2,0,P|291:356|327:351,1,55,2|8,0:0|0:0,0:0:0:0:
372,358,10882,1,8,0:0:0:0:
449,279,11334,6,0,P|421:275|394:271,1,55,2|0,0:0|0:0,0:0:0:0:
339,267,11785,1,8,0:0:0:0:
234,239,12236,2,0,P|218:189|235:123,1,110,2|8,0:0|0:0,0:0:0:0:
303,53,13138,6,0,B|243:72|251:37|171:54,1,110,2|8,0:0|0:0,0:0:0:0:
151,84,13815,1,0,0:0:0:0:
151,84,14040,2,0,P|107:81|78:79,1,55,2|8,0:0|0:0,0:0:0:0:
52,114,14491,1,8,0:0:0:0:
64,223,14943,6,0,P|97:223|133:216,1,55,6|0,0:0|0:0,0:0:0:0:
170,200,15394,1,8,0:0:0:0:
276,172,15845,2,0,P|272:234|267:301,1,110,2|8,0:0|0:0,0:0:0:0:
354,344,16747,6,0,P|413:339|487:328,1,110,2|8,0:0|0:0,0:0:0:0:
493,286,17424,1,0,0:0:0:0:
493,286,17649,2,0,P|496:253|498:222,1,55,2|8,0:0|0:0,0:0:0:0:
503,176,18100,1,8,0:0:0:0:
480,125,18326,6,0,P|424:118|369:130,1,110,6|8,0:0|0:0,0:0:0:0:
323,155,19003,1,2,0:0:0:0:
323,155,19228,6,0,P|269:165|215:158,1,110,6|2,0:0|0:0,0:0:0:0:
165,133,19905,1,2,0:0:0:0:
165,133,20131,6,0,P|55:208|271:272,1,495,6|2,0:0|0:0,0:0:0:0:
370,247,22612,2,0,P|362:192|354:131,1,110,2|2,0:0|0:0,0:0:0:0:
328,90,23288,1,0,0:0:0:0:
328,90,23514,2,0,P|296:95|263:99,1,55,2|0,0:0|0:0,0:0:0:0:
226,126,23965,6,0,P|203:75|214:8,2,110,2|2|2,0:0|0:0|0:0,0:0:0:0:
277,223,25319,2,0,P|242:221|216:220,1,55,2|0,0:0|0:0,0:0:0:0:
167,214,25770,5,2,0:0:0:0:
58,198,26221,2,0,P|53:170|55:143,1,55,2|0,0:0|0:0,0:0:0:0:
95,106,26672,2,0,P|96:78|92:51,2,55,2|0|8,0:0|0:0|0:1,0:0:0:0:
140,137,27349,1,0,0:0:0:0:
140,137,27574,6,0,P|201:132|266:126,2,110,2|2|2,0:0|0:0|0:0,0:0:0:0:
126,246,28928,1,2,0:0:0:0:
126,246,29153,1,2,0:0:0:0:
166,283,29379,6,0,P|226:279|287:272,1,110,2|2,0:0|0:0,0:0:0:0:
316,236,30055,1,0,0:0:0:0:
316,236,30281,2,0,P|315:209|308:177,1,55,2|0,0:0|0:0,0:0:0:0:
256,165,30732,2,0,P|251:138|250:110,1,55,8|0,0:1|0:0,0:0:0:0:
268,58,31183,6,0,P|295:56|322:51,1,55,2|0,0:0|0:0,0:0:0:0:
374,70,31634,2,0,P|436:62|493:56,1,110,2|2,0:0|0:0,0:0:0:0:
479,167,32537,2,0,P|472:202|468:227,1,55,2|0,0:0|0:0,0:0:0:0:
438,267,32988,6,0,L|326:282,2,110,2|2|2,0:0|0:0|0:0,0:0:0:0:
358,191,34341,2,0,P|324:189|288:182,1,55,8|0,0:1|0:0,0:0:0:0:
252,163,34792,6,0,P|218:165|182:172,1,55,2|0,0:0|0:0,0:0:0:0:
158,207,35243,2,0,P|162:245|165:274,1,55,2|0,0:0|0:0,0:0:0:0:
237,343,35920,1,8,0:2:0:0:
237,343,36146,1,8,0:2:0:0:
341,309,36597,6,0,P|376:304|420:305,1,55,6|0,0:0|0:0,0:0:0:0:
441,272,37048,2,0,P|439:244|436:217,1,55,2|0,0:0|0:0,0:0:0:0:
410,168,37499,2,0,P|406:140|405:113,1,55,2|0,0:0|0:0,0:0:0:0:
419,60,37950,2,0,P|379:63|341:67,1,55,8|0,0:0|0:0,0:0:0:0:
317,93,38401,6,0,P|263:96|200:100,2,110,2|2|2,0:0|0:0|0:0,0:0:0:0:
372,187,39755,1,8,0:0:0:0:
336,291,40206,6,0,P|308:289|281:287,1,55,2|0,0:0|0:0,0:0:0:0:
233,315,40657,2,0,P|205:316|178:318,1,55,2|0,0:0|0:0,0:0:0:0:
126,299,41108,2,0,P|110:246|120:183,1,110,2|8,0:0|0:0,0:0:0:0:
158,91,42010,6,0,P|151:58|143:32,1,55,2|0,0:0|0:0,0:0:0:0:
89,34,42461,2,0,P|56:41|30:49,1,55,2|0,0:0|0:0,0:0:0:0:
17,99,42913,2,0,P|26:153|38:220,1,110,2|8,0:0|0:0,0:0:0:0:
60,256,43589,1,2,0:0:0:0:
60,256,43815,6,0,P|117:260|168:239,2,110,2|2|2,0:0|0:0|0:0,0:0:0:0:
125,167,45168,6,0,P|175:147|230:151,1,110,8|2,0:0|0:0,0:0:0:0:
324,208,46070,2,0,P|316:262|309:317,1,110,2|2,0:0|0:0,0:0:0:0:
407,367,46973,1,8,0:0:0:0:
492,297,47424,6,0,P|502:252|496:198,1,82.5,2|2,0:0|0:0,0:0:0:0:
426,179,48100,2,0,P|416:139|417:97,1,82.5,2|2,0:0|0:0,0:0:0:0:
350,49,48777,6,0,P|311:52|268:57,1,82.5,8|2,0:0|0:0,0:0:0:0:
208,115,49454,2,0,P|167:120|125:123,1,82.5,2|2,0:0|0:0,0:0:0:0:
58,171,50131,2,0,P|43:130|50:90,2,82.5,2|2|2,0:0|0:0|0:0,0:0:0:0:
87,217,51033,6,0,P|99:267|102:340,2,110,12|0|0,0:0|0:0|0:0,0:0:0:0:
195,234,52386,2,0,P|201:207|204:179,1,55,0|0,0:0|0:0,0:0:0:0:
167,139,52837,6,0,P|157:84|152:30,2,110,0|0|0,0:0|0:0|0:0,0:0:0:0:
267,94,54191,2,0,P|303:90|334:86,1,55,0|0,0:0|0:0,0:0:0:0:
366,119,54642,6,0,P|427:115|493:105,2,110,0|0|0,0:0|0:0|0:0,0:0:0:0:
300,207,55995,2,0,P|302:241|307:278,1,55,0|0,0:0|0:0,0:0:0:0:
282,312,56446,6,0,P|227:319|172:322,2,110,0|0|0,0:0|0:0|0:0,0:0:0:0:
387,280,57800,1,2,0:0:0:0:
387,280,58025,1,2,0:0:0:0:
423,238,58251,6,0,P|428:181|403:119,1,110,6|8,0:0|0:0,0:0:0:0:
364,102,58928,1,0,0:0:0:0:
364,102,59153,2,0,P|331:106|303:111,1,55,2|0,0:0|0:0,0:0:0:0:
278,155,59604,2,0,P|245:159|217:164,1,55,8|0,0:0|0:0,0:0:0:0:
189,205,60055,6,0,P|139:201|66:194,2,110,2|8|2,0:0|0:0|0:0,0:0:0:0:
273,276,61409,1,2,0:0:0:0:
273,276,61634,1,2,0:0:0:0:
321,250,61860,6,0,P|365:246|419:239,2,82.5,6|2|2,0:0|0:0|0:0,0:0:0:0:
258,196,62875,1,2,0:0:0:0:
263,113,63213,2,0,P|235:115|208:119,2,55,2|2|8,0:0|0:0|0:0,0:0:0:0:
365,152,64116,6,0,P|375:93|345:40,2,110,0|0|0,0:0|0:0|0:0,0:0:0:0:
335,198,65243,1,2,0:0:0:0:
335,198,65469,6,0,L|345:259,1,55,6|0,0:0|0:0,0:0:0:0:
311,297,65920,2,0,P|254:301|181:311,1,110,8|2,0:0|0:0,0:0:0:0:
152,282,66597,1,0,0:0:0:0:
152,282,66822,2,0,P|146:255|147:217,1,55,8|0,0:0|0:0,0:0:0:0:
171,178,67273,6,0,P|173:120|144:64,2,110,2|8|2,0:0|0:0|0:0,0:0:0:0:
65,145,68627,1,8,0:0:0:0:
37,251,69078,6,0,P|38:281|59:326,1,55,2|0,0:0|0:0,0:0:0:0:
93,332,69529,2,0,P|125:326|167:323,1,55,8|0,0:0|0:0,0:0:0:0:
202,332,69980,2,0,P|259:330|324:308,1,110,2|8,0:0|0:0,0:0:0:0:
358,289,70657,1,0,0:0:0:0:
358,289,70882,6,0,P|362:238|369:163,2,110,2|8|2,0:0|0:0|0:0,0:0:0:0:
263,232,72236,1,8,0:0:0:0:
263,232,72461,1,8,0:0:0:0:
228,189,72687,6,0,P|222:153|219:124,1,55,6|0,0:0|0:0,0:0:0:0:
184,92,73138,2,0,P|131:103|77:95,2,110,8|2|8,0:0|0:0|0:0,0:0:0:0:
234,69,74266,1,0,0:0:0:0:
234,69,74491,6,0,P|287:58|341:66,1,110,2|8,0:0|0:0,0:0:0:0:
392,88,75168,1,0,0:0:0:0:
392,88,75394,2,0,P|385:122|383:157,2,55,2|0|8,0:0|0:0|0:0,0:0:0:0:
296,141,76296,6,0,P|303:175|305:210,1,55,2|0,0:0|0:0,0:0:0:0:
289,248,76747,2,0,P|258:246|215:243,1,55,8|0,0:0|0:0,0:0:0:0:
179,244,77198,1,2,0:0:0:0:
86,183,77649,2,0,P|81:152|82:126,1,55,8|0,0:0|0:0,0:0:0:0:
111,82,78100,6,0,P|164:63|236:73,2,110,2|8|2,0:0|0:0|0:0,0:0:0:0:
182,165,79454,1,8,0:0:0:0:
182,165,79679,1,8,0:0:0:0:
235,179,79905,6,0,P|266:175|304:176,1,55,6|0,0:0|0:0,0:0:0:0:
343,186,80356,2,0,P|400:193|465:172,2,110,8|2|8,0:0|0:0|0:0,0:0:0:0:
245,237,81710,2,0,P|243:267|249:299,1,55,2|0,0:0|0:0,0:0:0:0:
263,343,82161,2,0,P|291:340|335:338,1,55,8|0,0:0|0:0,0:0:0:0:
366,312,82612,2,0,P|393:313|420:316,2,55,2|0|8,0:0|0:0|0:0,0:0:0:0:
337,205,83514,6,0,P|333:178|336:149,1,55,2|0,0:0|0:0,0:0:0:0:
356,99,83965,2,0,P|358:71|354:44,1,55,8|0,0:0|0:0,0:0:0:0:
300,32,84416,2,0,P|267:34|224:38,1,55,2|0,0:0|0:0,0:0:0:0:
204,73,84867,2,0,P|171:75|128:79,1,55,8|0,0:0|0:0,0:0:0:0:
109,115,85319,6,0,P|100:170|121:223,2,110,2|8|2,0:0|0:0|0:0,0:0:0:0:
210,157,86672,1,8,0:0:0:0:
210,157,86897,1,8,0:0:0:0:
252,192,87123,6,0,P|262:223|263:263,1,55,6|0,0:0|0:0,0:0:0:0:
251,298,87574,2,0,P|196:308|141:319,1,110,8|2,0:0|0:0,0:0:0:0:
46,265,88476,2,0,P|38:234|37:200,1,55,8|0,0:0|0:0,0:0:0:0:
61,161,88928,2,0,P|88:158|114:151,1,55,2|0,0:0|0:0,0:0:0:0:
164,175,89379,2,0,P|222:165|293:159,2,110,8|2|8,0:0|0:0|0:0,0:0:0:0:
114,150,90506,6,0,P|94:97|108:43,1,110,6|0,0:0|0:0,0:0:0:0:
159,35,91183,1,2,0:0:0:0:
159,35,91409,6,0,P|215:29|268:24,1,110,6|2,0:0|0:0,0:0:0:0:
312,57,92085,1,2,0:0:0:0:
312,57,92311,1,6,0:0:0:0:
256,192,92537,12,0,94341,0:0:0:0:
196,295,95694,6,0,P|198:265|192:238,1,55,8|0,0:0|0:0,0:0:0:0:
161,195,96146,6,0,P|130:198|106:202,1,55,6|0,0:0|0:0,0:0:0:0:
53,216,96597,1,8,0:0:0:0:
32,107,97048,2,0,P|79:81|143:87,1,110,2|8,0:0|0:0,0:0:0:0:
232,133,97950,6,0,P|286:135|333:109,1,110,2|8,0:0|0:0,0:0:0:0:
384,130,98627,1,0,0:0:0:0:
384,130,98852,2,0,P|395:168|400:199,1,55,2|0,0:0|0:0,0:0:0:0:
380,235,99303,1,8,0:0:0:0:
322,328,99755,6,0,P|290:326|253:323,1,55,2|0,0:0|0:0,0:0:0:0:
213,335,100206,1,8,0:0:0:0:
110,294,100657,2,0,P|94:244|107:180,1,110,2|8,0:0|0:0,0:0:0:0:
180,109,101559,6,0,P|247:104|300:99,1,110,2|8,0:0|0:0,0:0:0:0:
337,126,102236,1,0,0:0:0:0:
337,126,102461,2,0,P|344:158|343:190,1,55,2|8,0:0|0:0,0:0:0:0:
318,229,102913,2,0,P|286:232|252:234,1,55,8|0,0:0|0:0,0:0:0:0:
216,262,103364,6,0,P|215:300|226:335,1,55,6|0,0:0|0:0,0:0:0:0:
258,354,103815,1,8,0:0:0:0:
359,312,104266,2,0,P|411:305|482:304,1,110,2|8,0:0|0:0,0:0:0:0:
510,202,105168,6,0,P|515:147|489:91,1,110,2|8,0:0|0:0,0:0:0:0:
451,63,105845,1,0,0:0:0:0:
451,63,106070,2,0,P|414:68|385:74,1,55,2|8,0:0|0:0,0:0:0:0:
356,109,106522,1,8,0:0:0:0:
356,109,106747,6,0,P|301:104|234:102,1,110,6|0,0:0|0:0,0:0:0:0:
200,133,107424,1,2,0:0:0:0:
200,133,107649,6,0,P|186:188|205:244,1,110,6|0,0:0|0:0,0:0:0:0:
233,281,108326,1,2,0:0:0:0:
233,281,108552,6,0,P|295:277|356:271,1,110,6|0,0:0|0:0,0:0:0:0:
256,192,109228,12,0,110582,0:0:0:0:
