osu file format v14

[General]
AudioFilename: audio.mp3
AudioLeadIn: 0
PreviewTime: 65695
Countdown: 0
SampleSet: Soft
StackLeniency: 0.7
Mode: 0
LetterboxInBreaks: 0
WidescreenStoryboard: 0

[Editor]
Bookmarks: 7726,22458,31931,40615,40728,104112,110583
DistanceSpacing: 1.4
BeatDivisor: 4
GridSize: 32
TimelineZoom: 1.750004

[Metadata]
Title:2nd SIDE
TitleUnicode:2nd SIDE
Artist:Kamiya Nao (CV : Matsui Eriko)
ArtistUnicode:神谷奈緒 (CV:松井恵理子)
Creator:domSaur
Version:MASTER
Source:アイドルマスターシンデレラガールズ
Tags:the idolm@ster cinderella girls master 027 idolmaster imas im@s starlight stage deresute esti dubturt
BeatmapID:1509316
BeatmapSetID:714166

[Difficulty]
HPDrainRate:6
CircleSize:4.3
OverallDifficulty:8
ApproachRate:8
SliderMultiplier:1.9
SliderTickRate:1

[Events]
//Background and Video events
0,0,"nao.png",0,0
//Break Periods
//Storyboard Layer 0 (Background)
//Storyboard Layer 1 (Fail)
//Storyboard Layer 2 (Pass)
//Storyboard Layer 3 (Foreground)
//Storyboard Sound Samples

[TimingPoints]
507,451.127819548872,4,2,1,65,1,0
22161,-100,4,2,1,65,0,0
22273,-100,4,2,1,55,0,0
35920,-100,4,2,1,70,0,0
36597,-100,4,2,1,60,0,0
47424,-90.9090909090909,4,2,1,65,0,0
47649,-90.9090909090909,4,2,1,5,0,0
47762,-90.9090909090909,4,2,1,65,0,0
47988,-90.9090909090909,4,2,1,5,0,0
48100,-90.9090909090909,4,2,1,65,0,0
48326,-90.9090909090909,4,2,1,5,0,0
48439,-90.9090909090909,4,2,1,65,0,0
48664,-90.9090909090909,4,2,1,5,0,0
48777,-90.9090909090909,4,2,1,65,0,0
49003,-90.9090909090909,4,2,1,5,0,0
49116,-90.9090909090909,4,2,1,65,0,0
49341,-90.9090909090909,4,2,1,5,0,0
49454,-90.9090909090909,4,2,1,65,0,0
49679,-90.9090909090909,4,2,1,5,0,0
49792,-90.9090909090909,4,2,1,65,0,0
50018,-90.9090909090909,4,2,1,5,0,0
50131,-90.9090909090909,4,2,1,65,0,0
50356,-90.9090909090909,4,2,1,5,0,0
50469,-90.9090909090909,4,2,1,65,0,0
50694,-90.9090909090909,4,2,1,5,0,0
50807,-90.9090909090909,4,2,1,65,0,0
51033,-133.333333333333,4,2,1,65,0,0
51146,-133.333333333333,4,2,1,50,0,0
58251,-133.333333333333,4,2,1,60,0,0
61860,-90.9090909090909,4,2,1,65,0,0
62085,-90.9090909090909,4,2,1,5,0,0
62198,-90.9090909090909,4,2,1,65,0,0
62424,-90.9090909090909,4,2,1,5,0,0
62537,-90.9090909090909,4,2,1,65,0,0
62762,-90.9090909090909,4,2,1,5,0,0
62875,-90.9090909090909,4,2,1,65,0,0
63100,-90.9090909090909,4,2,1,5,0,0
63213,-90.9090909090909,4,2,1,65,0,0
63664,-100,4,2,1,65,0,0
65469,-90.9090909090909,4,2,1,70,0,1
79454,-100,4,2,1,65,0,0
79905,-100,4,2,1,70,0,1
95694,-76.9230769230769,4,2,1,70,0,1
96033,-90.9090909090909,4,2,1,5,0,0
96146,-100,4,2,1,65,0,0

[Colours]
Combo1 : 79,104,223
Combo2 : 198,79,249
Combo3 : 155,200,255
Combo4 : 235,213,240

[HitObjects]
311,277,7725,6,0,P|326:231|295:172,1,95,6|0,0:0|0:0,0:0:0:0:
170,46,8176,2,0,P|155:90|170:134,1,95,8|0,0:0|0:0,0:0:0:0:
296,179,8627,2,0,B|199:211|212:149|98:184,1,190,2|8,0:0|0:0,0:0:0:0:
49,324,9303,1,0,0:0:0:0:
49,324,9416,1,0,0:0:0:0:
49,324,9529,6,0,P|42:270|36:223,1,95,2|0,0:0|0:0,0:0:0:0:
226,158,9980,1,8,0:0:0:0:
69,123,10206,1,0,0:0:0:0:
144,267,10431,1,2,0:0:0:0:
144,267,10544,1,0,0:0:0:0:
144,267,10657,2,0,P|176:263|210:260,1,47.5,8|0,0:0|0:0,0:0:0:0:
372,190,10882,1,8,0:0:0:0:
302,341,11108,1,0,0:0:0:0:
302,341,11221,1,0,0:0:0:0:
302,341,11334,6,0,P|310:295|292:248,1,95,2|0,0:0|0:0,0:0:0:0:
172,137,11785,2,0,P|155:181|163:227,1,95,8|0,0:0|0:0,0:0:0:0:
289,349,12236,2,0,P|185:355|77:361,1,190,2|8,0:0|0:0,0:0:0:0:
16,229,12913,1,0,0:0:0:0:
16,229,13025,1,0,0:0:0:0:
16,229,13138,6,0,P|66:225|129:209,1,95,2|0,0:0|0:0,0:0:0:0:
253,111,13589,1,8,0:0:0:0:
19,57,13815,1,0,0:0:0:0:
19,57,13928,1,0,0:0:0:0:
19,57,14040,2,0,P|23:80|28:110,1,47.5,2|0,0:0|0:0,0:0:0:0:
123,210,14266,2,0,P|126:186|130:163,1,47.5,8|0,0:0|0:0,0:0:0:0:
211,53,14491,1,8,0:0:0:0:
323,175,14717,1,2,0:0:0:0:
323,175,14830,1,0,0:0:0:0:
323,175,14943,6,0,P|379:171|435:156,1,95,6|0,0:0|0:0,0:0:0:0:
488,285,15394,2,0,P|441:274|394:272,1,95,8|0,0:0|0:0,0:0:0:0:
250,356,15845,2,0,B|219:252|274:277|249:166,1,190,2|8,0:0|0:0,0:0:0:0:
46,167,16522,1,0,0:0:0:0:
46,167,16634,1,0,0:0:0:0:
46,167,16747,6,0,P|37:217|53:267,1,95,2|0,0:0|0:0,0:0:0:0:
260,149,17198,1,8,0:0:0:0:
149,212,17424,1,0,0:0:0:0:
60,37,17649,1,2,0:0:0:0:
60,37,17762,1,0,0:0:0:0:
60,37,17875,2,0,P|57:71|65:100,1,47.5,8|0,0:0|0:0,0:0:0:0:
150,199,18100,2,0,P|153:165|145:136,1,47.5,8|0,0:0|0:0,0:0:0:0:
7,278,18326,6,0,B|107:256|85:323|210:289,1,190,6|8,0:0|0:0,0:0:0:0:
242,212,19003,1,2,0:0:0:0:
392,357,19228,6,0,P|427:273|368:205,1,190,6|2,0:0|0:0,0:0:0:0:
346,286,19905,1,2,0:0:0:0:
416,129,20131,6,0,B|320:100|331:162|230:127,1,190,6|0,0:0|0:0,0:0:0:0:
110,70,20807,1,0,0:0:0:0:
50,194,21033,1,8,0:0:0:0:
54,221,21145,1,8,0:0:0:0:
61,249,21258,1,8,0:0:0:0:
68,276,21371,1,8,0:0:0:0:
76,304,21484,2,0,P|100:299|133:285,1,47.5,8|0,0:0|0:0,0:0:0:0:
280,345,21710,2,0,P|264:325|235:305,1,47.5,8|0,0:0|0:0,0:0:0:0:
217,147,21935,2,0,P|208:170|204:205,1,47.5,8|0,0:0|0:0,0:0:0:0:
357,73,22161,6,0,B|254:101|272:40|149:74,1,190,2|2,0:0|0:0,0:0:0:0:
6,103,22837,1,0,0:0:0:0:
160,173,23063,1,2,0:0:0:0:
76,26,23288,1,0,0:0:0:0:
59,195,23514,2,0,P|53:243|73:290,1,95,2|0,0:0|0:0,0:0:0:0:
135,332,23852,1,0,0:0:0:0:
135,332,23965,6,0,P|190:328|246:323,1,95,2|0,0:0|0:0,0:0:0:0:
448,266,24416,1,2,0:0:0:0:
305,345,24642,1,0,0:0:0:0:
381,206,24867,1,2,0:0:0:0:
393,363,25093,1,0,0:0:0:0:
281,227,25319,2,0,P|285:179|294:134,1,95,2|0,0:0|0:0,0:0:0:0:
166,46,25770,6,0,P|181:139|187:234,1,190,2|2,0:0|0:0,0:0:0:0:
38,309,26446,1,0,0:0:0:0:
230,335,26672,1,2,0:0:0:0:
95,212,26897,1,0,0:0:0:0:
117,375,27123,1,8,0:1:0:0:
249,254,27349,1,0,0:0:0:0:
249,254,27461,1,8,0:1:0:0:
249,254,27574,6,0,P|255:199|260:133,1,95,2|0,0:0|0:0,0:0:0:0:
117,77,28025,2,0,P|112:124|107:171,1,95,2|0,0:0|0:0,0:0:0:0:
44,299,28476,2,0,P|92:295|139:290,1,95,2|0,0:0|0:0,0:0:0:0:
307,331,28928,1,2,0:0:0:0:
234,203,29153,1,2,0:0:0:0:
415,294,29379,6,0,P|427:209|437:104,1,190,2|2,0:0|0:0,0:0:0:0:
234,203,30055,1,0,0:0:0:0:
407,219,30281,1,2,0:0:0:0:
333,75,30506,1,0,0:0:0:0:
242,227,30732,1,8,0:1:0:0:
139,135,30958,1,0,0:0:0:0:
139,135,31070,1,8,0:1:0:0:
139,135,31183,6,0,P|93:143|22:148,1,95,2|0,0:0|0:0,0:0:0:0:
35,283,31634,2,0,P|82:277|129:273,1,95,2|0,0:0|0:0,0:0:0:0:
318,328,32085,1,2,0:0:0:0:
233,228,32311,1,0,0:0:0:0:
364,150,32537,2,0,P|359:200|353:245,1,95,2|0,0:0|0:0,0:0:0:0:
235,106,32988,6,0,P|239:58|245:11,1,95,2|0,0:0|0:0,0:0:0:0:
96,104,33439,2,0,P|89:151|85:198,1,95,2|0,0:0|0:0,0:0:0:0:
182,308,33890,2,0,P|229:301|276:297,1,95,2|0,0:0|0:0,0:0:0:0:
439,130,34341,2,0,P|456:176|439:227,1,95,8|0,0:1|0:0,0:0:0:0:
384,274,34679,1,8,0:1:0:0:
384,274,34792,6,0,P|336:267|289:263,1,95,2|0,0:0|0:0,0:0:0:0:
149,174,35243,1,2,0:0:0:0:
286,106,35469,1,0,0:0:0:0:
210,313,35920,5,8,0:2:0:0:
115,91,36146,1,8,0:2:0:0:
28,285,36371,1,0,0:0:0:0:
28,285,36484,1,0,0:0:0:0:
28,285,36597,6,0,P|82:281|140:276,1,95,6|0,0:0|0:0,0:0:0:0:
338,245,37048,2,0,P|284:241|226:236,1,95,2|0,0:0|0:0,0:0:0:0:
121,348,37499,1,2,0:0:0:0:
172,189,37725,1,0,0:0:0:0:
296,317,37950,1,8,0:0:0:0:
450,172,38176,1,0,0:0:0:0:
450,172,38288,1,0,0:0:0:0:
450,172,38401,6,0,P|462:217|456:264,1,95,2|0,0:0|0:0,0:0:0:0:
297,192,38852,2,0,P|290:145|303:99,1,95,2|0,0:0|0:0,0:0:0:0:
390,307,39303,2,0,B|279:336|310:274|179:304,1,190,2|8,0:0|0:0,0:0:0:0:
111,339,39980,1,0,0:0:0:0:
184,124,40206,6,0,P|202:167|197:230,1,95,2|0,0:0|0:0,0:0:0:0:
59,340,40657,2,0,P|41:297|46:234,1,95,2|0,0:0|0:0,0:0:0:0:
93,107,41108,1,2,0:0:0:0:
198,230,41334,1,0,0:0:0:0:
313,86,41559,2,0,P|265:89|218:95,1,95,8|0,0:0|0:0,0:0:0:0:
417,258,42010,6,0,P|420:210|405:166,1,95,2|0,0:0|0:0,0:0:0:0:
401,161,42349,1,0,0:0:0:0:
397,157,42461,2,0,P|349:162|302:165,1,95,2|0,0:0|0:0,0:0:0:0:
154,41,42913,6,0,P|138:85|142:132,1,95,2|0,0:0|0:0,0:0:0:0:
312,259,43364,1,8,0:0:0:0:
92,209,43589,1,2,0:0:0:0:
207,353,43815,6,0,B|181:248|235:272|207:164,1,190,2|2,0:0|0:0,0:0:0:0:
34,122,44491,1,0,0:0:0:0:
34,122,44717,2,0,P|80:106|136:111,1,95,2|0,0:0|0:0,0:0:0:0:
300,199,45168,2,0,P|301:151|286:107,1,95,8|0,0:0|0:0,0:0:0:0:
90,194,45619,6,0,P|88:241|103:285,1,95,2|0,0:0|0:0,0:0:0:0:
352,278,46070,2,0,P|281:220|189:247,1,190,2|2,0:0|0:0,0:0:0:0:
290,367,46747,1,0,0:0:0:0:
290,367,46973,2,0,P|338:361|407:355,1,95,8|0,0:0|0:0,0:0:0:0:
446,224,47424,6,0,P|481:185|508:141,1,104.500003189087,2|0,0:0|0:0,0:0:0:0:
500,125,47762,2,0,P|449:113|397:112,1,104.500003189087,2|0,0:0|0:0,0:0:0:0:
387,102,48100,6,0,P|361:56|327:16,1,104.500003189087,2|0,0:0|0:0,0:0:0:0:
310,21,48439,2,0,P|282:65|266:114,1,104.500003189087,2|0,0:0|0:0,0:0:0:0:
253,124,48777,6,0,P|201:134|152:154,1,104.500003189087,8|0,0:0|0:0,0:0:0:0:
152,173,49116,2,0,P|185:213|226:243,1,104.500003189087,2|0,0:0|0:0,0:0:0:0:
233,258,49454,6,0,P|227:309|231:361,1,104.500003189087,2|0,0:0|0:0,0:0:0:0:
246,368,49792,2,0,P|293:347|337:318,1,104.500003189087,2|0,0:0|0:0,0:0:0:0:
352,320,50131,6,0,P|399:341|450:353,1,104.500003189087,2|0,0:0|0:0,0:0:0:0:
461,341,50469,2,0,P|456:289|442:238,1,104.500003189087,2|0,0:0|0:0,0:0:0:0:
437,223,50807,5,2,0:0:0:0:
220,290,51033,6,0,P|155:315|79:297,2,142.500005435944,12|0|0,0:0|0:0|0:0,0:0:0:0:
250,208,52161,1,0,0:0:0:0:
250,208,52386,2,0,P|245:167|241:127,1,71.2500027179719
334,52,52837,6,0,B|411:33|400:83|487:50,2,142.500005435944
251,94,53965,1,0,0:0:0:0:
251,94,54191,2,0,P|217:99|152:95,1,71.2500027179719
37,188,54642,6,0,P|104:174|191:180,1,142.500005435944
249,235,55319,2,0,P|242:269|247:304,1,71.2500027179719
361,339,55769,1,0,0:0:0:0:
361,339,55995,2,0,P|368:304|359:260,1,71.2500027179719
499,169,56446,6,0,P|434:175|333:185,1,142.500005435944
274,139,57123,1,0,0:0:0:0:
274,139,57349,2,0,P|267:96|260:49,1,71.2500027179719
142,186,57800,1,2,0:0:0:0:
48,80,58025,1,2,0:0:0:0:
37,245,58251,6,0,P|45:294|52:344,1,71.2500027179719,6|0,0:0|0:0,0:0:0:0:
211,370,58702,2,0,P|205:334|199:299,1,71.2500027179719,8|0,0:0|0:0,0:0:0:0:
110,196,59153,1,2,0:0:0:0:
62,335,59379,1,0,0:0:0:0:
193,220,59604,2,0,P|229:213|271:211,1,71.2500027179719,8|0,0:0|0:0,0:0:0:0:
416,167,60055,6,0,P|380:164|345:157,1,71.2500027179719,2|0,0:0|0:0,0:0:0:0:
219,58,60506,2,0,P|212:92|209:128,1,71.2500027179719,8|0,0:0|0:0,0:0:0:0:
364,256,60958,1,2,0:0:0:0:
364,256,61070,1,8,0:0:0:0:
364,256,61183,1,8,0:0:0:0:
184,199,61409,1,2,0:0:0:0:
331,111,61634,1,2,0:0:0:0:
282,308,61860,6,0,P|236:290|169:309,1,104.500003189087,6|0,0:0|0:0,0:0:0:0:
122,340,62198,2,0,P|76:358|9:339,1,104.500003189087,2|0,0:0|0:0,0:0:0:0:
279,290,62537,6,0,P|233:272|166:291,1,104.500003189087,6|0,0:0|0:0,0:0:0:0:
119,322,62875,2,0,P|73:340|6:321,1,104.500003189087,2|0,0:0|0:0,0:0:0:0:
110,245,63213,6,0,P|106:209|102:180,1,52.2500015945435,2|0,0:0|0:0,0:0:0:0:
273,156,63439,1,2,0:0:0:0:
273,156,63552,1,8,0:0:0:0:
273,156,63664,6,0,B|347:134|335:184|411:152,1,142.5,8|0,0:0|0:0,0:0:0:0:
480,182,64116,2,0,P|459:95|371:88,2,190
432,346,65243,1,2,0:0:0:0:
432,346,65356,1,2,0:0:0:0:
432,346,65469,5,6,0:0:0:0:
493,206,65694,1,0,0:0:0:0:
344,284,65920,2,0,P|274:294|221:298,1,104.500003189087,8|0,0:0|0:0,0:0:0:0:
70,253,66371,1,2,0:0:0:0:
250,227,66597,1,0,0:0:0:0:
156,371,66822,1,8,0:0:0:0:
253,213,67048,1,0,0:0:0:0:
99,104,67273,6,0,P|6:126|40:211,1,209.000006378174,2|8,0:0|0:0,0:0:0:0:
142,259,67950,1,0,0:0:0:0:
267,180,68176,2,0,P|265:150|259:124,1,52.2500015945435,2|0,0:0|0:0,0:0:0:0:
106,43,68401,2,0,P|100:68|99:94,1,52.2500015945435
138,248,68627,1,8,0:0:0:0:
185,97,68852,1,0,0:0:0:0:
263,290,69078,5,2,0:0:0:0:
124,352,69303,1,0,0:0:0:0:
227,193,69529,1,8,0:0:0:0:
320,342,69755,1,0,0:0:0:0:
316,173,69980,2,8,P|264:110|153:140,1,209.000006378174,2|8,0:0|0:0,0:0:0:0:
76,234,70657,1,0,0:0:0:0:
166,43,70882,5,2,0:0:0:0:
233,207,71108,1,0,0:0:0:0:
43,140,71334,1,8,0:0:0:0:
238,221,71559,1,0,0:0:0:0:
110,356,71785,1,2,0:0:0:0:
107,330,71897,1,0,0:0:0:0:
104,304,72010,1,0,0:0:0:0:
101,278,72123,1,0,0:0:0:0:
98,252,72236,2,0,P|91:217|81:186,1,52.2500015945435,8|0,0:0|0:0,0:0:0:0:
236,129,72461,2,0,P|229:154|224:179,1,52.2500015945435,8|0,0:0|0:0,0:0:0:0:
284,350,72687,5,6,0:0:0:0:
380,191,72913,1,0,0:0:0:0:
215,297,73138,2,0,P|298:265|365:352,1,209.000006378174,8|2,0:0|0:0,0:0:0:0:
490,322,73815,1,0,0:0:0:0:
442,137,74040,1,8,0:0:0:0:
365,271,74266,1,0,0:0:0:0:
260,139,74491,6,0,B|148:110|167:175|38:139,1,209.000006378174,2|8,0:0|0:0,0:0:0:0:
111,60,75168,1,0,0:0:0:0:
23,215,75394,2,0,P|20:246|29:280,1,52.2500015945435,2|0,0:0|0:0,0:0:0:0:
185,353,75619,2,0,P|188:322|179:288,1,52.2500015945435
112,156,75845,1,8,0:0:0:0:
75,322,76070,1,0,0:0:0:0:
216,211,76296,6,0,P|269:206|336:202,1,104.500003189087,2|0,0:0|0:0,0:0:0:0:
442,99,76747,1,8,0:0:0:0:
496,239,76973,1,0,0:0:0:0:
353,83,77198,2,0,P|299:88|234:99,1,104.500003189087,2|0,0:0|0:0,0:0:0:0:
68,212,77649,1,8,0:0:0:0:
54,76,77875,1,0,0:0:0:0:
203,171,78100,5,2,0:0:0:0:
208,35,78326,1,0,0:0:0:0:
41,113,78552,1,8,0:0:0:0:
269,230,78777,1,0,0:0:0:0:
259,254,78890,1,0,0:0:0:0:
243,274,79003,1,2,0:0:0:0:
220,288,79116,1,0,0:0:0:0:
195,294,79228,1,0,0:0:0:0:
169,291,79341,1,0,0:0:0:0:
145,281,79454,6,0,P|137:250|137:210,1,47.5,8|0,0:0|0:0,0:0:0:0:
262,81,79679,2,0,P|270:112|270:152,1,47.5,8|0,0:0|0:0,0:0:0:0:
134,219,79905,6,0,P|76:213|7:210,1,95,6|0,0:0|0:0,0:0:0:0:
179,52,80356,2,0,P|191:101|184:147,1,95,8|0,0:0|0:0,0:0:0:0:
45,303,80807,2,0,P|33:254|40:208,1,95,2|0,0:0|0:0,0:0:0:0:
214,224,81258,1,8,0:0:0:0:
87,150,81484,1,0,0:0:0:0:
136,331,81710,6,0,P|190:326|243:322,1,95,2|0,0:0|0:0,0:0:0:0:
385,363,82161,2,0,P|388:315|376:270,1,95,8|0,0:0|0:0,0:0:0:0:
196,245,82612,2,0,P|227:240|253:226,1,47.5,2|0,0:0|0:0,0:0:0:0:
342,92,82837,2,0,P|330:121|329:150,1,47.5
364,258,83063,1,8,0:0:0:0:
232,140,83288,1,0,0:0:0:0:
460,101,83514,5,2,0:0:0:0:
351,249,83740,1,0,0:0:0:0:
314,42,83965,1,8,0:0:0:0:
426,172,84191,1,0,0:0:0:0:
208,158,84416,1,2,0:0:0:0:
350,59,84642,1,0,0:0:0:0:
350,59,84755,1,0,0:0:0:0:
350,59,84867,2,0,P|379:53|420:53,1,47.5,8|0,0:0|0:0,0:0:0:0:
495,182,85093,2,0,P|471:187|448:189,1,47.5
297,261,85319,6,0,P|235:197|280:121,1,190,2|8,0:0|0:0,0:0:0:0:
449,326,85995,1,0,0:0:0:0:
449,326,86108,1,0,0:0:0:0:
449,326,86221,2,0,P|420:331|386:335,1,47.5,2|0,0:0|0:0,0:0:0:0:
250,268,86446,2,0,P|279:263|313:259,1,47.5
384,169,86672,2,0,P|389:198|393:232,1,47.5,8|0,0:0|0:0,0:0:0:0:
245,328,86897,2,0,P|240:299|236:265,1,47.5,8|0,0:0|0:0,0:0:0:0:
115,167,87123,6,0,P|63:163|9:160,1,95,6|0,0:0|0:0,0:0:0:0:
190,23,87574,2,0,P|205:68|200:115,1,95,8|0,0:0|0:0,0:0:0:0:
29,251,88025,2,0,P|14:206|20:160,1,95,2|0,0:0|0:0,0:0:0:0:
258,277,88476,1,8,0:0:0:0:
121,173,88702,1,0,0:0:0:0:
63,340,88928,5,2,0:0:0:0:
260,262,89153,1,0,0:0:0:0:
117,162,89379,2,0,P|69:167|22:173,1,95,8|0,0:0|0:0,0:0:0:0:
189,68,89830,1,2,0:0:0:0:
189,68,89943,1,0,0:0:0:0:
189,68,90055,1,0,0:0:0:0:
353,164,90281,1,8,0:0:0:0:
265,19,90506,6,0,B|298:126|239:106|268:213,1,190,6|0,0:0|0:0,0:0:0:0:
290,283,91183,1,2,0:0:0:0:
493,305,91409,6,0,P|501:211|396:190,1,190,6|2,0:0|0:0,0:0:0:0:
436,253,92085,1,2,0:0:0:0:
221,308,92311,6,0,B|114:341|134:282|27:311,1,190,6|0,0:0|0:0,0:0:0:0:
139,112,92988,1,0,0:0:0:0:
161,105,93100,1,0,0:0:0:0:
184,108,93213,1,0,0:0:0:0:
205,120,93326,1,0,0:0:0:0:
221,138,93439,1,0,0:0:0:0:
229,160,93552,1,0,0:0:0:0:
231,182,93664,1,0,0:0:0:0:
224,206,93777,1,0,0:0:0:0:
208,224,93890,1,0,0:0:0:0:
189,237,94003,1,0,0:0:0:0:
166,241,94116,1,0,0:0:0:0:
142,238,94228,1,0,0:0:0:0:
122,227,94341,5,0,0:0:0:0:
397,213,94792,1,0,0:0:0:0:
397,213,95243,1,0,0:0:0:0:
397,213,95694,2,0,P|465:202|440:106,1,185.249991519928,8|0,0:0|0:0,0:0:0:0:
372,83,96146,6,0,P|324:92|273:98,1,95,6|0,0:0|0:0,0:0:0:0:
100,148,96597,2,0,P|147:153|193:162,1,95,8|0,0:0|0:0,0:0:0:0:
377,232,97048,2,0,P|278:211|216:279,1,190,2|8,0:0|0:0,0:0:0:0:
113,366,97725,1,0,0:0:0:0:
113,366,97837,1,0,0:0:0:0:
113,366,97950,6,0,P|104:318|86:258,1,95,2|0,0:0|0:0,0:0:0:0:
194,126,98401,1,8,0:0:0:0:
230,281,98627,1,0,0:0:0:0:
74,185,98852,1,2,0:0:0:0:
74,185,98965,1,0,0:0:0:0:
74,185,99078,1,0,0:0:0:0:
266,144,99303,2,0,P|257:87|222:57,1,95,8|0,0:0|0:0,0:0:0:0:
187,247,99755,6,0,P|230:240|305:235,1,95,2|0,0:0|0:0,0:0:0:0:
426,320,100206,2,0,P|363:320|328:283,1,95,8|0,0:0|0:0,0:0:0:0:
395,66,100657,2,0,B|427:168|375:157|398:270,1,190,2|8,0:0|0:0,0:0:0:0:
216,139,101334,1,0,0:0:0:0:
216,139,101446,1,0,0:0:0:0:
216,139,101559,6,0,P|261:125|323:121,1,95,2|0,0:0|0:0,0:0:0:0:
505,237,102010,1,8,0:0:0:0:
411,117,102236,1,0,0:0:0:0:
411,117,102349,1,0,0:0:0:0:
411,117,102461,2,0,P|404:148|399:170,1,47.5,2|0,0:0|0:0,0:0:0:0:
310,292,102687,2,0,P|305:269|300:246,1,47.5,8|0,0:0|0:0,0:0:0:0:
173,184,102913,1,8,0:0:0:0:
127,366,103138,1,0,0:0:0:0:
127,366,103251,1,0,0:0:0:0:
127,366,103364,6,0,P|174:366|219:352,1,95,6|0,0:0|0:0,0:0:0:0:
128,193,103815,2,0,P|80:192|35:206,1,95,8|0,0:0|0:0,0:0:0:0:
237,252,104266,2,0,P|257:157|194:91,1,190,2|8,0:0|0:0,0:0:0:0:
35,206,104943,1,0,0:0:0:0:
35,206,105055,1,0,0:0:0:0:
35,206,105168,6,0,P|34:253|48:298,1,95,2|0,0:0|0:0,0:0:0:0:
268,344,105619,1,8,0:0:0:0:
207,215,105845,1,0,0:0:0:0:
98,356,106070,1,2,0:0:0:0:
98,356,106183,1,0,0:0:0:0:
98,356,106296,1,8,0:0:0:0:
202,202,106522,1,8,0:0:0:0:
395,339,106747,6,0,P|455:277|412:189,1,190,6|8,0:0|0:0,0:0:0:0:
378,260,107424,1,2,0:0:0:0:
227,164,107649,6,0,B|124:194|143:135|40:164,1,190,6|0,0:0|0:0,0:0:0:0:
93,235,108326,1,2,0:0:0:0:
302,306,108552,6,0,B|272:204|331:223|302:120,1,190,6|0,0:0|0:0,0:0:0:0:
256,192,109116,12,0,110582,0:0:0:0:
