osu file format v14

[General]
AudioFilename: audio.mp3
AudioLeadIn: 0
PreviewTime: 65695
Countdown: 0
SampleSet: Soft
StackLeniency: 0.7
Mode: 0
LetterboxInBreaks: 0
WidescreenStoryboard: 1

[Editor]
Bookmarks: 7726,22458,31931,40615,40728,104112,110583
DistanceSpacing: 1
BeatDivisor: 4
GridSize: 32
TimelineZoom: 1.250004

[Metadata]
Title:2nd SIDE
TitleUnicode:2nd SIDE
Artist:Kamiya Nao (CV : Matsui Eriko)
ArtistUnicode:神谷奈緒 (CV:松井恵理子)
Creator:domSaur
Version:DEBUT
Source:アイドルマスターシンデレラガールズ
Tags:the idolm@ster cinderella girls master 027 idolmaster imas im@s starlight stage deresute esti dubturt
BeatmapID:1524077
BeatmapSetID:714166

[Difficulty]
HPDrainRate:2
CircleSize:3
OverallDifficulty:2
ApproachRate:3
SliderMultiplier:0.899999999999999
SliderTickRate:1

[Events]
//Background and Video events
0,0,"nao.png",0,0
//Break Periods
//Storyboard Layer 0 (Background)
//Storyboard Layer 1 (Fail)
//Storyboard Layer 2 (Pass)
//Storyboard Layer 3 (Foreground)
//Storyboard Sound Samples

[TimingPoints]
507,451.127819548872,4,2,1,50,1,0
65469,-100,4,2,1,65,0,1
79454,-100,4,2,1,50,0,0
79905,-100,4,2,1,65,0,1
95694,-100,4,2,1,65,0,1
96146,-100,4,2,1,65,0,0

[Colours]
Combo1 : 79,104,223
Combo2 : 198,79,249
Combo3 : 155,200,255
Combo4 : 235,213,240

[HitObjects]
60,153,7725,6,0,B|155:123|139:190|245:152,1,180,6|2,0:0|0:0,0:0:0:0:
317,119,9078,1,8,0:0:0:0:
400,151,9529,2,0,P|404:109|386:62,2,89.9999999999999,2|8|2,0:0|0:0|0:0,0:0:0:0:
340,218,10882,1,8,0:0:0:0:
272,277,11334,6,0,P|188:272|78:268,1,180,2|2,0:0|0:0,0:0:0:0:
66,182,12687,1,8,0:0:0:0:
106,101,13138,2,0,P|64:92|9:112,2,89.9999999999999,2|8|2,0:0|0:0|0:0,0:0:0:0:
189,133,14491,1,8,0:0:0:0:
274,105,14943,6,0,B|306:205|243:188|276:295,1,180,6|2,0:0|0:0,0:0:0:0:
347,329,16296,1,8,0:0:0:0:
423,282,16747,2,0,P|469:280|517:289,2,89.9999999999999,2|8|2,0:0|0:0|0:0,0:0:0:0:
290,256,18326,6,0,P|244:263|193:265,1,89.9999999999999,6|8,0:0|0:0,0:0:0:0:
118,215,19228,2,0,P|111:169|109:118,1,89.9999999999999,6|2,0:0|0:0,0:0:0:0:
183,75,20131,6,0,P|351:86|281:258,1,405,6|2,0:0|0:0,0:0:0:0:
210,299,22612,5,2,0:0:0:0:
125,269,23063,2,0,P|116:223|117:177,1,89.9999999999999,2|2,0:0|0:0,0:0:0:0:
171,108,23965,2,0,P|218:105|264:103,1,89.9999999999999,2|2,0:0|0:0,0:0:0:0:
333,50,24867,2,0,P|348:91|342:137,1,89.9999999999999,2|2,0:0|0:0,0:0:0:0:
270,190,25770,5,2,0:0:0:0:
351,228,26221,2,0,P|407:224|457:223,2,89.9999999999999,2|2|2,0:0|0:0|0:0,0:0:0:0:
276,278,27574,2,0,P|264:320|259:368,2,89.9999999999999,2|2|2,0:0|0:0|0:0,0:0:0:0:
205,219,28928,1,2,0:0:0:0:
239,135,29379,5,2,0:0:0:0:
329,140,29830,2,0,P|384:137|431:134,2,89.9999999999999,2|2|8,0:0|0:0|0:1,0:0:0:0:
275,212,31183,2,0,P|267:259|284:313,1,89.9999999999999,0|2,0:0|0:0,0:0:0:0:
196,340,32085,2,0,P|151:336|98:330,1,89.9999999999999,2|2,0:0|0:0,0:0:0:0:
53,258,32988,6,0,P|42:215|50:162,1,89.9999999999999,2|2,0:0|0:0,0:0:0:0:
113,109,33890,2,0,B|209:76|195:141|303:100,1,180,2|2,0:0|0:0,0:0:0:0:
368,63,35243,1,2,0:0:0:0:
441,176,35920,1,8,0:0:0:0:
385,299,36597,6,0,P|341:310|280:303,1,89.9999999999999,6|2,0:0|0:0,0:0:0:0:
212,275,37499,2,0,P|207:319|202:364,2,89.9999999999999,2|8|2,0:0|0:0|0:0,0:0:0:0:
179,190,38852,1,2,0:0:0:0:
205,104,39303,2,0,P|246:101|297:87,1,89.9999999999999,2|8,0:0|0:0,0:0:0:0:
366,36,40206,6,0,P|379:78|375:123,1,89.9999999999999,2|2,0:0|0:0,0:0:0:0:
302,175,41108,2,0,P|297:219|311:262,1,89.9999999999999,2|8,0:0|0:0,0:0:0:0:
385,313,42010,2,0,L|487:302,2,89.9999999999999,2|2|2,0:0|0:0|0:0,0:0:0:0:
303,351,43364,1,8,0:0:0:0:
221,313,43815,6,0,P|172:243|215:158,1,180,2|2,0:0|0:0,0:0:0:0:
262,234,45168,2,0,P|296:155|247:84,1,180,8|2,0:0|0:0,0:0:0:0:
160,63,46522,2,0,P|119:67|64:72,1,89.9999999999999,2|8,0:0|0:0,0:0:0:0:
36,154,47424,6,0,P|24:218|54:287,1,135,2|2,0:0|0:0,0:0:0:0:
171,338,48777,2,0,P|183:274|153:205,1,135,2|2,0:0|0:0,0:0:0:0:
251,113,50131,2,0,P|299:109|347:104,1,89.9999999999999,2|0,0:0|0:0,0:0:0:0:
418,149,51033,6,0,P|472:219|430:296,1,180,12|0,0:0|0:0,0:0:0:0:
359,340,52386,1,0,0:0:0:0:
270,321,52837,6,0,B|241:228|295:244|267:136,1,180
185,109,54191,1,0,0:0:0:0:
104,148,54642,6,0,P|63:230|119:301,1,180
196,277,55995,1,0,0:0:0:0:
267,330,56446,6,0,B|360:301|344:355|452:327,1,180
466,241,57800,1,2,0:0:0:0:
437,155,58251,6,0,P|392:150|343:160,1,89.9999999999999,6|8,0:0|0:0,0:0:0:0:
267,198,59153,2,0,P|261:149|256:95,1,89.9999999999999,2|8,0:0|0:0,0:0:0:0:
169,127,60055,2,0,P|124:135|80:130,2,89.9999999999999,2|2|2,0:0|0:0|0:0,0:0:0:0:
230,61,61409,1,2,0:0:0:0:
318,74,61860,6,0,P|448:76|462:206,1,270,6|0,0:0|0:0,0:0:0:0:
416,265,63664,5,8,0:0:0:0:
336,221,64116,2,0,P|325:267|338:311,2,89.9999999999999
386,146,65469,6,0,P|339:132|285:146,1,89.9999999999999,6|8,0:0|0:0,0:0:0:0:
215,171,66371,2,0,P|168:185|114:171,1,89.9999999999999,2|8,0:0|0:0,0:0:0:0:
163,95,67273,2,0,P|159:45|156:-11,2,89.9999999999999,2|8|2,0:0|0:0|0:0,0:0:0:0:
215,171,68627,6,0,P|212:215|208:260,1,89.9999999999999,8|2,0:0|0:0,0:0:0:0:
136,316,69529,2,0,P|92:325|48:323,2,89.9999999999999,8|2|8,0:0|0:0|0:0,0:0:0:0:
90,238,70882,2,0,P|87:193|83:142,1,89.9999999999999,2|8,0:0|0:0,0:0:0:0:
125,68,71785,2,0,P|169:65|217:87,1,89.9999999999999,2|8,0:0|0:0,0:0:0:0:
233,169,72687,6,0,P|278:166|334:162,1,89.9999999999999,6|8,0:0|0:0,0:0:0:0:
397,112,73589,2,0,P|413:158|400:210,1,89.9999999999999,2|8,0:0|0:0,0:0:0:0:
347,265,74491,2,0,P|340:309|356:350,2,89.9999999999999,2|8|2,0:0|0:0|0:0,0:0:0:0:
277,207,75845,1,8,0:0:0:0:
199,252,76296,6,0,P|160:256|109:259,1,89.9999999999999,2|8,0:0|0:0,0:0:0:0:
54,188,77198,1,2,0:0:0:0:
97,109,77649,6,0,P|95:70|94:8,2,89.9999999999999,8|2|8,0:0|0:0|0:0,0:0:0:0:
168,164,79003,2,0,P|213:169|263:154,1,89.9999999999999,2|8,0:0|0:0,0:0:0:0:
338,193,79905,5,6,0:0:0:0:
406,134,80356,2,0,P|408:89|413:44,2,89.9999999999999,8|2|8,0:0|0:0|0:0,0:0:0:0:
485,176,81710,2,0,P|505:222|500:263,1,89.9999999999999,2|8,0:0|0:0,0:0:0:0:
421,303,82612,2,0,P|370:306|316:310,1,89.9999999999999,2|8,0:0|0:0,0:0:0:0:
263,250,83514,6,0,P|256:205|264:158,2,89.9999999999999,2|8|2,0:0|0:0|0:0,0:0:0:0:
266,339,84867,1,8,0:0:0:0:
184,299,85319,2,0,B|87:277|105:330|-2:303,1,180,2|2,0:0|0:0,0:0:0:0:
37,220,86672,1,8,0:0:0:0:
22,131,87123,6,0,P|14:84|24:22,2,89.9999999999999,6|8|2,0:0|0:0|0:0,0:0:0:0:
106,160,88476,1,8,0:0:0:0:
186,120,88928,2,0,P|190:75|182:31,2,89.9999999999999,2|8|2,0:0|0:0|0:0,0:0:0:0:
233,246,90506,6,0,P|280:241|343:235,1,89.9999999999999,6|0,0:0|0:0,0:0:0:0:
394,182,91409,2,0,P|397:137|381:92,1,89.9999999999999,6|2,0:0|0:0,0:0:0:0:
256,192,92311,12,0,94341,0:0:0:0:
54,270,96146,6,0,B|150:240|136:302|248:260,1,180,6|2,0:0|0:0,0:0:0:0:
310,224,97499,1,8,0:0:0:0:
386,271,97950,2,0,P|381:314|376:359,2,89.9999999999999,2|8|2,0:0|0:0|0:0,0:0:0:0:
449,206,99303,1,8,0:0:0:0:
424,119,99755,6,0,P|360:63|259:87,1,180,2|2,0:0|0:0,0:0:0:0:
195,124,101108,1,8,0:0:0:0:
115,80,101559,2,0,P|70:76|10:74,2,89.9999999999999,2|8|2,0:0|0:0|0:0,0:0:0:0:
131,168,102913,1,8,0:0:0:0:
196,229,103364,6,0,P|297:216|331:143,1,180,6|2,0:0|0:0,0:0:0:0:
408,109,104717,1,8,0:0:0:0:
492,140,105168,2,0,P|496:98|501:50,2,89.9999999999999,2|8|2,0:0|0:0|0:0,0:0:0:0:
448,267,106747,6,0,P|407:281|343:275,1,89.9999999999999,6|0,0:0|0:0,0:0:0:0:
303,210,107649,2,0,P|344:196|408:202,1,89.9999999999999,6|0,0:0|0:0,0:0:0:0:
256,192,108552,12,0,110582,0:0:0:0:
