osu file format v14

[General]
AudioFilename: audio.mp3
AudioLeadIn: 0
PreviewTime: 81085
Countdown: 0
SampleSet: Soft
StackLeniency: 0.4
Mode: 0
LetterboxInBreaks: 0
EpilepsyWarning: 1
WidescreenStoryboard: 1

[Editor]
Bookmarks: 4210,9210,14210,16710,56710,76710,81710,99210,109210,139210
DistanceSpacing: 5.5
BeatDivisor: 4
GridSize: 32
TimelineZoom: 1.6

[Metadata]
Title:Without You (Game Size)
TitleUnicode:Without You (Game Size)
Artist:Kamisiloami
ArtistUnicode:神代あみ
Creator:duoduo_123dong
Version:Corner of the Table
Source:Sabbat of The Witch
Tags:famishin yuzu soft Yasuo Asai Angel Note
BeatmapID:1871978
BeatmapSetID:895919

[Difficulty]
HPDrainRate:6
CircleSize:4
OverallDifficulty:8
ApproachRate:9.4
SliderMultiplier:1.8
SliderTickRate:1

[Events]
//Background and Video events
0,0,"Sanoba_1432.jpg",0,0
//Break Periods
//Storyboard Layer 0 (Background)
//Storyboard Layer 1 (Fail)
//Storyboard Layer 2 (Pass)
//Storyboard Layer 3 (Foreground)
//Storyboard Sound Samples

[TimingPoints]
4210,312.5,4,2,0,80,1,0

[HitObjects]
256,192,460,12,0,2960,0:0:0:0:
351,163,3272,5,0,0:0:0:0:
198,257,3585,5,0,1:0:0:0:
176,260,3663,1,0,1:0:0:0:
154,263,3741,1,0,1:0:0:0:
132,266,3819,1,0,1:0:0:0:
109,270,3897,2,0,L|99:219,2,45,0|0|0,1:0|1:0|1:0,1:0:0:0:
121,89,4210,6,0,P|98:51|87:7,2,90,8|0|0,0:0|0:0|0:0,0:0:0:0:
276,180,4678,2,0,P|320:188|365:182,2,90,8|0|0,0:0|0:0|0:0,0:0:0:0:
101,225,5147,6,0,P|93:268|99:313,2,90,8|0|0,0:0|0:0|0:0,0:0:0:0:
192,70,5616,2,0,P|230:46|274:35,2,90,8|0|0,0:0|0:0|0:0,0:0:0:0:
101,225,6085,5,8,0:0:0:0:
276,180,6241,1,0,0:0:0:0:
121,89,6397,1,8,0:0:0:0:
121,89,6710,5,8,0:0:0:0:
51,254,6866,2,0,L|66:348,1,90
391,89,7178,1,8,0:0:0:0:
461,254,7335,2,0,L|446:348,1,90
121,68,7647,5,8,0:0:0:0:
51,233,7803,2,0,L|66:327,1,90
391,68,8116,1,8,0:0:0:0:
461,233,8272,2,0,L|446:327,1,90
290,231,8585,5,8,0:0:0:0:
267,226,8663,1,0,0:0:0:0:
245,222,8741,1,0,0:0:0:0:
223,218,8819,1,0,0:0:0:0:
201,214,8897,1,8,0:0:0:0:
210,234,8975,1,8,0:0:0:0:
65,125,9131,1,8,0:0:0:0:
65,125,9210,6,0,B|132:119|132:119|169:62,1,135,6|0,0:0|0:0,0:0:0:0:
174,152,9522,2,0,P|185:195|209:233,1,90,8|0,0:0|0:0,0:0:0:0:
351,122,9835,1,2,0:0:0:0:
174,152,9991,2,0,L|262:136,1,90,0|8,0:0|0:0,0:0:0:0:
440,108,10303,1,0,0:0:0:0:
300,340,10460,5,2,0:0:0:0:
315,70,10616,1,0,0:0:0:0:
473,288,10772,1,8,0:0:0:0:
209,233,10928,1,0,0:0:0:0:
209,233,11241,5,0,0:0:0:0:
473,288,11397,1,8,0:0:0:0:
315,70,11553,1,0,0:0:0:0:
300,340,11710,6,0,P|303:284|353:226,1,135,6|0,0:0|0:0,0:0:0:0:
442,215,12022,2,0,L|406:132,1,90,8|0,0:0|0:0,0:0:0:0:
229,97,12335,2,0,L|313:69,2,90,2|0|8,0:0|0:0|0:0,0:0:0:0:
59,153,12803,1,0,0:0:0:0:
229,97,12960,5,2,0:0:0:0:
229,97,13116,1,0,0:0:0:0:
392,22,13272,1,8,0:0:0:0:
280,267,13428,2,0,L|301:227,1,45
436,213,13585,5,8,0:0:0:0:
190,325,13741,1,0,0:0:0:0:
172,146,13897,1,0,0:0:0:0:
306,155,14053,1,0,0:0:0:0:
204,245,14210,5,8,0:0:0:0:
108,149,14366,1,0,0:0:0:0:
95,283,14522,1,0,0:0:0:0:
202,201,14678,5,0,0:0:0:0:
106,105,14835,1,0,0:0:0:0:
93,239,14991,1,0,0:0:0:0:
200,157,15147,5,8,0:0:0:0:
104,61,15303,1,0,0:0:0:0:
91,195,15460,1,8,0:0:0:0:
113,197,15538,1,8,0:0:0:0:
135,199,15616,2,0,L|150:259,1,45
421,195,15772,5,8,0:0:0:0:
399,197,15850,1,0,0:0:0:0:
377,199,15928,2,0,L|362:259,1,45
202,322,16085,5,0,0:0:0:0:
180,327,16163,1,0,0:0:0:0:
158,332,16241,2,0,L|112:343,1,45
310,322,16397,5,8,0:0:0:0:
332,327,16475,1,0,0:0:0:0:
354,332,16553,2,0,L|400:343,1,45
458,274,16710,5,6,0:0:0:0:
145,95,17022,2,0,L|233:77,1,90,8|0,0:0|0:0,0:0:0:0:
197,254,17335,1,2,0:0:0:0:
197,254,17491,1,2,0:0:0:0:
18,230,17647,2,0,L|0:141,1,90,8|0,0:0|0:0,0:0:0:0:
179,165,17960,5,2,0:0:0:0:
179,165,18272,2,0,L|196:253,1,90,8|0,0:0|0:0,0:0:0:0:
306,109,18585,2,0,L|394:91,2,90,2|2|8,0:0|0:0|0:0,0:0:0:0:
127,90,19053,1,0,0:0:0:0:
62,260,19210,6,0,L|196:253,1,135,2|0,0:0|0:0,0:0:0:0:
255,184,19522,2,0,L|344:190,1,90,8|0,0:0|0:0,0:0:0:0:
494,291,19835,1,2,0:0:0:0:
494,291,19991,1,2,0:0:0:0:
314,311,20147,2,0,L|404:300,1,90,8|0,0:0|0:0,0:0:0:0:
433,121,20460,5,2,0:0:0:0:
77,171,20772,2,0,L|60:262,1,90,8|0,0:0|0:0,0:0:0:0:
95,82,21085,5,2,0:0:0:0:
95,82,21241,1,2,0:0:0:0:
274,82,21397,2,0,L|290:173,1,90,8|0,0:0|0:0,0:0:0:0:
229,341,21710,5,2,0:0:0:0:
441,51,22022,2,0,L|425:142,1,90,8|0,0:0|0:0,0:0:0:0:
392,316,22335,1,2,0:0:0:0:
392,316,22491,1,2,0:0:0:0:
289,170,22647,2,0,L|305:261,1,90,8|0,0:0|0:0,0:0:0:0:
154,157,22960,6,0,L|288:169,1,135,2|0,0:0|0:0,0:0:0:0:
292,79,23272,1,8,0:0:0:0:
292,79,23428,2,0,L|384:73,2,90,0|2|2,0:0|0:0|0:0,0:0:0:0:
112,89,23897,1,8,0:0:0:0:
112,89,24210,6,0,L|98:223,1,135,2|0,0:0|0:0,0:0:0:0:
171,274,24522,2,0,L|173:363,1,90,8|0,0:0|0:0,0:0:0:0:
354,356,24835,5,2,0:0:0:0:
354,356,24991,1,2,0:0:0:0:
359,177,25147,2,0,L|356:266,1,90,8|0,0:0|0:0,0:0:0:0:
171,274,25460,5,2,0:0:0:0:
171,274,25616,1,2,0:0:0:0:
166,95,25772,2,0,L|168:184,1,90,8|0,0:0|0:0,0:0:0:0:
100,352,26085,5,8,0:0:0:0:
356,266,26241,1,0,0:0:0:0:
155,86,26397,5,8,0:0:0:0:
411,172,26553,1,0,0:0:0:0:
143,214,26710,5,6,0:0:0:0:
143,214,27022,2,0,L|231:200,1,90,8|0,0:0|0:0,0:0:0:0:
411,172,27335,1,2,0:0:0:0:
411,172,27491,1,2,0:0:0:0:
281,47,27647,2,0,L|369:60,1,90,8|0,0:0|0:0,0:0:0:0:
226,170,27960,6,0,L|280:46,1,135,2|0,0:0|0:0,0:0:0:0:
369,60,28272,1,8,0:0:0:0:
349,238,28428,2,0,L|438:247,2,90,0|2|2,0:0|0:0|0:0,0:0:0:0:
169,218,28897,1,8,0:0:0:0:
169,218,29210,6,0,P|143:157|165:95,1,135,2|0,0:0|0:0,0:0:0:0:
232,155,29522,2,0,P|276:154|314:132,1,90,8|0,0:0|0:0,0:0:0:0:
331,312,29835,5,2,0:0:0:0:
331,312,29991,1,2,0:0:0:0:
331,312,30147,2,0,P|286:311|248:289,1,90,8|0,0:0|0:0,0:0:0:0:
145,139,30460,5,2,0:0:0:0:
489,36,30772,1,8,0:0:0:0:
400,192,30928,1,2,0:0:0:0:
400,192,31241,5,2,0:0:0:0:
489,36,31397,1,8,0:0:0:0:
316,87,31553,1,0,0:0:0:0:
185,211,31710,6,0,L|192:76,1,135,2|0,0:0|0:0,0:0:0:0:
114,121,32022,2,0,L|198:72,1,90,8|0,0:0|0:0,0:0:0:0:
273,247,32335,6,0,L|280:112,1,135,2|0,0:0|0:0,0:0:0:0:
202,157,32647,2,0,L|286:108,1,90,8|0,0:0|0:0,0:0:0:0:
361,283,32960,6,0,L|368:148,1,135,2|0,0:0|0:0,0:0:0:0:
290,193,33272,2,0,L|374:144,1,90,8|0,0:0|0:0,0:0:0:0:
192,221,33585,6,0,L|185:356,1,135,2|0,0:0|0:0,0:0:0:0:
278,344,33897,1,8,0:0:0:0:
278,344,34053,1,0,0:0:0:0:
365,185,34210,5,2,0:0:0:0:
42,26,34522,2,0,L|133:39,1,90,8|0,0:0|0:0,0:0:0:0:
82,213,34835,5,2,0:0:0:0:
82,213,34991,1,2,0:0:0:0:
223,102,35147,1,8,0:0:0:0:
265,368,35303,1,0,0:0:0:0:
118,139,35460,5,8,0:0:0:0:
323,312,35616,1,0,0:0:0:0:
254,51,35772,5,2,0:0:0:0:
212,317,35928,1,0,0:0:0:0:
22,122,36085,5,2,0:0:0:0:
227,295,36241,1,2,0:0:0:0:
158,35,36397,5,8,0:0:0:0:
116,300,36553,1,0,0:0:0:0:
317,118,36710,5,6,0:0:0:0:
35,341,37022,2,0,L|33:251,1,90,8|0,0:0|0:0,0:0:0:0:
199,321,37335,1,2,0:0:0:0:
199,321,37491,1,2,0:0:0:0:
350,224,37647,2,0,L|351:313,1,90,8|0,0:0|0:0,0:0:0:0:
491,198,37960,5,2,0:0:0:0:
491,198,38272,2,0,L|489:108,1,90,8|0,0:0|0:0,0:0:0:0:
329,22,38585,2,0,L|236:26,2,90,2|2|8,0:0|0:0|0:0,0:0:0:0:
204,151,39053,1,0,0:0:0:0:
76,278,39210,6,0,L|70:138,1,135,2|0,0:0|0:0,0:0:0:0:
147,97,39522,2,0,L|165:6,1,90,8|0,0:0|0:0,0:0:0:0:
283,145,39835,1,2,0:0:0:0:
283,145,39991,1,2,0:0:0:0:
444,65,40147,2,0,L|426:153,1,90,8|0,0:0|0:0,0:0:0:0:
292,274,40460,5,2,0:0:0:0:
16,42,40772,2,0,L|109:50,1,90,8|0,0:0|0:0,0:0:0:0:
163,221,41085,1,2,0:0:0:0:
163,221,41241,1,2,0:0:0:0:
36,348,41397,2,0,L|129:340,1,90,8|0,0:0|0:0,0:0:0:0:
57,172,41710,5,2,0:0:0:0:
57,172,42022,1,8,0:0:0:0:
147,16,42178,1,0,0:0:0:0:
261,155,42335,2,0,L|255:61,1,90,2|2,0:0|0:0,0:0:0:0:
382,192,42647,1,8,0:0:0:0:
382,192,42803,1,0,0:0:0:0:
219,270,42960,6,0,L|353:271,1,135,2|0,0:0|0:0,0:0:0:0:
313,351,43272,1,8,0:0:0:0:
313,351,43428,2,0,L|402:343,2,90,0|2|2,0:0|0:0|0:0,0:0:0:0:
237,186,43897,1,8,0:0:0:0:
237,186,44210,6,0,L|253:97,1,90,2|0,0:0|0:0,0:0:0:0:
75,118,44522,1,8,0:0:0:0:
253,97,44678,1,0,0:0:0:0:
117,217,44835,5,2,0:0:0:0:
117,217,44991,1,2,0:0:0:0:
177,47,45147,1,8,0:0:0:0:
241,308,45303,1,0,0:0:0:0:
70,246,45460,5,2,0:0:0:0:
70,246,45616,1,2,0:0:0:0:
130,76,45772,1,8,0:0:0:0:
194,337,45928,1,0,0:0:0:0:
197,65,46085,5,8,0:0:0:0:
305,311,46241,1,0,0:0:0:0:
261,42,46397,5,8,0:0:0:0:
410,266,46553,1,0,0:0:0:0:
325,19,46710,5,6,0:0:0:0:
487,339,47022,2,0,L|499:249,1,90,8|0,0:0|0:0,0:0:0:0:
354,357,47335,1,2,0:0:0:0:
354,357,47491,1,2,0:0:0:0:
378,177,47647,2,0,L|390:87,1,90,8|0,0:0|0:0,0:0:0:0:
243,193,47960,6,0,L|377:176,1,135,2|0,0:0|0:0,0:0:0:0:
315,111,48272,1,8,0:0:0:0:
135,91,48428,2,0,L|226:101,2,90,0|2|2,0:0|0:0|0:0,0:0:0:0:
135,271,48897,1,8,0:0:0:0:
135,271,49210,6,0,L|226:261,1,90,2|0,0:0|0:0,0:0:0:0:
167,91,49522,1,8,1:2:0:0:
189,93,49600,1,0,1:2:0:0:
211,95,49678,1,0,1:2:0:0:
234,98,49756,1,0,1:2:0:0:
256,100,49835,6,0,L|347:110,1,90,2|0,1:2|0:2,0:2:0:0:
167,271,50147,1,8,1:2:0:0:
189,268,50225,1,0,1:2:0:0:
211,266,50303,1,0,1:2:0:0:
234,263,50381,1,0,1:2:0:0:
256,262,50460,6,0,L|347:252,1,90,2|0,1:2|0:2,0:2:0:0:
466,119,50772,1,8,1:2:0:0:
467,141,50850,1,0,1:2:0:0:
468,163,50928,1,0,1:2:0:0:
470,186,51006,1,0,1:2:0:0:
471,208,51085,5,2,1:2:0:0:
473,231,51163,1,0,1:2:0:0:
474,253,51241,1,0,1:2:0:0:
475,276,51319,1,0,1:2:0:0:
477,298,51397,1,8,1:2:0:0:
477,298,51710,6,0,L|343:286,1,135,2|0,0:0|0:0,0:0:0:0:
256,262,52022,2,0,L|165:272,1,90,8|0,0:0|0:0,0:0:0:0:
76,114,52335,1,2,0:0:0:0:
76,114,52491,1,2,0:0:0:0:
254,132,52647,2,0,L|164:122,1,90,8|0,0:0|0:0,0:0:0:0:
84,330,52960,5,2,0:0:0:0:
391,144,53272,2,0,L|409:56,1,90,8|0,0:0|0:0,0:0:0:0:
229,55,53585,1,2,0:0:0:0:
229,55,53741,1,2,0:0:0:0:
86,164,53897,2,0,L|176:174,1,90,8|0,0:0|0:0,0:0:0:0:
84,330,54210,5,2,0:0:0:0:
391,144,54522,2,0,L|372:231,1,90,8|0,0:0|0:0,0:0:0:0:
409,56,54835,1,2,0:0:0:0:
409,56,54991,1,2,0:0:0:0:
229,42,55147,1,8,0:0:0:0:
468,166,55303,1,0,0:0:0:0:
197,152,55460,5,2,0:0:0:0:
454,233,55616,1,8,0:0:0:0:
185,266,55772,5,2,0:0:0:0:
452,301,55928,1,8,0:0:0:0:
185,266,56085,5,8,0:0:0:0:
454,233,56241,1,2,0:0:0:0:
197,152,56397,5,2,0:0:0:0:
197,152,56710,6,0,P|96:107|119:215,1,270,6|2,0:0|0:0,0:0:0:0:
29,316,57335,1,8,0:0:0:0:
34,46,57647,2,0,P|22:89|34:131,1,90,2|2,0:0|0:0,0:0:0:0:
278,14,58116,2,0,P|290:56|278:99,1,90,2|0,0:0|0:0,0:0:0:0:
151,56,58428,1,2,0:0:0:0:
151,56,58585,2,0,L|173:234,1,180,8|2,0:0|0:0,0:0:0:0:
297,287,59053,1,8,0:0:0:0:
314,152,59210,6,0,P|415:107|392:215,1,270,2|2,0:0|0:0,0:0:0:0:
483,316,59835,1,8,0:0:0:0:
478,46,60147,2,0,P|489:89|477:131,1,90,2|2,0:0|0:0,0:0:0:0:
234,14,60616,2,0,P|221:56|233:99,1,90,2|0,0:0|0:0,0:0:0:0:
361,56,60928,1,2,0:0:0:0:
361,56,61085,2,0,L|338:234,1,180,8|2,0:0|0:0,0:0:0:0:
215,287,61553,1,8,0:0:0:0:
214,285,61710,6,0,B|203:151|50:228|36:112,1,270,2|2,0:0|0:0,0:0:0:0:
156,49,62335,1,8,0:0:0:0:
88,309,62647,2,0,L|159:254,1,90,2|2,0:0|0:0,0:0:0:0:
428,226,63116,2,0,L|356:171,1,90,2|0,0:0|0:0,0:0:0:0:
442,67,63428,1,2,0:0:0:0:
305,57,63585,2,0,P|232:35|239:112,1,180,8|0,0:0|0:0,0:0:0:0:
174,230,64053,1,8,0:0:0:0:
297,285,64210,6,0,B|308:151|462:228|475:112,1,270,2|2,0:0|0:0,0:0:0:0:
356,49,64835,1,8,0:0:0:0:
424,309,65147,2,0,L|352:254,1,90,2|2,0:0|0:0,0:0:0:0:
90,187,65616,1,2,0:0:0:0:
90,187,65772,2,0,L|161:132,1,90,8|2,0:0|0:0,0:0:0:0:
231,16,66085,5,8,0:0:0:0:
257,284,66241,1,8,0:0:0:0:
379,152,66397,1,2,0:0:0:0:
245,167,66553,1,2,0:0:0:0:
448,345,66710,5,6,0:0:0:0:
358,345,67178,2,0,L|448:345,1,90,2|8,0:0|0:0,0:0:0:0:
268,345,67647,2,0,L|358:345,1,90,2|2,0:0|0:0,0:0:0:0:
178,345,68116,2,0,L|268:345,1,90,2|2,0:0|0:0,0:0:0:0:
88,345,68428,2,0,L|178:345,1,90,2|8,0:0|0:0,0:0:0:0:
268,345,68897,1,0,0:0:0:0:
448,345,69053,1,8,0:0:0:0:
40,196,69210,5,2,0:0:0:0:
130,196,69678,2,0,L|40:196,1,90,2|8,0:0|0:0,0:0:0:0:
220,196,70147,2,0,L|130:196,1,90,2|2,0:0|0:0,0:0:0:0:
310,196,70616,2,0,L|220:196,1,90,2|2,0:0|0:0,0:0:0:0:
400,196,70928,2,0,L|310:196,1,90,2|8,0:0|0:0,0:0:0:0:
287,196,71163,1,0,0:0:0:0:
265,196,71241,1,0,0:0:0:0:
242,196,71319,1,0,0:0:0:0:
220,196,71397,5,0,1:0:0:0:
182,219,71475,1,0,1:0:0:0:
163,259,71553,1,0,1:0:0:0:
171,302,71631,1,0,1:0:0:0:
202,334,71710,5,6,1:2:0:0:
448,222,72022,1,8,0:0:0:0:
202,334,72335,5,2,0:0:0:0:
325,278,72491,1,2,0:0:0:0:
448,222,72647,1,8,0:0:0:0:
180,263,72960,5,2,0:0:0:0:
442,196,73272,1,8,0:0:0:0:
180,263,73585,5,2,0:0:0:0:
311,230,73741,1,2,0:0:0:0:
442,196,73897,1,8,0:0:0:0:
171,189,74210,5,2,0:0:0:0:
441,169,74522,1,8,0:0:0:0:
171,189,74835,5,2,0:0:0:0:
306,180,74991,1,2,0:0:0:0:
441,169,75147,1,8,0:0:0:0:
175,115,75460,5,2,0:0:0:0:
445,142,75772,1,8,0:0:0:0:
175,115,76085,5,2,0:0:0:0:
310,129,76241,1,2,0:0:0:0:
445,142,76397,1,8,0:0:0:0:
175,115,76553,1,0,0:0:0:0:
175,115,76631,1,0,0:0:0:0:
175,115,76710,5,12,0:0:0:0:
445,142,76866,1,2,0:0:0:0:
171,189,77022,5,8,0:0:0:0:
441,169,77178,1,2,0:0:0:0:
180,263,77335,5,8,0:0:0:0:
442,196,77491,1,2,0:0:0:0:
202,334,77647,5,8,0:0:0:0:
448,222,77803,1,2,0:0:0:0:
321,351,77960,5,8,0:0:0:0:
348,82,78116,1,2,0:0:0:0:
258,336,78272,5,8,0:0:0:0:
237,66,78428,1,2,0:0:0:0:
202,334,78585,5,8,0:0:0:0:
134,72,78741,1,2,0:0:0:0:
146,342,78897,5,8,0:0:0:0:
34,95,79053,1,2,0:0:0:0:
23,366,79210,5,8,0:0:0:0:
113,111,79366,1,2,0:0:0:0:
288,315,79522,1,2,0:0:0:0:
237,50,79678,5,8,0:0:0:0:
492,140,79835,1,2,0:0:0:0:
288,315,79991,1,2,0:0:0:0:
373,57,80147,5,8,0:0:0:0:
288,315,80303,1,2,0:0:0:0:
492,140,80460,5,8,0:0:0:0:
204,12,80616,1,8,0:0:0:0:
288,315,80772,1,8,0:0:0:0:
288,314,81710,6,0,P|222:308|177:259,1,135,6|0,0:0|0:0,0:0:0:0:
138,340,82022,1,8,0:0:0:0:
267,215,82178,1,0,0:0:0:0:
104,294,82335,5,2,0:0:0:0:
104,294,82491,1,2,0:0:0:0:
20,134,82647,1,8,0:0:0:0:
194,177,82803,1,0,0:0:0:0:
110,17,82960,5,2,0:0:0:0:
110,17,83116,1,2,0:0:0:0:
194,177,83272,1,8,0:0:0:0:
20,134,83428,1,0,0:0:0:0:
184,58,83585,5,2,0:0:0:0:
20,134,83741,1,2,0:0:0:0:
194,177,83897,1,8,0:0:0:0:
28,246,84053,5,0,0:0:0:0:
28,246,84131,1,0,0:0:0:0:
28,246,84210,6,0,L|161:262,1,135,2|0,0:0|0:0,0:0:0:0:
95,323,84522,2,0,L|184:316,1,90,8|0,0:0|0:0,0:0:0:0:
102,155,84835,6,0,L|235:171,1,135,2|0,0:0|0:0,0:0:0:0:
169,232,85147,2,0,L|258:225,1,90,8|0,0:0|0:0,0:0:0:0:
150,80,85460,5,2,0:0:0:0:
320,135,85616,1,2,0:0:0:0:
169,232,85772,1,8,0:0:0:0:
221,60,85928,1,0,0:0:0:0:
221,60,86006,1,0,0:0:0:0:
221,60,86085,6,0,L|354:76,1,135,2|0,0:0|0:0,0:0:0:0:
288,137,86397,2,0,L|377:130,1,90,8|0,0:0|0:0,0:0:0:0:
219,219,86710,6,0,L|304:190,1,90,2|0,0:0|0:0,0:0:0:0:
464,271,87022,2,0,L|378:242,1,90,8|0,0:0|0:0,0:0:0:0:
198,258,87335,6,0,L|283:229,1,90,2|0,0:0|0:0,0:0:0:0:
443,310,87647,2,0,L|357:281,1,90,8|0,0:0|0:0,0:0:0:0:
177,297,87960,6,0,L|262:268,1,90,2|0,0:0|0:0,0:0:0:0:
422,349,88272,2,0,L|336:320,1,90,8|0,0:0|0:0,0:0:0:0:
283,229,88585,6,0,L|197:257,1,90,2|0,0:0|0:0,0:0:0:0:
357,281,88897,2,0,L|442:309,1,90,8|0,0:0|0:0,0:0:0:0:
424,129,89210,5,2,0:0:0:0:
64,136,89522,1,8,0:0:0:0:
197,257,89678,1,0,0:0:0:0:
161,81,89835,5,2,0:0:0:0:
87,245,89991,1,2,0:0:0:0:
243,155,90147,1,8,0:0:0:0:
64,136,90303,1,0,0:0:0:0:
197,257,90460,5,8,0:0:0:0:
177,268,90538,1,8,0:0:0:0:
158,280,90616,2,0,L|119:303,1,45
315,257,90772,5,2,0:0:0:0:
334,268,90850,1,2,0:0:0:0:
354,280,90928,2,0,L|392:303,1,45
479,144,91085,5,2,0:0:0:0:
123,88,91397,1,2,0:0:0:0:
123,87,91710,6,0,P|108:152|140:210,1,135,2|0,0:0|0:0,0:0:0:0:
196,139,92022,2,0,L|285:128,1,90,8|0,0:0|0:0,0:0:0:0:
245,304,92335,2,0,L|334:316,2,90,2|2|8,0:0|0:0|0:0,0:0:0:0:
285,128,92803,1,0,0:0:0:0:
245,304,92960,5,2,0:0:0:0:
245,304,93116,1,2,0:0:0:0:
384,190,93272,1,8,0:0:0:0:
204,190,93428,1,0,0:0:0:0:
204,190,93741,5,2,0:0:0:0:
384,190,93897,1,8,0:0:0:0:
245,304,94053,1,0,0:0:0:0:
281,126,94210,6,0,P|330:80|396:69,1,135,2|0,0:0|0:0,0:0:0:0:
453,139,94522,2,0,L|394:69,1,90,8|0,0:0|0:0,0:0:0:0:
238,159,94835,6,0,P|293:122|360:123,1,135,2|0,0:0|0:0,0:0:0:0:
404,201,95147,2,0,L|358:122,1,90,8|0,0:0|0:0,0:0:0:0:
189,184,95460,6,0,P|250:157|315:170,1,135,2|0,0:0|0:0,0:0:0:0:
345,255,95772,2,0,L|314:169,1,90,8|0,0:0|0:0,0:0:0:0:
315,170,96241,5,0,0:0:0:0:
240,6,96397,1,8,0:0:0:0:
189,184,96553,1,0,0:0:0:0:
189,184,96631,1,0,0:0:0:0:
189,184,96710,6,0,L|197:273,1,90,2|0,0:0|0:0,0:0:0:0:
329,151,97022,2,0,L|319:240,1,90,8|0,0:0|0:0,0:0:0:0:
251,72,97335,6,0,L|259:161,1,90,2|0,0:0|0:0,0:0:0:0:
391,39,97647,2,0,L|381:128,1,90,8|0,0:0|0:0,0:0:0:0:
381,128,97881,1,0,0:0:0:0:
381,128,97960,5,2,0:0:0:0:
247,362,98116,1,8,0:0:0:0:
173,102,98272,1,2,0:0:0:0:
352,302,98428,1,0,0:0:0:0:
352,302,98506,1,0,0:0:0:0:
352,302,98585,2,0,L|266:273,1,90,8|8,0:0|0:0,0:0:0:0:
43,121,98897,5,0,1:2:0:0:
64,113,98975,1,0,1:2:0:0:
85,106,99053,1,0,1:2:0:0:
106,99,99131,1,0,1:2:0:0:
128,92,99210,5,6,1:2:0:0:
256,192,99366,12,0,103585,0:0:0:0:
395,261,103897,5,8,0:0:0:0:
392,305,103975,1,2,0:0:0:0:
390,350,104053,1,2,0:0:0:0:
403,81,104210,5,12,0:0:0:0:
390,350,104366,1,2,0:0:0:0:
277,56,104522,5,8,0:0:0:0:
264,325,104678,1,2,0:0:0:0:
155,76,104835,5,8,0:0:0:0:
142,345,104991,1,2,0:0:0:0:
29,51,105147,5,8,0:0:0:0:
16,320,105303,1,2,0:0:0:0:
16,320,105381,1,2,0:0:0:0:
16,320,105460,5,8,0:0:0:0:
374,342,105616,1,2,0:0:0:0:
34,224,105772,5,8,0:0:0:0:
392,246,105928,1,2,0:0:0:0:
3,125,106085,5,8,0:0:0:0:
361,147,106241,1,2,0:0:0:0:
21,29,106397,5,8,0:0:0:0:
379,51,106553,1,2,0:0:0:0:
379,51,106631,1,2,0:0:0:0:
379,51,106710,5,12,0:0:0:0:
74,316,106866,1,2,0:0:0:0:
419,101,107022,5,8,0:0:0:0:
42,246,107178,1,2,0:0:0:0:
440,163,107335,5,8,0:0:0:0:
36,170,107491,1,2,0:0:0:0:
439,228,107647,5,8,0:0:0:0:
57,96,107803,1,6,0:0:0:0:
57,96,108116,5,8,0:0:0:0:
452,309,108272,1,8,0:0:0:0:
3,278,108428,1,8,0:0:0:0:
419,101,108585,1,2,0:0:0:0:
419,101,109210,6,0,P|431:190|402:274,1,180,6|8,0:0|0:0,0:0:0:0:
256,167,109678,1,0,0:0:0:0:
95,244,109835,2,0,L|64:328,2,90,2|2|8,0:0|0:0|0:0,0:0:0:0:
256,167,110303,1,0,0:0:0:0:
256,167,110460,6,0,L|345:173,1,90,2|0,0:0|0:0,0:0:0:0:
226,307,110772,2,0,L|315:302,1,90,8|0,0:0|0:0,0:0:0:0:
147,235,111085,6,0,L|236:241,1,90,2|0,0:0|0:0,0:0:0:0:
117,375,111397,2,0,L|206:370,1,90,8|0,0:0|0:0,0:0:0:0:
53,273,111710,6,0,P|61:183|39:96,1,180,2|8,0:0|0:0,0:0:0:0:
210,150,112178,2,0,L|251:70,2,90,0|2|0,0:0|0:0|0:0,0:0:0:0:
161,324,112647,2,0,L|249:306,1,90,8|0,0:0|0:0,0:0:0:0:
83,233,112960,5,2,0:0:0:0:
258,193,113116,1,2,0:0:0:0:
132,64,113272,5,8,0:0:0:0:
305,112,113428,1,0,0:0:0:0:
305,112,113741,5,0,0:0:0:0:
305,112,113897,2,0,L|323:200,1,90,8|0,0:0|0:0,0:0:0:0:
196,70,114210,6,0,L|276:29,1,90,6|0,0:0|0:0,0:0:0:0:
434,115,114522,2,0,L|353:74,1,90,8|0,0:0|0:0,0:0:0:0:
189,151,114835,6,0,L|269:110,1,90,2|0,0:0|0:0,0:0:0:0:
427,196,115147,2,0,L|346:155,1,90,8|0,0:0|0:0,0:0:0:0:
182,232,115460,6,0,L|262:191,1,90,2|0,0:0|0:0,0:0:0:0:
420,277,115772,2,0,L|339:236,1,90,8|0,0:0|0:0,0:0:0:0:
175,313,116085,6,0,L|255:272,1,90,2|0,0:0|0:0,0:0:0:0:
413,358,116397,2,0,L|332:317,1,90,8|0,0:0|0:0,0:0:0:0:
490,229,116710,6,0,P|424:171|422:83,1,180,2|8,0:0|0:0,0:0:0:0:
243,104,117178,1,0,0:0:0:0:
243,104,117335,2,0,L|146:116,2,90,2|2|8,0:0|0:0|0:0,0:0:0:0:
422,83,117803,1,0,0:0:0:0:
198,236,117960,5,8,0:0:0:0:
466,255,118116,1,0,0:0:0:0:
243,104,118272,5,2,0:0:0:0:
386,332,118428,1,0,0:0:0:0:
333,65,118585,5,6,0:0:0:0:
333,65,118897,1,6,0:0:0:0:
333,65,119210,6,0,P|391:174|290:245,1,270,6|0,0:0|0:0,0:0:0:0:
184,330,119835,1,8,0:0:0:0:
184,330,120147,6,0,L|170:240,1,90,2|2,0:0|0:0,0:0:0:0:
170,240,120616,2,0,L|183:150,1,90,2|0,0:0|0:0,0:0:0:0:
52,184,120928,1,2,0:0:0:0:
52,184,121085,6,0,P|26:101|85:39,1,180,8|0,0:0|0:0,0:0:0:0:
217,67,121553,1,2,0:0:0:0:
216,66,121710,6,0,P|322:141|441:91,1,270,6|0,0:0|0:0,0:0:0:0:
421,225,122335,1,8,0:0:0:0:
153,254,122647,6,0,L|236:288,1,90,0|2,0:0|0:0,0:0:0:0:
468,148,123116,2,0,L|420:224,1,90,2|0,0:0|0:0,0:0:0:0:
290,189,123428,1,2,0:0:0:0:
289,189,123585,6,0,P|202:186|131:128,1,180,8|0,0:0|0:0,0:0:0:0:
248,61,124053,1,2,0:0:0:0:
248,61,124210,6,0,L|251:150,2,90,6|0|0,0:0|0:0|0:0,0:0:0:0:
122,109,124678,1,2,0:0:0:0:
251,150,124835,5,8,0:0:0:0:
137,223,124991,1,2,0:0:0:0:
266,264,125147,1,8,0:0:0:0:
152,337,125303,1,2,0:0:0:0:
281,378,125460,5,8,1:2:0:0:
324,367,125538,1,0,1:2:0:0:
359,340,125616,1,0,1:2:0:0:
379,300,125694,1,0,1:2:0:0:
380,255,125772,1,2,1:2:0:0:
369,223,125850,1,0,1:2:0:0:
368,189,125928,1,0,1:2:0:0:
377,157,126006,1,0,1:2:0:0:
395,128,126085,5,0,1:2:0:0:
372,126,126163,1,0,1:2:0:0:
351,119,126241,1,0,1:2:0:0:
333,106,126319,1,0,1:2:0:0:
318,89,126397,1,10,1:2:0:0:
282,62,126475,1,0,1:2:0:0:
239,53,126553,1,0,1:2:0:0:
195,63,126631,1,0,1:2:0:0:
160,90,126710,5,6,1:2:0:0:
160,90,127022,2,0,P|161:134|150:178,1,90,8|0,0:0|0:0,0:0:0:0:
26,124,127335,1,2,0:0:0:0:
40,257,127491,1,2,0:0:0:0:
149,178,127647,1,8,0:0:0:0:
163,311,127803,1,0,0:0:0:0:
163,311,128116,5,0,0:0:0:0:
149,178,128272,1,8,0:0:0:0:
40,257,128428,1,0,0:0:0:0:
26,124,128585,2,0,P|25:79|36:35,1,90,2|2,0:0|0:0,0:0:0:0:
149,178,128897,2,0,P|160:134|160:90,1,90,8|0,0:0|0:0,0:0:0:0:
243,196,129210,5,2,0:0:0:0:
243,196,129522,2,0,P|287:195|331:206,1,90,8|0,0:0|0:0,0:0:0:0:
277,330,129835,1,2,0:0:0:0:
410,316,129991,1,2,0:0:0:0:
331,207,130147,1,8,0:0:0:0:
464,193,130303,1,0,0:0:0:0:
464,193,130616,5,0,0:0:0:0:
331,207,130772,1,8,0:0:0:0:
410,316,130928,1,0,0:0:0:0:
277,330,131085,2,0,P|232:330|188:319,1,90,2|2,0:0|0:0,0:0:0:0:
332,206,131397,2,0,P|288:194|243:195,1,90,8|0,0:0|0:0,0:0:0:0:
188,319,131710,5,2,0:0:0:0:
41,92,132022,2,0,P|83:62|121:52,1,90,8|0,0:0|0:0,0:0:0:0:
231,129,132335,2,0,P|188:114|143:115,1,90,2|2,0:0|0:0,0:0:0:0:
168,247,132647,1,8,0:0:0:0:
168,247,132803,6,0,L|346:226,1,180,0|2,0:0|0:0,0:0:0:0:
361,91,133272,2,0,L|273:71,1,90,8|0,0:0|0:0,0:0:0:0:
144,114,133585,2,0,L|151:24,1,90,2|2,0:0|0:0,0:0:0:0:
36,94,133897,1,8,0:0:0:0:
33,139,133975,1,2,0:0:0:0:
29,184,134053,1,2,0:0:0:0:
36,94,134210,5,12,0:0:0:0:
300,147,134366,1,2,0:0:0:0:
33,139,134522,5,8,0:0:0:0:
297,192,134678,1,2,0:0:0:0:
29,184,134835,5,8,0:0:0:0:
293,237,134991,1,2,0:0:0:0:
26,229,135147,5,8,0:0:0:0:
290,282,135303,1,2,0:0:0:0:
23,274,135460,5,12,0:0:0:0:
293,237,135616,1,2,0:0:0:0:
19,319,135772,5,8,0:0:0:0:
297,192,135928,1,2,0:0:0:0:
15,364,136085,5,8,0:0:0:0:
297,192,136241,1,2,0:0:0:0:
5,32,136397,5,8,0:0:0:0:
177,314,136553,1,2,0:0:0:0:
29,184,136710,5,12,0:0:0:0:
381,252,136866,1,2,0:0:0:0:
21,242,137022,5,8,0:0:0:0:
373,174,137178,1,2,0:0:0:0:
35,43,137335,5,8,0:0:0:0:
387,111,137491,1,2,0:0:0:0:
27,101,137647,5,8,0:0:0:0:
379,33,137803,1,2,0:0:0:0:
208,351,137960,5,8,0:0:0:0:
211,328,138038,1,8,0:0:0:0:
215,306,138116,2,0,L|223:259,1,45,2|0,0:0|0:0,0:0:0:0:
387,263,138272,5,8,0:0:0:0:
383,240,138350,1,0,0:0:0:0:
380,218,138428,2,0,L|372:171,1,45,2|0,0:0|0:0,0:0:0:0:
379,33,138585,5,2,0:0:0:0:
336,17,138663,1,2,0:0:0:0:
292,13,138741,1,8,0:0:0:0:
248,20,138819,1,8,0:0:0:0:
207,39,138897,1,8,0:0:0:0:
165,55,138975,1,8,0:0:0:0:
120,59,139053,1,8,0:0:0:0:
76,51,139131,1,8,0:0:0:0:
36,33,139210,5,6,0:0:0:0:
256,192,139366,12,0,143585,0:0:0:0:
117,261,143897,5,8,0:0:0:0:
120,305,143975,1,2,0:0:0:0:
122,350,144053,1,2,0:0:0:0:
109,81,144210,5,12,0:0:0:0:
122,350,144366,1,2,0:0:0:0:
235,56,144522,5,8,0:0:0:0:
248,325,144678,1,2,0:0:0:0:
357,76,144835,5,8,0:0:0:0:
370,345,144991,1,2,0:0:0:0:
483,51,145147,5,8,0:0:0:0:
496,320,145303,1,2,0:0:0:0:
496,320,145381,1,2,0:0:0:0:
496,320,145460,5,12,0:0:0:0:
138,342,145616,1,2,0:0:0:0:
478,224,145772,5,8,0:0:0:0:
120,246,145928,1,2,0:0:0:0:
509,125,146085,5,8,0:0:0:0:
151,147,146241,1,2,0:0:0:0:
491,29,146397,5,8,0:0:0:0:
133,51,146553,1,2,0:0:0:0:
133,51,146631,1,2,0:0:0:0:
133,51,146710,5,12,0:0:0:0:
438,316,146866,1,2,0:0:0:0:
93,101,147022,5,8,0:0:0:0:
470,246,147178,1,2,0:0:0:0:
72,163,147335,5,8,0:0:0:0:
476,170,147491,1,2,0:0:0:0:
73,228,147647,5,8,0:0:0:0:
455,96,147803,1,6,0:0:0:0:
455,96,148116,5,2,0:0:0:0:
3,297,148272,1,2,0:0:0:0:
399,2,148428,5,2,0:0:0:0:
71,376,148585,1,2,0:0:0:0:
