osu file format v14

[General]
AudioFilename: audio.mp3
AudioLeadIn: 0
PreviewTime: 47950
Countdown: 0
SampleSet: Soft
StackLeniency: 0
Mode: 0
LetterboxInBreaks: 0
WidescreenStoryboard: 0

[Editor]
Bookmarks: 18080,48158,78237,93276,106435,112075,130874,145913,159072,164712,185495
DistanceSpacing: 0.6
BeatDivisor: 6
GridSize: 32
TimelineZoom: 2

[Metadata]
Title:Sweet Marriage (Game Ver.)
TitleUnicode:スイートマリアージュ (Game Ver.)
Artist:Kamishiro Ami
ArtistUnicode:神代あみ
Creator:tsukino
Version:wife
Source:喫茶ステラと死神の蝶
Tags:Angel Note Famishin Ifukube Takeshi 伊福部武史 Visual Novel VN Eroge Galgame Video Game 明月栞那 Akizuki Kanna Ending ED Japanese Swing Jazz Cafe Stella to Shinigami no Chou 星巴克与扑棱蛾子 Café and the Death Goddess' Goddess Butterfly Yuzusoft Deppyforce kodama
BeatmapID:3042549
BeatmapSetID:1483467

[Difficulty]
HPDrainRate:5
CircleSize:4.2
OverallDifficulty:7
ApproachRate:8.3
SliderMultiplier:2.4
SliderTickRate:1

[Events]
//Background and Video events
0,0,"bg0.png",0,0
//Break Periods
//Storyboard Layer 0 (Background)
//Storyboard Layer 1 (Fail)
//Storyboard Layer 2 (Pass)
//Storyboard Layer 3 (Foreground)
//Storyboard Layer 4 (Overlay)
//Storyboard Sound Samples

[TimingPoints]
536,626.631853785901,3,2,1,40,1,0
7011,-100,3,2,1,40,0,0
8055,626.631853785901,4,2,1,25,1,0
8368,-100,4,2,1,25,0,0
10561,626.631853785901,3,2,1,30,1,0
12493,-100,3,2,1,5,0,0
13067,-100,3,2,1,30,0,0
15626,-100,3,2,1,5,0,0
15991,-100,3,2,1,30,0,0
16096,-100,3,2,1,5,0,0
16200,-100,3,2,1,30,0,0
18080,-166.666666666667,3,2,1,35,0,0
18707,-250.000000000001,3,2,1,35,0,0
19020,-250.000000000001,3,2,1,5,0,0
19124,-250.000000000001,3,2,1,35,0,0
19751,-166.666666666667,3,2,1,35,0,0
19856,-166.666666666667,3,2,1,5,0,0
19960,-83.3333333333333,3,2,1,35,0,0
20377,-83.3333333333333,3,2,1,35,0,0
20587,-166.666666666667,3,2,1,35,0,0
21004,-166.666666666667,3,2,1,35,0,0
21213,-83.3333333333333,3,2,1,35,0,0
22467,-250,3,2,1,35,0,0
22884,-250,3,2,1,35,0,0
23093,-166.666666666667,3,2,1,35,0,0
23406,-166.666666666667,3,2,1,5,0,0
23511,-166.666666666667,3,2,1,35,0,0
23720,-100,3,2,1,35,0,0
25600,-151.515151515152,3,2,1,35,0,0
25913,-151.515151515152,3,2,1,5,0,0
26017,-151.515151515152,3,2,1,35,0,0
26226,-200,3,2,1,35,0,0
26853,-100,3,2,1,35,0,0
27480,-166.666666666667,3,2,1,35,0,0
28106,-125,3,2,1,35,0,0
28733,-100,3,2,1,35,0,0
29359,-333.333333333333,3,2,1,35,0,0
29673,-333.333333333333,3,2,1,5,0,0
29777,-333.333333333333,3,2,1,35,0,0
31657,-125,3,2,1,35,0,0
32493,-166.666666666667,3,2,1,35,0,0
33433,-166.666666666667,3,2,1,5,0,0
33537,-83.3333333333333,3,2,1,35,0,0
33641,-83.3333333333333,3,2,1,5,0,0
33746,-83.3333333333333,3,2,1,35,0,0
34373,-166.666666666667,3,2,1,35,0,0
35312,-166.666666666667,3,2,1,5,0,0
35417,-166.666666666667,3,2,1,35,0,0
36148,-166.666666666667,3,2,1,5,0,0
36252,-166.666666666667,3,2,1,35,0,0
36775,-166.666666666667,3,2,1,5,0,0
36879,-166.666666666667,3,2,1,35,0,0
37192,-166.666666666667,3,2,1,5,0,0
37297,-166.666666666667,3,2,1,35,0,0
38759,-83.3333333333333,3,2,1,35,0,0
40012,-100,3,2,1,35,0,0
40639,-125,3,2,1,35,0,0
40952,-125,3,2,1,5,0,0
41057,-125,3,2,1,35,0,0
41161,-125,3,2,1,5,0,0
41265,-250,3,2,1,35,0,0
41892,-100,3,2,1,35,0,0
42519,-100,3,2,1,35,0,0
42832,-100,3,2,1,5,0,0
42936,-125,3,2,1,35,0,0
43772,-100,3,2,1,35,0,0
44294,-100,3,2,1,5,0,0
44399,-83.3333333333333,3,2,1,35,0,0
44712,-83.3333333333333,3,2,1,5,0,0
44816,-166.666666666667,3,2,1,35,0,0
46331,-166.666666666667,3,2,1,5,0,0
46905,-55.5555555555556,3,2,1,35,0,0
47218,-55.5555555555556,3,2,1,35,0,0
47323,-166.666666666667,3,2,1,35,0,0
47427,-166.666666666667,3,2,1,5,0,0
47532,-125,3,2,1,35,0,0
47845,-125,3,2,1,35,0,0
47950,-125,3,2,1,35,0,0
48054,-125,3,2,1,5,0,0
48158,-62.5,3,2,1,40,0,0
48472,-62.5,3,2,1,5,0,0
48576,-62.5,3,2,1,40,0,0
48681,-62.5,3,2,1,5,0,0
48785,-125,3,2,1,40,0,0
50038,-83.3333333333333,3,2,1,40,0,0
50665,-100,3,2,1,40,0,0
50978,-100,3,2,1,5,0,0
51083,-100,3,2,1,40,0,0
51918,-83.3333333333333,3,2,1,40,0,0
52545,-166.666666666667,3,2,1,40,0,0
53171,-333.333333333333,3,2,1,40,0,0
53380,-333.333333333333,3,2,1,5,0,0
53485,-333.333333333333,3,2,1,40,0,0
53798,-125,3,2,1,40,0,0
54425,-200,3,2,1,40,0,0
54738,-200,3,2,1,5,0,0
54842,-200,3,2,1,40,0,0
55051,-142.857142857143,3,2,1,40,0,0
55365,-142.857142857143,3,2,1,5,0,0
55469,-142.857142857143,3,2,1,40,0,0
55678,-333.333333333333,3,2,1,40,0,0
55991,-333.333333333333,3,2,1,5,0,0
56096,-333.333333333333,3,2,1,40,0,0
56200,-333.333333333333,3,2,1,5,0,0
56305,-76.9230769230769,3,2,1,40,0,0
58185,-125,3,2,1,40,0,0
58811,-250,3,2,1,40,0,0
59438,-500,3,2,1,40,0,0
59751,-500,3,2,1,5,0,0
59856,-500,3,2,1,40,0,0
60064,-166.666666666667,3,2,1,40,0,0
61944,-250.000000000001,3,2,1,40,0,0
62571,-100,3,2,1,40,0,0
63198,-71.4285714285714,3,2,1,40,0,0
63511,-71.4285714285714,3,2,1,5,0,0
63615,-71.4285714285714,3,2,1,40,0,0
63720,-71.4285714285714,3,2,1,5,0,0
63824,-250,3,2,1,40,0,0
65077,-100,3,2,1,40,0,0
65704,-166.666666666667,3,2,1,40,0,0
66331,-100,3,2,1,40,0,0
66957,-125,3,2,1,40,0,1
67271,-125,3,2,1,5,0,0
67375,-100,3,2,1,40,0,1
67480,-100,3,2,1,5,0,0
67584,-100,3,2,1,40,0,0
68002,-125,3,2,1,40,0,1
68315,-125,3,2,1,5,0,0
68420,-83.3333333333333,3,2,1,40,0,1
68524,-83.3333333333333,3,2,1,5,0,0
68628,-62.5,3,2,1,40,0,1
68733,-62.5,3,2,1,5,0,0
68837,-50,3,2,1,40,0,1
69255,-50,3,2,1,40,0,0
69464,-250,3,2,1,40,0,0
70091,-83.3333333333333,3,2,1,40,0,0
70717,-166.666666666667,3,2,1,40,0,0
71030,-166.666666666667,3,2,1,5,0,0
71135,-166.666666666667,3,2,1,40,0,0
71344,-500,3,2,1,40,0,0
71970,-100,3,2,1,40,0,0
72597,-125,3,2,1,40,0,0
73224,-125,3,2,1,40,0,0
73432,-125,3,2,1,5,0,0
73850,-83.3333333333333,3,2,1,40,0,0
74477,-100,3,2,1,40,0,0
74790,-100,3,2,1,5,0,0
74895,-100,3,2,1,40,0,0
74999,-100,3,2,1,5,0,0
75104,-100,3,2,1,40,0,0
76357,-62.5,3,2,1,40,0,0
76409,-62.5,3,2,1,5,0,0
76983,-125,3,2,1,40,0,0
77297,-125,3,2,1,5,0,0
77401,-200,3,2,1,40,0,0
77506,-200,3,2,1,5,0,0
77610,-166.666666666667,3,2,1,40,0,0
78132,-166.666666666667,3,2,1,40,0,0
78237,-50,3,2,1,60,0,0
78550,-50,3,2,1,5,0,0
78654,-71.4285714285714,3,2,1,60,0,0
78759,-71.4285714285714,3,2,1,5,0,0
78863,-125,3,2,1,60,0,0
79177,-125,3,2,1,5,0,0
79281,-125,3,2,1,60,0,0
79490,-166.666666666667,3,2,1,60,0,0
80117,-83.3333333333333,3,2,1,60,0,0
80743,-125,3,2,1,60,0,0
81370,-250.000000000001,3,2,1,60,0,0
81997,-71.4285714285714,3,2,1,60,0,0
82310,-71.4285714285714,3,2,1,5,0,0
82414,-71.4285714285714,3,2,1,60,0,0
82519,-71.4285714285714,3,2,1,5,0,0
82623,-166.666666666667,3,2,1,60,0,0
83250,-100,3,2,1,60,0,0
83876,-250.000000000001,3,2,1,60,0,0
84503,-100,3,2,1,60,0,0
85130,-312.5,3,2,1,60,0,0
85756,-83.3333333333333,3,2,1,60,0,0
86070,-83.3333333333333,3,2,1,5,0,0
86174,-83.3333333333333,3,2,1,60,0,0
86279,-83.3333333333333,3,2,1,5,0,0
86383,-83.3333333333333,3,2,1,60,0,0
86696,-83.3333333333333,3,2,1,5,0,0
86801,-83.3333333333333,3,2,1,60,0,0
87010,-166.666666666667,3,2,1,60,0,0
87636,-83.3333333333333,3,2,1,60,0,0
87950,-83.3333333333333,3,2,1,5,0,0
88054,-83.3333333333333,3,2,1,60,0,0
88158,-83.3333333333333,3,2,1,5,0,0
88263,-111.111111111111,3,2,1,60,0,0
88889,-71.4285714285714,3,2,1,60,0,0
89516,-100,3,2,1,60,0,0
89621,-100,3,2,1,5,0,0
89725,-100,3,2,1,60,0,0
89829,-100,3,2,1,5,0,0
89934,-100,3,2,1,60,0,0
90038,-100,3,2,1,5,0,0
90143,-83.3333333333333,3,2,1,60,0,0
90456,-83.3333333333333,3,2,1,5,0,0
90561,-83.3333333333333,3,2,1,60,0,0
91083,-83.3333333333333,3,2,1,5,0,0
91187,-83.3333333333333,3,2,1,60,0,0
93276,-55.5555555555556,3,2,1,60,0,0
93589,-55.5555555555556,3,2,1,5,0,0
93694,-55.5555555555556,3,2,1,60,0,0
93798,-55.5555555555556,3,2,1,5,0,0
93903,-111.111111111111,3,2,1,60,0,0
94529,-250,3,2,1,60,0,0
95156,-125,3,2,1,60,0,0
95469,-125,3,2,1,5,0,0
95574,-125,3,2,1,60,0,0
95678,-125,3,2,1,5,0,0
95782,-250.000000000001,3,2,1,60,0,0
96409,-100,3,2,1,60,0,0
97036,-71.4285714285714,3,2,1,60,0,0
97349,-71.4285714285714,3,2,1,5,0,0
97453,-71.4285714285714,3,2,1,60,0,0
97558,-71.4285714285714,3,2,1,5,0,0
97662,-166.666666666667,3,2,1,60,0,0
97976,-166.666666666667,3,2,1,5,0,0
98080,-166.666666666667,3,2,1,60,0,0
98289,-100,3,2,1,60,0,0
98916,-125,3,2,1,60,0,0
99229,-125,3,2,1,5,0,0
99333,-125,3,2,1,60,0,0
100169,-250,3,2,1,60,0,0
100691,-250,3,2,1,5,0,0
100795,-50,3,2,1,60,0,0
101318,-50,3,2,1,5,0,0
101422,-333.333333333333,3,2,1,60,0,0
102571,-333.333333333333,3,2,1,5,0,0
102675,-55.5555555555556,3,2,1,60,0,0
103198,-55.5555555555556,3,2,1,5,0,0
103302,-400,3,2,1,60,0,0
103824,-333.333333333333,3,2,1,5,0,0
103929,-125,3,2,1,60,0,0
104242,-125,3,2,1,5,0,0
104346,-125,3,2,1,60,0,0
104555,-100,3,2,1,60,0,0
104660,-100,3,2,1,5,0,0
104764,-100,3,2,1,60,0,0
104869,-100,3,2,1,5,0,0
104973,-100,3,2,1,60,0,0
105077,-100,3,2,1,5,0,0
105182,-100,3,2,1,60,0,0
106435,-125,3,2,1,30,0,0
107062,-125,3,2,1,40,0,0
107688,-125,3,2,1,50,0,0
108002,-125,3,2,1,5,0,0
108106,-125,3,2,1,60,0,0
108211,-125,3,2,1,5,0,0
108315,-166.666666666667,3,2,1,50,0,0
108628,-166.666666666667,3,2,1,5,0,0
108733,-166.666666666667,3,2,1,40,0,0
109568,-166.666666666667,3,2,1,20,0,0
109986,-166.666666666667,3,2,1,30,0,0
110091,-166.666666666667,3,2,1,5,0,0
110195,-166.666666666667,3,2,1,35,0,0
111239,-166.666666666667,3,2,1,40,0,0
111344,-166.666666666667,3,2,1,5,0,0
111448,-100,3,2,1,40,0,0
111762,-100,3,2,1,5,0,0
111866,-125,3,2,1,30,0,0
111970,-125,3,2,1,5,0,0
112075,-62.5,3,2,1,65,0,0
112388,-62.5,3,2,1,5,0,0
112493,-62.5,3,2,1,65,0,0
113015,-62.5,3,2,1,5,0,0
113120,-62.5,3,2,1,65,0,0
113328,-125,3,2,1,65,0,0
113641,-125,3,2,1,5,0,0
113746,-125,3,2,1,65,0,0
114268,-125,3,2,1,5,0,0
114373,-125,3,2,1,65,0,0
116461,-166.666666666667,3,2,1,65,0,0
116775,-166.666666666667,3,2,1,5,0,0
116879,-100,3,2,1,65,0,0
116983,-100,3,2,1,65,0,0
117088,-100,3,2,1,65,0,0
118341,-83.3333333333333,3,2,1,65,0,0
118654,-83.3333333333333,3,2,1,5,0,0
118759,-125,3,2,1,65,0,0
118863,-125,3,2,1,65,0,0
118968,-100,3,2,1,65,0,0
119281,-100,3,2,1,5,0,0
119386,-100,3,2,1,65,0,0
120743,-100,3,2,1,65,0,0
120848,-100,3,2,1,65,0,0
121474,-83.3333333333333,3,2,1,65,0,0
121788,-83.3333333333333,3,2,1,5,0,0
121892,-83.3333333333333,3,2,1,65,0,0
121996,-83.3333333333333,3,2,1,65,0,0
122101,-83.3333333333333,3,2,1,65,0,0
123354,-71.4285714285714,3,2,1,65,0,0
123668,-71.4285714285714,3,2,1,5,0,0
123772,-166.666666666667,3,2,1,65,0,0
124816,-71.4285714285714,3,2,1,65,0,0
124920,-71.4285714285714,3,2,1,65,0,0
125025,-83.3333333333333,3,2,1,65,0,0
125129,-83.3333333333333,3,2,1,65,0,0
125234,-62.5,3,2,1,70,0,1
125547,-62.5,3,2,1,5,0,0
125652,-100,3,2,1,70,0,0
125756,-100,3,2,1,70,0,0
125861,-100,3,2,1,70,0,0
127741,-83.3333333333333,3,2,1,70,0,0
128994,-125,3,2,1,40,0,0
129307,-125,3,2,1,5,0,0
129412,-125,3,2,1,40,0,0
129621,-100,3,2,1,50,0,0
129934,-100,3,2,1,5,0,0
130038,-100,3,2,1,50,0,0
130247,-76.9230769230769,3,2,1,55,0,0
130874,-50,3,2,1,60,0,0
131187,-50,3,2,1,5,0,0
131291,-71.4285714285714,3,2,1,60,0,0
131396,-71.4285714285714,3,2,1,5,0,0
131500,-125,3,2,1,60,0,0
131814,-125,3,2,1,5,0,0
131918,-125,3,2,1,60,0,0
132127,-166.666666666667,3,2,1,60,0,0
132754,-83.3333333333333,3,2,1,60,0,0
133380,-125,3,2,1,60,0,0
134007,-500,3,2,1,60,0,0
134634,-62.5,3,2,1,60,0,0
134947,-71.4285714285714,3,2,1,5,0,0
135051,-71.4285714285714,3,2,1,60,0,0
135156,-71.4285714285714,3,2,1,5,0,0
135260,-166.666666666667,3,2,1,60,0,0
135887,-100,3,2,1,60,0,0
136513,-250.000000000001,3,2,1,60,0,0
137140,-100,3,2,1,60,0,0
137767,-312.5,3,2,1,60,0,0
138393,-83.3333333333333,3,2,1,60,0,0
138707,-83.3333333333333,3,2,1,5,0,0
138811,-83.3333333333333,3,2,1,60,0,0
138916,-83.3333333333333,3,2,1,5,0,0
139020,-83.3333333333333,3,2,1,60,0,0
139333,-83.3333333333333,3,2,1,5,0,0
139438,-83.3333333333333,3,2,1,60,0,0
139542,-83.3333333333333,3,2,1,5,0,0
139647,-166.666666666667,3,2,1,60,0,0
140273,-83.3333333333333,3,2,1,60,0,0
140587,-83.3333333333333,3,2,1,5,0,0
140691,-83.3333333333333,3,2,1,60,0,0
140795,-83.3333333333333,3,2,1,5,0,0
140900,-111.111111111111,3,2,1,60,0,0
141526,-71.4285714285714,3,2,1,60,0,0
142153,-62.5,3,2,1,60,0,0
142258,-62.5,3,2,1,5,0,0
142362,-62.5,3,2,1,60,0,0
142467,-62.5,3,2,1,5,0,0
142571,-62.5,3,2,1,60,0,0
142675,-62.5,3,2,1,5,0,0
142780,-83.3333333333333,3,2,1,60,0,0
143093,-83.3333333333333,3,2,1,5,0,0
143198,-83.3333333333333,3,2,1,60,0,0
143720,-83.3333333333333,3,2,1,5,0,0
143824,-83.3333333333333,3,2,1,60,0,0
145913,-55.5555555555556,3,2,1,60,0,0
146226,-55.5555555555556,3,2,1,5,0,0
146331,-55.5555555555556,3,2,1,60,0,0
146435,-55.5555555555556,3,2,1,5,0,0
146540,-111.111111111111,3,2,1,60,0,0
147166,-83.3333333333333,3,2,1,60,0,0
147793,-125,3,2,1,60,0,0
148106,-125,3,2,1,5,0,0
148211,-125,3,2,1,60,0,0
148419,-250.000000000001,3,2,1,60,0,0
149046,-100,3,2,1,60,0,0
149673,-71.4285714285714,3,2,1,60,0,0
149986,-71.4285714285714,3,2,1,5,0,0
150090,-71.4285714285714,3,2,1,60,0,0
150195,-71.4285714285714,3,2,1,60,0,0
150299,-166.666666666667,3,2,1,60,0,0
150613,-166.666666666667,3,2,1,5,0,0
150717,-166.666666666667,3,2,1,60,0,0
150926,-100,3,2,1,60,0,0
151553,-125,3,2,1,60,0,0
151866,-125,3,2,1,5,0,0
151970,-125,3,2,1,60,0,0
152806,-250,3,2,1,60,0,0
153328,-250,3,2,1,5,0,0
153432,-50,3,2,1,60,0,0
153955,-50,3,2,1,5,0,0
154059,-333.333333333333,3,2,1,60,0,0
155208,-333.333333333333,3,2,1,5,0,0
155312,-55.5555555555556,3,2,1,60,0,0
155835,-55.5555555555556,3,2,1,5,0,0
155939,-400,3,2,1,60,0,0
156461,-333.333333333333,3,2,1,5,0,0
156566,-125,3,2,1,60,0,0
156879,-125,3,2,1,5,0,0
156983,-125,3,2,1,60,0,0
157192,-100,3,2,1,60,0,0
157297,-100,3,2,1,5,0,0
157401,-100,3,2,1,60,0,0
157506,-100,3,2,1,5,0,0
157610,-100,3,2,1,60,0,0
157714,-100,3,2,1,5,0,0
157819,-100,3,2,1,60,0,0
159072,-125,3,2,1,30,0,0
159699,-125,3,2,1,40,0,0
160325,-125,3,2,1,50,0,0
160639,-125,3,2,1,5,0,0
160743,-125,3,2,1,60,0,0
160848,-125,3,2,1,5,0,0
160952,-166.666666666667,3,2,1,50,0,0
161265,-166.666666666667,3,2,1,5,0,0
161370,-166.666666666667,3,2,1,40,0,0
162205,-166.666666666667,3,2,1,20,0,0
162623,-166.666666666667,3,2,1,30,0,0
162728,-166.666666666667,3,2,1,5,0,0
162832,-166.666666666667,3,2,1,35,0,0
163876,-166.666666666667,3,2,1,40,0,0
163981,-166.666666666667,3,2,1,5,0,0
164085,-100,3,2,1,35,0,0
164399,-100,3,2,1,5,0,0
164503,-125,3,2,1,35,0,0
164607,-125,3,2,1,5,0,0
164712,-62.5,3,2,1,45,0,0
165025,-62.5,3,2,1,5,0,0
165130,-62.5,3,2,1,45,0,0
165234,-62.5,3,2,1,5,0,0
165339,-166.666666666667,3,2,1,45,0,0
165652,-166.666666666667,3,2,1,5,0,0
165756,-166.666666666667,3,2,1,45,0,0
165965,-125,3,2,1,45,0,0
166279,-125,3,2,1,5,0,0
166383,-125,3,2,1,45,0,0
166592,-83.3333333333333,3,2,1,45,0,0
167114,-83.3333333333333,3,2,1,5,0,0
167218,-166.666666666667,3,2,1,45,0,0
167741,-166.666666666667,3,2,1,5,0,0
167845,-250.000000000001,3,2,1,45,0,0
168367,-250.000000000001,3,2,1,5,0,0
168472,-333.333333333333,3,2,1,45,0,0
168785,-333.333333333333,3,2,1,5,0,0
168889,-333.333333333333,3,2,1,45,0,0
169098,-125,3,2,1,45,0,0
169725,-100,3,2,1,45,0,0
170247,-100,3,2,1,5,0,0
170352,-100,3,2,1,45,0,0
170665,-100,3,2,1,5,0,0
170769,-100,3,2,1,45,0,0
170978,-166.666666666667,3,2,1,45,0,0
171605,-100,3,2,1,45,0,0
172127,-100,3,2,1,5,0,0
172232,-125,3,2,1,45,0,0
172545,-125,3,2,1,5,0,0
172649,-125,3,2,1,45,0,0
172858,-250,3,2,1,45,0,0
174111,-83.3333333333333,3,2,1,45,0,0
174738,-71.4285714285714,3,2,1,45,0,0
175051,-71.4285714285714,3,2,1,5,0,0
175156,-71.4285714285714,3,2,1,45,0,0
175365,-100,3,2,1,45,0,0
175678,-100,3,2,1,5,0,0
175782,-83.3333333333333,3,2,1,45,0,0
176618,-166.666666666667,3,2,1,45,0,0
177245,-100,3,2,1,45,0,0
178498,-166.666666666667,3,2,1,45,0,0
179751,-250,3,2,1,45,0,0
180064,-250,3,2,1,5,0,0
180169,-250,3,2,1,45,0,0
180378,-166.666666666667,3,2,1,45,0,0
181004,-125,3,2,1,45,0,0
181631,-100,3,2,1,45,0,0
182258,-83.3333333333333,3,2,1,45,0,0
182571,-83.3333333333333,3,2,1,5,0,0
182675,-83.3333333333333,3,2,1,45,0,0
182884,-71.4285714285714,3,2,1,45,0,0
183511,-62.5,3,2,1,45,0,0
183824,-62.5,3,2,1,5,0,0
183929,-62.5,3,2,1,45,0,0
184033,-62.5,3,2,1,5,0,0
184138,-166.666666666667,3,2,1,45,0,0
184764,-250,3,2,1,45,0,0
185495,636.604774535809,4,2,1,30,1,0
185495,-111.111111111111,4,2,1,30,0,0
186131,-111.111111111111,4,2,1,25,0,0
186768,-111.111111111111,4,2,1,20,0,0
187404,-111.111111111111,4,2,1,15,0,0
188041,-111.111111111111,4,2,1,10,0,0
189314,-111.111111111111,4,2,1,5,0,0
190587,626.631853785901,3,2,1,40,1,0
190587,-125,3,2,1,40,0,0
190900,-125,3,2,1,5,0,0
191004,-125,3,2,1,40,0,0
191213,-250,3,2,1,40,0,0
191735,-250,3,2,1,5,0,0
191840,-100,3,2,1,40,0,0
192466,-83.3333333333333,3,2,1,40,0,0
192780,-83.3333333333333,3,2,1,5,0,0
192884,-83.3333333333333,3,2,1,40,0,0
193093,-166.666666666667,3,2,1,40,0,0
193720,-125,3,2,1,40,0,0
194346,-71.4285714285714,3,2,1,40,0,0
194660,-71.4285714285714,3,2,1,5,0,0
194764,-71.4285714285714,3,2,1,40,0,0
194973,-100,3,2,1,40,0,0
195286,-100,3,2,1,5,0,0
195391,-100,3,2,1,40,0,0
195600,-125,3,2,1,40,0,0
195913,-125,3,2,1,5,0,0
196017,-125,3,2,1,40,0,0
196226,-83.3333333333333,3,2,1,40,0,0
196540,-83.3333333333333,3,2,1,5,0,0
196644,-83.3333333333333,3,2,1,40,0,0
196853,-125,3,2,1,40,0,0
197166,-125,3,2,1,5,0,0
197271,-125,3,2,1,40,0,0
197479,681.818181818182,3,2,1,40,1,0
198160,641.711229946524,3,2,1,40,1,0
198480,-100,3,2,1,5,0,0
198587,-100,3,2,1,40,0,0
198801,-250,3,2,1,40,0,0
199122,-250,3,2,1,5,0,0
199229,-250,3,2,1,40,0,0
199443,779.220779220779,3,2,1,35,1,0
199443,-166.666666666667,3,2,1,35,0,0
199832,-166.666666666667,3,2,1,5,0,0
199961,1052.63157894737,3,2,1,30,1,0
200136,-100,3,2,1,5,0,0
200311,1875,3,2,1,25,1,0
200623,-100,3,2,1,25,0,0
205936,-100,3,2,1,5,0,0

[Colours]
Combo1 : 252,158,224
Combo2 : 226,225,224
Combo3 : 121,184,253
Combo4 : 214,56,112

[HitObjects]
10,141,536,5,2,0:0:0:0:
103,0,849,1,0,0:0:0:0:
141,182,1162,5,0,0:0:0:0:
106,11,1475,1,0,0:0:0:0:
0,150,1789,5,2,0:0:0:0:
150,191,2102,1,0,0:0:0:0:
262,287,2415,5,2,0:0:0:0:
360,172,2729,1,0,0:0:0:0:
377,279,3042,5,0,0:0:0:0:
257,300,3355,1,0,0:0:0:0:
203,358,3669,1,0,0:0:0:0:
197,384,3982,1,0,0:0:0:0:
512,330,4295,5,2,0:0:0:0:
46,263,6175,5,2,0:0:0:0:
407,155,6802,1,2,0:0:0:0:
256,192,7011,12,2,8368,0:0:0:0:
347,244,9934,5,8,0:3:0:0:
362,257,10143,1,4,0:3:0:0:
372,274,10352,1,4,0:3:0:0:
465,315,10561,6,0,P|385:305|305:301,1,160,6|2,1:2|0:0,0:0:0:0:
162,199,11187,6,0,P|199:210|223:242,1,80,2|0,0:3|0:0,0:0:0:0:
212,257,11605,1,2,0:0:0:0:
0,203,11814,6,0,P|75:178|128:119,1,160,0|0,3:0|1:0,0:0:0:0:
34,28,12440,6,0,L|35:47,1,20,2|0,3:2|0:0,0:0:0:0:
34,28,13067,6,0,L|273:48,1,240,2|0,0:0|3:0,0:0:0:0:
176,62,13903,2,0,P|142:82|128:119,1,80,0|0,3:0|3:0,0:0:0:0:
3,213,14320,6,0,L|162:199,1,160,6|2,1:2|0:0,0:0:0:0:
321,204,14947,6,0,P|287:183|273:147,1,80,2|0,0:3|0:0,0:0:0:0:
283,138,15365,1,2,0:0:0:0:
204,279,15574,6,0,L|206:299,1,20,2|0,1:2|0:0,0:0:0:0:
371,274,15991,6,0,P|356:286|349:304,1,40,0|0,3:0|0:0,0:0:0:0:
380,383,16200,2,0,P|305:293|191:264,2,240,2|0|2,3:2|3:0|3:2,0:0:0:0:
509,135,18080,6,0,P|464:129|442:168,1,95.9999970703126,6|2,1:2|0:0,0:0:0:0:
343,6,18707,6,0,P|355:26|355:50,1,47.9999985351563,10|0,0:0|0:0,0:0:0:0:
205,133,19124,1,2,0:0:0:0:
214,142,19751,6,0,P|221:151|223:163,1,23.9999992675781,2|0,1:2|0:0,0:0:0:0:
179,266,19960,6,0,P|241:198|334:201,1,191.999994140625,2|0,1:2|0:0,0:0:0:0:
418,101,20587,6,0,B|421:76|395:55|395:55|404:74|396:98,1,95.9999970703126,2|0,0:3|0:0,0:0:0:0:
129,119,21213,6,0,L|224:127,1,95.9999970703126,2|2,0:0|0:0,0:0:0:0:
334,201,21631,1,2,0:0:0:0:
457,12,21840,6,0,B|351:1|380:62|274:49,1,191.999994140625,2|0,1:2|3:0,0:0:0:0:
26,59,22467,6,0,P|24:33|46:47,1,64,10|0,0:0|0:0,0:0:0:0:
128,119,23093,2,0,P|95:132|76:161,1,71.9999978027344,2|0,0:0|0:0,0:0:0:0:
0,233,23511,5,2,1:2:0:0:
6,240,23615,1,2,0:0:0:0:
12,246,23720,2,0,P|130:229|250:224,1,240,2|2,1:2|0:3,0:0:0:0:
392,81,24764,1,2,0:0:0:0:
224,127,24973,6,0,B|224:181|284:192|284:192|294:160|323:148,1,160,2|0,0:0|0:0,0:0:0:0:
426,247,25600,2,0,P|398:219|360:212,1,79.1999997583008,2|0,1:2|0:0,0:0:0:0:
273,48,26017,1,2,0:0:0:0:
512,126,26226,6,0,P|473:136|449:166,1,80,8|2,0:0|0:0,0:0:0:0:
482,345,26853,6,0,P|436:283|360:289,1,160,2|0,0:0|1:0,0:0:0:0:
123,344,27480,6,0,L|218:352,1,95.9999970703126,2|0,1:2|0:0,0:0:0:0:
289,197,28106,2,0,L|161:208,1,128,2|0,0:3|0:0,0:0:0:0:
27,60,28733,2,0,L|181:18,1,160,2|2,0:0|0:0,0:0:0:0:
82,126,29359,6,0,L|76:161,1,35.9999989013672,2|0,1:2|0:0,0:0:0:0:
205,9,29777,1,2,3:2:0:0:
182,18,29986,5,8,0:0:0:0:
202,34,30404,5,2,0:0:0:0:
231,111,30613,5,2,0:0:0:0:
333,137,30822,1,2,0:0:0:0:
395,55,31030,1,2,1:2:0:0:
512,0,31239,5,2,1:2:0:0:
467,129,31448,1,2,0:0:0:0:
390,60,31657,2,0,P|363:45|331:42,1,64,2|2,0:0|0:3,0:0:0:0:
366,182,32493,6,0,P|358:159|342:141,2,47.9999985351563,2|0|0,3:2|3:0|3:0,0:0:0:0:
290,345,33119,6,0,P|255:346|219:354,1,71.9999978027344,2|0,1:2|0:0,0:0:0:0:
84,173,33537,2,0,L|75:125,1,47.9999985351563,2|0,0:0|0:0,0:0:0:0:
95,106,33746,5,8,0:0:0:0:
57,345,34164,5,2,0:0:0:0:
0,250,34373,2,0,P|45:240|83:267,1,95.9999970703126,2|2,0:0|1:2,0:0:0:0:
261,143,34999,6,0,L|333:137,1,71.9999978027344,2|0,1:2|0:0,0:0:0:0:
402,64,35417,1,2,0:0:0:0:
395,54,35626,6,0,P|452:62|479:113,1,119.999996337891,2|0,0:3|0:0,0:0:0:0:
420,232,36252,2,0,P|362:216|303:209,1,119.999996337891,2|0,0:0|0:0,0:0:0:0:
76,126,36879,6,0,L|147:118,1,71.9999978027344,2|0,1:2|0:0,0:0:0:0:
330,29,37297,1,2,3:2:0:0:
319,38,37506,5,8,0:0:0:0:
333,44,37923,5,2,0:0:0:0:
459,120,38132,6,0,P|425:152|410:198,1,95.9999970703126,2|0,0:0|1:0,0:0:0:0:
466,353,38759,6,0,P|330:317|200:373,1,287.999991210938,2|2,1:2|0:3,0:0:0:0:
29,322,40012,2,0,P|17:255|84:268,1,160,2|0,0:0|0:0,0:0:0:0:
116,384,40639,6,0,P|131:338|158:298,1,96,2|0,1:2|0:0,0:0:0:0:
261,143,41057,2,0,P|249:131|245:116,1,32,2|0,0:0|0:0,0:0:0:0:
151,221,41265,6,0,P|182:222|209:239,1,64,8|2,0:0|0:0,0:0:0:0:
224,50,41892,6,0,B|191:9|138:29|138:29|170:32|192:63,1,160,2|2,0:0|1:2,0:0:0:0:
28,172,42519,6,0,P|70:129|125:109,1,120,2|0,1:2|0:0,0:0:0:0:
323,95,42936,2,0,P|334:65|357:44,1,64,2|2,0:0|0:3,0:0:0:0:
511,202,43772,6,0,P|412:200|321:238,1,200,2|0,0:0|0:0,0:0:0:0:
150,221,44399,6,0,P|168:288|232:314,1,143.999995605469,2|0,1:2|0:0,0:0:0:0:
419,115,44816,1,2,3:2:0:0:
376,45,45025,5,8,0:0:0:0:
245,116,45652,5,2,3:2:0:0:
325,114,45861,1,0,3:0:0:0:
373,179,46070,1,0,3:0:0:0:
245,309,46279,6,0,L|243:320,1,11.9999996337891,2|0,1:2|0:0,0:0:0:0:
299,372,46905,6,0,P|253:276|166:214,1,215.999993408203,6|0,0:0|0:0,0:0:0:0:
49,98,47323,6,0,P|43:88|42:77,1,23.9999992675781,8|0,0:3|0:0,0:0:0:0:
191,61,47532,6,0,P|151:84|150:130,1,96,4|0,0:3|0:0,0:0:0:0:
272,144,47950,6,0,P|257:147|243:156,1,32,4|0,0:3|0:0,0:0:0:0:
383,308,48158,6,0,P|402:216|464:143,1,192,6|0,1:2|0:0,0:0:0:0:
488,136,48576,2,0,B|483:104|483:104|459:83,1,64,2|0,0:0|0:0,0:0:0:0:
259,18,48785,6,0,L|131:6,1,128,10|2,0:0|0:3,0:0:0:0:
149,129,49412,5,2,0:0:0:0:
294,219,49621,1,2,0:0:0:0:
266,320,49829,1,2,1:2:0:0:
181,250,50038,6,0,P|94:210|0:202,1,191.999994140625,2|0,1:2|0:0,0:0:0:0:
155,355,50665,6,0,P|208:326|267:321,1,120,10|0,0:0|0:0,0:0:0:0:
416,141,51083,1,2,0:0:0:0:
267,321,51292,5,2,0:0:0:0:
383,309,51500,1,2,0:0:0:0:
434,221,51709,1,2,0:0:0:0:
259,18,51918,6,0,P|259:113|297:201,1,191.999994140625,2|2,1:2|3:2,0:0:0:0:
368,129,52545,6,0,P|376:107|397:95,1,47.9999985351563,10|2,0:0|0:0,0:0:0:0:
434,221,52963,5,2,0:0:0:0:
205,247,53171,6,0,L|181:250,1,23.9999992675781,2|0,0:0|0:0,0:0:0:0:
2,331,53485,5,2,0:0:0:0:
0,341,53589,1,2,1:2:0:0:
3,350,53694,1,2,0:0:0:0:
6,355,53798,2,0,P|67:341|125:365,1,128,2|0,1:2|0:0,0:0:0:0:
283,228,54425,6,0,L|223:222,1,60,10|0,0:0|0:0,0:0:0:0:
215,234,54842,1,2,0:0:0:0:
22,140,55051,6,0,L|105:132,1,83.9999974365235,2|0,0:0|0:0,0:0:0:0:
114,144,55469,1,2,0:0:0:0:
243,76,55678,6,0,L|239:111,1,35.9999989013672,2|0,1:2|0:0,0:0:0:0:
42,30,56096,2,0,L|41:19,1,11.9999996337891,2|0,0:0|0:0,0:0:0:0:
120,131,56305,6,0,L|327:149,1,207.999990478516,10|2,0:0|0:3,0:0:0:0:
512,66,56931,6,0,P|508:90|486:103,1,51.999997619629,2|2,0:0|0:0,0:0:0:0:
327,149,57349,5,0,1:2:0:0:
510,223,57558,6,0,P|466:130|384:68,1,207.999990478516,2|0,1:2|0:0,0:0:0:0:
327,149,58185,6,0,P|386:172|429:218,1,128,10|0,0:0|0:0,0:0:0:0:
359,259,58811,6,0,P|330:248|298:245,1,64,2|0,0:0|0:0,0:0:0:0:
309,343,59438,6,0,P|319:337|331:336,1,24,2|0,1:2|0:0,0:0:0:0:
396,156,59856,1,2,3:2:0:0:
489,9,60064,6,0,P|465:48|474:94,1,95.9999970703126,8|2,0:0|0:0,0:0:0:0:
313,54,60691,5,2,0:0:0:0:
396,156,60900,1,2,0:0:0:0:
499,7,61109,1,2,1:2:0:0:
387,79,61318,5,2,1:2:0:0:
132,6,61527,1,2,0:0:0:0:
114,144,61735,1,2,0:0:0:0:
63,76,61944,6,0,P|35:63|3:67,1,64,10|2,0:0|0:0,0:0:0:0:
158,79,62571,6,0,P|151:39|131:5,2,80,2|0|0,3:2|3:0|3:0,0:0:0:0:
134,253,63198,6,0,P|94:180|22:140,1,167.999994873047,2|0,1:2|0:0,0:0:0:0:
231,143,63615,6,0,P|206:153|188:174,1,55.9999982910157,2|0,0:0|0:0,0:0:0:0:
61,270,63824,6,0,P|31:259|0:263,1,64,8|2,0:0|0:3,0:0:0:0:
111,331,64451,5,2,0:0:0:0:
228,261,64660,1,2,0:0:0:0:
309,343,64869,1,2,1:2:0:0:
430,296,65077,6,0,L|510:290,1,80,2|0,1:2|0:0,0:0:0:0:
387,364,65495,1,0,0:0:0:0:
465,219,65704,6,0,L|369:210,1,95.9999970703126,10|0,0:0|0:0,0:0:0:0:
233,121,66331,6,0,L|387:78,1,160,2|0,0:0|0:0,0:0:0:0:
510,10,66957,6,0,L|486:103,1,96,6|0,1:2|0:0,0:0:0:0:
370,210,67375,6,0,L|359:171,1,40,6|0,0:0|0:0,0:0:0:0:
387,78,67584,5,8,0:0:0:0:
503,243,68002,6,0,P|458:258|430:296,1,96,6|0,0:0|0:0,0:0:0:0:
387,364,68420,6,0,P|368:351|357:329,1,47.9999985351563,6|0,0:0|0:0,0:0:0:0:
284,187,68628,6,0,P|280:218|261:243,1,64,6|0,1:2|0:0,0:0:0:0:
0,251,68837,6,0,P|155:275|270:384,1,320,6|0,1:2|0:0,0:0:0:0:
120,355,69464,6,0,P|89:355|61:371,1,64,8|2,0:0|0:0,0:0:0:0:
156,177,70091,6,0,P|77:124|47:35,1,191.999994140625,2|0,0:0|0:0,0:0:0:0:
198,23,70717,6,0,P|171:46|158:78,1,71.9999978027344,2|0,1:2|0:0,0:0:0:0:
250,210,71135,1,2,0:0:0:0:
237,95,71344,6,0,P|251:101|262:113,1,32,8|2,0:0|0:3,0:0:0:0:
250,210,71970,6,0,P|320:174|398:181,1,160,2|0,0:0|1:0,0:0:0:0:
480,122,72597,6,0,P|452:17|366:84,1,256,2|0,1:2|0:0,0:0:0:0:
315,340,73850,6,0,P|331:262|391:314,1,191.999994140625,2|0,0:0|0:0,0:0:0:0:
248,384,74477,6,0,P|201:349|142:336,1,120,2|0,1:2|0:0,0:0:0:0:
10,217,74895,2,0,L|0:178,1,40,2|0,3:2|0:0,0:0:0:0:
16,149,75104,5,8,0:0:0:0:
170,212,75521,5,2,0:0:0:0:
80,248,75730,5,2,3:2:0:0:
86,257,75939,1,0,3:0:0:0:
91,268,76148,1,0,3:0:0:0:
237,95,76357,6,0,P|243:80|255:69,1,32,2|0,1:2|0:0,0:0:0:0:
398,180,76983,6,0,P|353:195|323:231,1,96,10|0,0:0|0:0,0:0:0:0:
248,194,77401,6,0,L|242:174,1,20,8|0,0:3|0:0,0:0:0:0:
216,308,77610,6,0,P|275:309|323:344,1,119.999996337891,4|2,0:3|0:0,0:0:0:0:
397,179,78237,6,0,P|297:118|257:8,1,240,6|0,1:2|0:0,0:0:0:0:
409,53,78654,2,0,P|391:74|365:83,1,55.9999982910157,2|0,0:0|0:0,0:0:0:0:
171,46,78863,6,0,P|129:24|81:24,1,95.9999970703126,8|0,0:0|0:0,0:0:0:0:
70,38,79281,1,2,0:0:0:0:
104,122,79490,6,0,P|57:123|16:147,1,95.9999970703126,2|0,0:0|1:2,0:0:0:0:
84,218,80117,6,0,L|275:234,1,191.999994140625,2|2,1:2|0:3,0:0:0:0:
169,302,80743,2,0,L|41:312,1,128,10|0,0:0|0:0,0:0:0:0:
105,379,81370,2,0,L|168:384,1,64,2|0,0:0|0:0,0:0:0:0:
328,300,81997,6,0,B|361:277|363:240|363:240|393:285|349:326,1,167.999994873047,2|0,1:2|0:0,0:0:0:0:
169,302,82414,2,0,L|113:297,1,55.9999982910157,2|0,0:0|0:0,0:0:0:0:
32,200,82623,6,0,B|27:152|27:152|66:180,1,95.9999970703126,8|2,0:0|0:3,0:0:0:0:
13,283,83250,6,0,L|173:297,1,160,2|0,0:0|1:2,0:0:0:0:
328,300,83876,2,0,B|302:320|302:320|293:349,1,64,2|0,1:2|0:0,0:0:0:0:
509,311,84503,6,0,L|349:324,1,160,10|2,0:0|0:0,0:0:0:0:
240,184,85130,2,0,B|249:214|249:214|275:234,1,64,2|2,0:0|0:0,0:0:0:0:
461,199,85756,6,0,L|322:162,1,143.999995605469,2|0,1:2|0:0,0:0:0:0:
170,46,86174,2,0,P|167:69|180:88,1,47.9999985351563,2|0,0:0|0:0,0:0:0:0:
355,15,86383,6,0,P|425:12|488:46,1,143.999995605469,10|0,0:0|0:0,0:0:0:0:
492,65,86801,1,2,0:0:0:0:
322,131,87010,6,0,P|360:102|406:93,1,95.9999970703126,2|0,0:0|1:2,0:0:0:0:
461,199,87636,6,0,B|495:185|449:159|451:156|398:205|426:257,1,143.999995605469,2|0,1:2|0:0,0:0:0:0:
338,368,88054,2,0,P|351:348|349:324,1,47.9999985351563,2|0,0:0|0:0,0:0:0:0:
209,247,88263,6,0,B|237:217|230:181|230:181|237:217|275:233,1,143.999995605469,10|2,0:0|0:0,0:0:0:0:
257,319,88889,6,0,P|138:252|4:282,1,279.999991455078,2|2,0:0|0:0,0:0:0:0:
139,332,89516,6,0,P|154:344|164:362,1,40,2|0,1:2|0:0,0:0:0:0:
349,324,89725,6,0,P|352:304|362:287,1,40,2|0,0:0|0:0,0:0:0:0:
191,150,89934,6,0,P|200:167|216:179,1,40,2|0,3:2|0:0,0:0:0:0:
438,127,90143,6,0,P|368:119|309:158,1,143.999995605469,10|0,0:0|0:0,0:0:0:0:
313,174,90561,1,2,0:0:0:0:
170,46,90769,6,0,P|237:68|303:43,1,143.999995605469,2|0,0:0|0:0,0:0:0:0:
306,30,91187,1,2,1:2:0:0:
107,0,91396,5,2,1:2:0:0:
94,31,91605,1,2,0:0:0:0:
95,65,91814,1,2,0:0:0:0:
113,230,92023,5,10,0:0:0:0:
159,249,92232,1,2,0:0:0:0:
209,247,92441,1,2,0:0:0:0:
369,311,92649,5,2,3:2:0:0:
432,268,92858,1,2,3:2:0:0:
462,196,93067,2,0,P|462:173|457:149,1,47.9999985351563,2|2,3:2|0:0,0:0:0:0:
242,68,93276,6,0,B|201:50|187:0|304:-29|312:91|273:130,1,215.999993408203,6|0,1:2|0:0,0:0:0:0:
112,229,93694,2,0,P|81:213|45:210,1,71.9999978027344,2|0,0:0|0:0,0:0:0:0:
186,291,93903,6,0,P|239:244|308:228,1,143.999995605469,8|2,0:0|0:0,0:0:0:0:
282,313,94529,2,0,P|260:336|250:366,1,64,2|0,0:0|1:2,0:0:0:0:
394,339,95156,6,0,L|489:330,1,96,2|0,1:2|0:0,0:0:0:0:
492,171,95574,2,0,L|512:146,1,32,2|0,0:0|0:0,0:0:0:0:
382,180,95782,6,0,L|398:241,1,64,10|0,0:0|0:0,0:0:0:0:
273,129,96409,2,0,P|283:46|355:89,1,200,2|2,0:0|0:0,0:0:0:0:
308,227,97036,6,0,P|229:203|146:214,1,167.999994873047,2|0,1:2|0:0,0:0:0:0:
23,131,97453,6,0,P|5:109|0:82,1,55.9999982910157,2|0,0:0|0:0,0:0:0:0:
134,7,97662,6,0,P|107:31|94:64,1,71.9999978027344,10|0,0:0|0:0,0:0:0:0:
98,77,98080,1,2,0:0:0:0:
0,234,98289,2,0,P|63:281|88:356,1,160,2|2,0:0|1:2,0:0:0:0:
224,315,98916,6,0,P|271:315|315:334,1,96,2|0,1:2|0:0,0:0:0:0:
476,299,99333,1,2,0:0:0:0:
314,347,99542,2,0,P|369:375|431:363,1,128,10|2,0:0|0:0,0:0:0:0:
476,299,100169,6,0,B|509:279|509:279|497:317,1,80,2|0,0:0|0:0,0:0:0:0:
343,248,100795,6,0,B|314:49|314:49|470:172,1,400,6|0,1:2|0:0,0:0:0:0:
470,172,101422,2,0,L|408:208,1,71.9999978027344,10|0,1:2|3:0,0:0:0:0:
248,237,102467,6,0,L|244:248,1,11.9999996337891,2|0,0:0|0:0,0:0:0:0:
216,167,102675,6,0,B|144:0|144:0|309:71,1,359.999989013672,6|0,1:2|0:0,0:0:0:0:
307,70,103302,2,0,L|271:104,1,50,10|0,1:2|0:0,0:0:0:0:
97,76,103929,6,0,P|55:55|9:63,1,96,2|0,3:2|0:0,0:0:0:0:
2,73,104346,1,2,0:0:0:0:
42,147,104555,6,0,P|52:163|56:183,1,40,2|0,1:2|0:0,0:0:0:0:
76,199,104764,2,0,P|71:218|60:235,1,40,2|0,0:0|0:0,0:0:0:0:
63,267,104973,2,0,P|49:281|31:290,1,40,2|0,3:2|0:0,0:0:0:0:
139,171,105182,6,0,P|217:158|293:178,1,160,10|2,0:0|0:3,0:0:0:0:
466,58,105809,5,2,3:2:0:0:
457,67,106017,1,0,3:0:0:0:
451,80,106226,1,0,3:0:0:0:
292,187,106435,6,0,P|314:209|323:239,1,64,2|2,1:2|0:0,0:0:0:0:
316,251,106853,1,2,0:0:0:0:
287,290,107062,1,2,0:0:0:0:
296,350,107271,1,2,0:0:0:0:
357,384,107480,1,2,0:0:0:0:
427,350,107688,6,0,P|474:354|512:384,1,96,2|0,0:0|0:0,0:0:0:0:
460,344,108106,2,0,P|444:341|428:342,1,32,2|0,0:0|0:0,0:0:0:0:
287,290,108315,2,0,P|254:300|229:327,1,71.9999978027344,2|0,0:0|0:0,0:0:0:0:
228,339,108733,1,2,0:0:0:0:
228,339,109568,5,2,0:0:0:0:
143,384,109986,6,0,P|133:376|131:364,1,23.9999992675781,2|0,0:0|0:0,0:0:0:0:
163,265,110195,2,0,P|196:202|215:133,1,143.999995605469,2|0,0:0|0:0,0:0:0:0:
101,23,111239,6,0,P|104:34|113:43,1,23.9999992675781,8|0,0:3|0:0,0:0:0:0:
201,39,111448,6,0,P|259:46|300:88,1,120,4|0,0:3|0:0,0:0:0:0:
399,19,111866,6,0,P|385:27|377:41,1,32,4|0,0:3|0:0,0:0:0:0:
292,186,112075,6,0,P|385:175|471:215,1,192,6|0,1:2|0:0,0:0:0:0:
475,232,112493,1,2,3:2:0:0:
215,133,112701,6,0,P|122:122|36:162,1,192,10|0,0:0|0:0,0:0:0:0:
32,179,113119,1,2,0:0:0:0:
120,209,113328,6,0,P|165:223|198:256,1,96,2|0,0:0|0:0,0:0:0:0:
199,270,113746,1,2,3:2:0:0:
386,258,113955,6,0,P|340:271|307:304,1,96,2|0,1:2|0:0,0:0:0:0:
307,318,114373,1,2,0:0:0:0:
415,384,114581,5,10,0:0:0:0:
415,359,114790,1,2,0:0:0:0:
446,328,114999,1,2,3:2:0:0:
509,268,115208,6,0,P|528:208|513:147,1,128,2|2,0:0|3:2,0:0:0:0:
386,258,115730,5,2,0:0:0:0:
388,264,115835,1,2,1:2:0:0:
448,82,116044,5,2,0:0:0:0:
366,152,116252,5,0,3:0:0:0:
130,21,116461,6,0,B|165:16|165:16|169:24|169:24|195:34,1,71.9999978027344,10|0,0:0|0:0,0:0:0:0:
201,39,116879,6,0,P|220:36|236:25,1,40,10|0,0:3|0:0,0:0:0:0:
300,88,117088,1,6,0:3:0:0:
292,186,117297,5,2,0:0:0:0:
366,152,117506,1,2,0:0:0:0:
376,49,117715,2,0,P|435:14|448:81,1,160,2|0,1:2|3:0,0:0:0:0:
388,263,118341,6,0,P|421:202|488:178,1,143.999995605469,10|0,0:0|0:0,0:0:0:0:
479,269,118759,6,0,P|477:285|483:299,1,32,2|0,0:0|0:0,0:0:0:0:
405,382,118968,6,0,P|365:339|308:324,1,120,2|0,0:0|0:0,0:0:0:0:
120,209,119386,1,2,3:2:0:0:
236,287,119594,5,2,1:2:0:0:
228,297,119699,1,2,0:0:0:0:
226,311,119803,2,0,P|147:299|68:297,1,160,2|8,0:0|0:0,0:0:0:0:
37,144,120639,6,0,P|55:137|70:125,1,40,2|0,0:0|0:0,0:0:0:0:
74,112,120848,1,0,3:0:0:0:
71,98,121057,1,0,3:0:0:0:
61,107,121265,1,2,3:2:0:0:
161,51,121474,6,0,P|224:18|294:3,1,143.999995605469,2|0,1:2|0:0,0:0:0:0:
300,88,121892,2,0,P|322:97|345:98,1,47.9999985351563,2|0,3:2|0:0,0:0:0:0:
493,3,122101,5,10,0:0:0:0:
463,18,122310,1,2,0:0:0:0:
438,54,122519,1,2,0:0:0:0:
488,178,122728,5,2,0:0:0:0:
500,279,122936,1,2,0:0:0:0:
406,383,123145,1,2,3:2:0:0:
221,303,123354,6,0,P|292:262|375:261,1,167.999994873047,2|0,1:2|0:0,0:0:0:0:
318,337,123772,2,0,P|301:354|292:376,1,47.9999985351563,2|8,3:2|0:0,0:0:0:0:
296,384,124399,1,0,3:0:0:0:
27,263,124816,6,0,P|52:274|67:297,1,55.9999982910157,2|0,0:0|0:0,0:0:0:0:
65,312,125025,6,0,P|61:335|44:352,1,47.9999985351563,2|0,0:0|0:0,0:0:0:0:
141,192,125234,6,0,P|213:128|299:88,1,192,6|0,1:2|0:0,0:0:0:0:
438,53,125652,2,0,P|434:34|423:17,1,40,2|0,0:0|0:0,0:0:0:0:
331,177,125861,6,0,P|409:163|487:177,1,160,10|0,0:0|0:0,0:0:0:0:
376,261,126487,5,2,3:2:0:0:
357,275,126696,1,2,3:2:0:0:
344,294,126905,1,2,3:2:0:0:
406,383,127114,5,2,1:3:0:0:
493,186,127323,5,2,0:0:0:0:
160,50,127741,6,0,P|83:61|134:120,1,191.999994140625,10|0,0:0|3:0,0:0:0:0:
292,81,128367,5,0,3:0:0:0:
311,77,128576,1,0,3:0:0:0:
328,69,128785,1,0,3:0:0:0:
437,53,128994,6,0,P|408:90|399:136,1,96,2|0,1:2|0:0,0:0:0:0:
406,147,129412,1,8,0:3:0:0:
222,126,129621,6,0,P|243:181|288:220,1,120,6|0,0:3|0:0,0:0:0:0:
303,218,130038,1,0,3:0:0:0:
88,256,130247,6,0,P|187:339|308:384,1,259.999988098145,2|2,0:0|0:0,0:0:0:0:
382,298,130874,6,0,P|321:196|311:78,1,240,6|0,1:2|0:0,0:0:0:0:
437,53,131292,2,0,P|427:78|406:97,1,55.9999982910157,2|0,0:0|0:0,0:0:0:0:
221,125,131500,6,0,P|198:84|160:56,1,96,8|0,0:0|0:0,0:0:0:0:
145,59,131918,1,2,0:0:0:0:
32,182,132127,6,0,P|73:157|121:153,1,95.9999970703126,2|0,0:0|1:2,0:0:0:0:
116,383,132754,6,0,P|129:290|192:218,1,191.999994140625,2|2,1:2|0:3,0:0:0:0:
196,335,133380,2,0,P|231:283|289:261,1,128,10|0,0:0|0:0,0:0:0:0:
280,344,134007,2,0,P|299:342|316:351,1,40,2|2,0:0|0:0,0:0:0:0:
427,317,134634,6,0,B|339:287|402:208|307:181,1,192,2|0,1:2|0:0,0:0:0:0:
206,66,135051,2,0,P|214:40|232:19,1,55.9999982910157,2|0,0:0|0:0,0:0:0:0:
311,108,135260,6,0,B|328:63|328:63|284:80,1,95.9999970703126,8|2,0:0|0:3,0:0:0:0:
298,185,135887,6,0,P|223:160|144:162,1,160,2|0,0:0|1:2,0:0:0:0:
0,253,136514,2,0,B|31:261|31:261|50:286,1,64,2|0,1:2|0:0,0:0:0:0:
206,255,137140,6,0,P|149:310|116:382,1,160,10|2,0:0|0:0,0:0:0:0:
50,286,137767,2,0,B|39:256|39:256|48:225,1,64,2|2,0:0|0:0,0:0:0:0:
0,125,138393,6,0,B|38:91|38:91|131:83,1,143.999995605469,2|0,1:2|0:0,0:0:0:0:
302,0,138811,2,0,P|301:23|288:44,1,47.9999985351563,2|0,0:0|0:0,0:0:0:0:
143,161,139020,6,0,L|286:173,1,143.999995605469,10|0,0:0|0:0,0:0:0:0:
512,154,139438,2,0,P|500:133|480:120,1,47.9999985351563,2|0,0:0|0:0,0:0:0:0:
349,228,139647,2,0,P|390:202|436:193,1,95.9999970703126,2|0,0:0|1:2,0:0:0:0:
501,289,140273,6,0,B|537:287|503:247|506:245|439:273|448:331,1,143.999995605469,2|0,1:2|0:0,0:0:0:0:
290,280,140691,2,0,P|275:262|255:249,1,47.9999985351563,2|0,0:0|0:0,0:0:0:0:
50,286,140900,6,0,B|6:293|39:353|91:318|68:285|127:275,1,143.999995605469,10|2,0:0|0:0,0:0:0:0:
220,168,141527,6,0,B|191:179|178:207|178:207|47:163|151:111|21:67,1,279.999991455078,2|2,0:0|0:0,0:0:0:0:
202,47,142153,6,0,P|179:70|172:100,1,64,2|0,1:2|0:0,0:0:0:0:
403,120,142362,6,0,P|380:97|349:90,1,64,2|0,0:0|0:0,0:0:0:0:
254,248,142571,6,0,P|269:275|297:290,1,64,2|0,3:2|0:0,0:0:0:0:
500,288,142780,6,0,P|450:241|381:250,1,143.999995605469,10|0,0:0|0:0,0:0:0:0:
370,265,143198,1,2,0:0:0:0:
169,351,143406,6,0,P|235:331|262:266,1,143.999995605469,2|0,0:0|0:0,0:0:0:0:
254,248,143824,1,2,1:2:0:0:
23,369,144033,5,2,1:2:0:0:
21,338,144242,1,2,0:0:0:0:
31,309,144451,1,2,0:0:0:0:
90,136,144660,5,10,0:0:0:0:
127,109,144869,1,2,0:0:0:0:
172,99,145077,1,2,0:0:0:0:
339,0,145286,5,2,3:2:0:0:
406,10,145495,1,2,3:2:0:0:
465,46,145704,2,0,P|481:63|493:84,1,47.9999985351563,2|2,3:2|0:0,0:0:0:0:
254,248,145913,6,0,B|369:203|305:152|414:113,1,215.999993408203,6|0,1:2|0:0,0:0:0:0:
499,287,146331,2,0,P|480:258|449:240,1,71.9999978027344,2|0,0:0|0:0,0:0:0:0:
245,160,146540,6,0,P|213:118|262:138,1,143.999995605469,8|2,0:0|0:0,0:0:0:0:
258,256,147166,2,0,P|166:230|71:229,1,191.999994140625,2|0,0:0|1:2,0:0:0:0:
100,347,147793,6,0,P|144:329|191:325,1,96,2|0,1:2|0:0,0:0:0:0:
337,198,148211,1,2,0:0:0:0:
285,348,148420,6,0,P|314:336|336:313,1,64,10|0,0:0|0:0,0:0:0:0:
422,233,149046,2,0,P|501:202|499:286,1,200,2|2,0:0|0:0,0:0:0:0:
343,377,149673,6,0,P|273:332|191:325,1,167.999994873047,2|0,1:2|0:0,0:0:0:0:
16,245,150091,2,0,P|26:270|49:285,1,55.9999982910157,2|0,0:0|0:0,0:0:0:0:
157,171,150299,6,0,P|130:191|128:226,1,71.9999978027344,10|0,0:0|0:0,0:0:0:0:
139,236,150717,1,2,0:0:0:0:
258,255,150926,6,0,P|336:241|416:237,1,160,2|2,0:0|1:2,0:0:0:0:
418,319,151553,6,0,P|377:343|343:376,1,96,2|0,1:2|0:0,0:0:0:0:
121,305,151970,1,2,0:0:0:0:
333,371,152179,2,0,P|270:375|207:363,1,128,10|2,0:0|0:0,0:0:0:0:
121,305,152806,6,0,B|105:287|85:292|85:292|90:313|113:317,1,80,2|0,0:0|0:0,0:0:0:0:
193,184,153433,6,0,B|169:69|68:42|68:42|41:143|129:220,1,400,6|0,1:2|0:0,0:0:0:0:
279,224,154059,6,0,B|294:210|289:192|289:192|271:197|267:217,1,71.9999978027344,10|0,1:2|3:0,0:0:0:0:
352,283,155104,6,0,P|354:288|359:291,1,11.9999996337891,2|0,0:0|0:0,0:0:0:0:
428,230,155312,6,0,B|506:160|482:69|482:69|391:93|370:196,1,359.999989013672,6|0,1:2|0:0,0:0:0:0:
445,317,155939,6,0,B|459:317|465:306|465:306|454:300|442:308,1,50,10|0,1:2|0:0,0:0:0:0:
332,370,156566,6,0,P|289:352|241:354,1,96,2|0,3:2|0:0,0:0:0:0:
226,370,156983,1,2,0:0:0:0:
0,285,157192,6,0,P|4:303|15:320,1,40,2|0,1:2|0:0,0:0:0:0:
12,345,157401,2,0,P|28:354|48:359,1,40,2|0,0:0|0:0,0:0:0:0:
70,384,157610,2,0,P|89:383|108:377,1,40,2|0,3:2|0:0,0:0:0:0:
268,160,157819,6,0,P|189:169|128:219,1,160,10|2,0:0|0:3,0:0:0:0:
67,31,158446,5,2,3:2:0:0:
70,43,158654,1,0,3:0:0:0:
80,52,158863,1,0,3:0:0:0:
268,160,159072,6,0,P|246:182|237:212,1,64,2|2,1:2|0:0,0:0:0:0:
244,224,159490,1,2,0:0:0:0:
273,263,159699,1,2,0:0:0:0:
264,323,159908,1,2,0:0:0:0:
203,357,160117,1,2,0:0:0:0:
133,323,160325,6,0,P|86:327|48:357,1,96,2|0,0:0|0:0,0:0:0:0:
100,317,160743,2,0,P|116:314|132:315,1,32,2|0,0:0|0:0,0:0:0:0:
273,263,160952,2,0,P|306:273|331:300,1,71.9999978027344,2|0,0:0|0:0,0:0:0:0:
332,312,161370,1,2,0:0:0:0:
332,312,162205,5,2,0:0:0:0:
417,357,162623,6,0,P|427:349|429:337,1,23.9999992675781,2|0,0:0|0:0,0:0:0:0:
397,239,162832,2,0,P|364:175|346:106,1,143.999995605469,2|0,0:0|0:0,0:0:0:0:
466,36,163876,6,0,P|463:47|454:56,1,23.9999992675781,8|0,0:3|0:0,0:0:0:0:
359,12,164085,6,0,P|300:23|260:65,1,120,4|0,0:3|0:0,0:0:0:0:
172,109,164503,6,0,P|185:117|194:131,1,32,2|0,0:0|0:0,0:0:0:0:
287,289,164712,6,0,P|358:226|448:195,1,192,6|0,1:2|0:0,0:0:0:0:
461,198,165130,2,0,P|475:169|477:137,1,64,2|0,0:0|0:0,0:0:0:0:
443,18,165339,6,0,L|512:0,1,71.9999978027344,10|0,0:0|0:0,0:0:0:0:
512,7,165756,1,2,0:3:0:0:
299,92,165965,6,0,P|314:136|301:181,1,96,2|0,0:0|0:0,0:0:0:0:
288,185,166383,1,0,1:0:0:0:
78,56,166592,6,0,B|62:10|6:73|56:124|130:104|130:104|175:92|194:130,1,239.999992675781,2|0,1:2|0:0,0:0:0:0:
95,194,167218,6,0,P|128:146|185:134,1,119.999996337891,10|0,0:0|0:0,0:0:0:0:
179,145,167845,6,0,P|209:169|216:208,1,80,2|0,0:0|0:0,0:0:0:0:
197,316,168472,6,0,P|191:299|178:286,1,35.9999989013672,2|0,1:2|0:0,0:0:0:0:
16,384,168889,1,2,0:0:0:0:
18,374,169098,6,0,P|62:332|123:345,1,128,10|2,0:0|0:3,0:0:0:0:
262,367,169725,6,0,P|286:335|292:296,1,80,2|2,0:0|0:0,0:0:0:0:
183,167,170143,2,0,P|191:184|206:197,1,40,2|0,1:2|0:0,0:0:0:0:
332,176,170352,6,0,P|391:173|447:193,1,120,2|0,1:2|0:0,0:0:0:0:
452,205,170769,1,2,0:0:0:0:
443,88,170978,6,0,P|413:67|427:100,1,95.9999970703126,10|0,0:0|0:0,0:0:0:0:
379,0,171605,6,0,B|281:23|346:113|247:134,1,200,2|0,0:0|0:0,0:0:0:0:
169,72,172232,6,0,P|124:56|77:55,1,96,2|0,1:2|0:0,0:0:0:0:
0,0,172649,1,2,0:0:0:0:
106,135,172858,6,0,P|74:142|47:158,1,64,8|2,0:0|0:3,0:0:0:0:
4,256,173485,6,0,L|2:271,1,16,2|2,0:0|0:0,0:0:0:0:
0,286,173903,5,0,1:0:0:0:
114,247,174111,6,0,P|209:249|291:295,1,191.999994140625,2|0,1:2|0:0,0:0:0:0:
435,383,174738,6,0,P|393:312|385:229,1,167.999994873047,10|0,0:0|0:0,0:0:0:0:
400,6,175156,1,2,0:0:0:0:
359,100,175365,6,0,P|315:141|261:166,1,120,2|0,0:0|0:0,0:0:0:0:
249,169,175782,1,2,0:0:0:0:
12,90,175991,6,0,P|79:158|114:247,1,191.999994140625,2|2,1:2|3:2,0:0:0:0:
237,370,176618,6,0,P|272:338|290:295,1,95.9999970703126,10|2,0:0|0:3,0:0:0:0:
269,72,177245,6,0,P|207:37|176:102,1,160,2|2,0:0|1:2,0:0:0:0:
389,217,177871,5,2,1:2:0:0:
456,248,178080,1,2,0:0:0:0:
512,200,178289,1,2,0:0:0:0:
498,68,178498,6,0,P|459:94|445:139,1,96,10|0,0:0|0:0,0:0:0:0:
247,173,179124,5,2,3:2:0:0:
328,157,179333,1,0,3:0:0:0:
393,207,179542,1,0,3:0:0:0:
465,315,179751,6,0,L|469:362,1,48,2|0,1:2|0:0,0:0:0:0:
289,281,180169,1,2,0:0:0:0:
384,384,180378,6,0,L|375:288,1,95.9999970703126,8|2,0:0|0:3,0:0:0:0:
327,156,181004,6,0,P|266:157|231:207,1,128,2|0,0:0|1:2,0:0:0:0:
236,369,181631,6,0,P|159:349|81:335,1,160,2|2,1:2|0:0,0:0:0:0:
2,256,182258,6,0,P|51:206|120:190,1,143.999995605469,10|0,0:0|0:0,0:0:0:0:
176,101,182675,1,2,0:0:0:0:
122,200,182884,6,0,B|231:245|328:157,1,223.999993164063,2|0,0:0|0:0,0:0:0:0:
511,60,183511,6,0,P|440:123|393:206,1,192,2|0,1:2|0:0,0:0:0:0:
311,339,183929,2,0,P|305:308|289:281,1,64,2|0,3:2|0:0,0:0:0:0:
473,254,184138,6,0,P|431:277|404:315,1,95.9999970703126,10|2,0:0|0:3,0:0:0:0:
224,339,184764,2,0,P|187:351|163:382,1,80,2|0,0:0|0:0,0:0:0:0:
103,283,185495,6,0,B|127:210|91:146|14:207|-74:27|-75:-51|307:-149|406:2|261:207|102:152|118:233|227:276|253:219|70:-55|135:-90|324:-203|560:-114|664:265|453:429|239:332|170:140|-67:273|-64:512|121:424|95:285|223:339,1,1295.99996044922,2|0,1:2|0:0,0:0:0:0:
473,253,190587,6,0,P|431:276|404:314,1,95.9999970703126,2|0,1:2|0:0,0:0:0:0:
370,211,191004,1,2,0:0:0:0:
433,145,191213,6,0,P|441:114|412:129,1,80,10|0,0:0|0:0,0:0:0:0:
367,217,191840,6,0,P|291:238|224:281,1,160,2|2,0:0|1:2,0:0:0:0:
104,187,192466,6,0,P|112:125|170:149,1,143.999995605469,2|0,1:2|0:0,0:0:0:0:
79,300,192884,1,2,0:0:0:0:
3,234,193093,6,0,P|48:248|81:282,1,95.9999970703126,8|2,0:0|0:3,0:0:0:0:
262,378,193720,6,0,P|326:331|404:315,1,160,2|2,0:0|0:0,0:0:0:0:
213,282,194346,6,0,P|236:202|230:119,1,167.999994873047,6|0,1:2|0:0,0:0:0:0:
70,0,194764,1,2,0:0:0:0:
151,190,194973,6,0,P|127:245|82:283,1,120,10|0,0:0|0:0,0:0:0:0:
0,149,195391,1,2,0:0:0:0:
157,63,195600,6,0,P|193:34|240:27,1,96,2|0,0:0|0:0,0:0:0:0:
307,83,196017,1,2,0:0:0:0:
464,132,196226,6,0,P|399:161|356:217,1,143.999995605469,2|0,1:2|0:0,0:0:0:0:
512,0,196644,1,2,3:2:0:0:
391,40,196853,6,0,P|345:54|307:82,1,95.9999970703126,10|0,0:0|0:0,0:0:0:0:
260,198,197271,1,2,0:3:0:0:
458,239,197479,5,2,3:2:0:0:
474,260,197706,1,0,3:2:0:0:
484,284,197933,1,0,3:2:0:0:
362,326,198160,6,0,P|303:332|252:362,1,120,2|0,1:2|0:0,0:0:0:0:
87,214,198587,1,2,0:0:0:0:
167,334,198801,6,0,P|176:313|192:294,1,48,8|0,0:0|0:0,0:0:0:0:
171,221,199229,1,8,0:3:0:0:
29,277,199443,6,0,P|61:292|83:320,1,71.9999978027344,6|0,0:3|0:0,0:0:0:0:
79,331,199961,2,0,P|78:350|71:369,1,40,6|0,0:3|0:0,0:0:0:0:
0,384,200311,5,6,1:2:0:0:
256,192,200623,12,0,205936,0:0:0:0:
