osu file format v14

[General]
AudioFilename: audio.mp3
AudioLeadIn: 0
PreviewTime: 47950
Countdown: 0
SampleSet: Soft
StackLeniency: 0.5
Mode: 0
LetterboxInBreaks: 0
WidescreenStoryboard: 1

[Editor]
Bookmarks: 112075
DistanceSpacing: 0.6
BeatDivisor: 6
GridSize: 32
TimelineZoom: 2.3

[Metadata]
Title:Sweet Marriage (Game Ver.)
TitleUnicode:スイートマリアージュ (Game Ver.)
Artist:Kamishiro Ami
ArtistUnicode:神代あみ
Creator:tsukino
Version:deppy <3 kodama's hard
Source:喫茶ステラと死神の蝶
Tags:Angel Note Famishin Ifukube Takeshi 伊福部武史 Visual Novel VN Eroge Galgame Video Game 明月栞那 Akizuki Kanna Ending ED Japanese Swing Jazz Cafe Stella to Shinigami no Chou 星巴克与扑棱蛾子 Café and the Death Goddess' Goddess Butterfly Yuzusoft Deppyforce kodama
BeatmapID:3578977
BeatmapSetID:1483467

[Difficulty]
HPDrainRate:4
CircleSize:5
OverallDifficulty:6
ApproachRate:7
SliderMultiplier:1.7
SliderTickRate:1

[Events]
//Background and Video events
0,0,"bg0.png",0,0
//Break Periods
//Storyboard Layer 0 (Background)
//Storyboard Layer 1 (Fail)
//Storyboard Layer 2 (Pass)
//Storyboard Layer 3 (Foreground)
//Storyboard Layer 4 (Overlay)
//Storyboard Sound Samples

[TimingPoints]
536,626.631853785901,3,2,1,40,1,0
536,-125,3,2,1,40,0,0
8055,626.631853785901,4,2,1,25,1,0
10561,626.631853785901,3,2,1,30,1,0
18080,-100,3,2,1,35,0,0
48158,-90.9090909090909,3,2,1,40,0,0
78237,-83.3333333333333,3,2,1,60,0,0
106435,-83.3333333333333,3,2,1,30,0,0
107062,-83.3333333333333,3,2,1,40,0,0
107688,-83.3333333333333,3,2,1,50,0,0
108106,-83.3333333333333,3,2,1,60,0,0
108315,-83.3333333333333,3,2,1,50,0,0
108733,-83.3333333333333,3,2,1,40,0,0
109568,-133.333333333333,3,2,1,20,0,0
109986,-83.3333333333333,3,2,1,30,0,0
110195,-83.3333333333333,3,2,1,35,0,0
111239,-100,3,2,1,40,0,0
111866,-100,3,2,1,30,0,0
112075,-100,3,2,1,65,0,0
125234,-100,3,2,1,70,0,0
128994,-100,3,2,1,40,0,0
129621,-100,3,2,1,50,0,0
130247,-100,3,2,1,55,0,0
130874,-83.3333333333333,3,2,1,60,0,0
159072,-83.3333333333333,3,2,1,30,0,0
159699,-83.3333333333333,3,2,1,40,0,0
160325,-83.3333333333333,3,2,1,50,0,0
160743,-83.3333333333333,3,2,1,60,0,0
160952,-83.3333333333333,3,2,1,50,0,0
161370,-83.3333333333333,3,2,1,40,0,0
162205,-83.3333333333333,3,2,1,20,0,0
162623,-83.3333333333333,3,2,1,30,0,0
162832,-83.3333333333333,3,2,1,35,0,0
163876,-83.3333333333333,3,2,1,40,0,0
164085,-83.3333333333333,3,2,1,35,0,0
164712,-90.9090909090909,3,2,1,45,0,0
185495,636.604774535809,4,2,1,30,1,0
186131,-100,4,2,1,25,0,0
186768,-100,4,2,1,20,0,0
187404,-100,4,2,1,15,0,0
188041,-100,4,2,1,10,0,0
189314,-100,4,2,1,5,0,0
190587,626.631853785901,3,2,1,40,1,0
197479,681.818181818182,3,2,1,40,1,0
198160,641.711229946524,3,2,1,40,1,0
199443,779.220779220779,3,2,1,35,1,0
199961,1052.63157894737,3,2,1,30,1,0
200311,1875,3,2,1,25,1,0
205936,-100,3,2,1,5,0,0

[Colours]
Combo1 : 252,158,224
Combo2 : 226,225,224
Combo3 : 121,184,253
Combo4 : 214,56,112

[HitObjects]
25,251,536,6,0,P|87:276|126:308,5,68,2|0|0|0|2|0,0:0|0:0|0:0|0:0|0:0|0:0,0:0:0:0:
158,251,2415,2,0,P|210:292|239:333,5,68,2|0|0|0|0|0,0:0|0:0|0:0|0:0|0:0|0:0,0:0:0:0:
232,366,4295,1,2,0:0:0:0:
232,366,6175,1,2,0:0:0:0:
256,192,6332,12,0,9308,0:2:0:0:
254,285,9934,5,8,0:3:0:0:
231,266,10144,1,4,0:3:0:0:
208,247,10352,1,4,0:3:0:0:
158,251,10561,2,0,B|170:230|182:162|176:135,1,113.333333333333,6|2,1:2|0:0,0:0:0:0:
199,114,11187,1,2,0:3:0:0:
318,178,11605,1,2,0:0:0:0:
334,148,11814,2,0,B|373:158|420:122|406:63,1,113.333333333333,0|0,3:0|1:0,0:0:0:0:
386,20,12440,1,2,3:2:0:0:
386,20,13067,2,0,P|396:143|415:297,1,226.666666666667,2|0,0:0|3:0,0:0:0:0:
407,245,14111,1,0,3:0:0:0:
458,297,14320,6,0,B|437:265|366:272|351:338,1,113.333333333333,6|2,1:2|0:0,0:0:0:0:
351,343,14947,1,2,0:3:0:0:
221,383,15365,1,2,0:0:0:0:
203,317,15574,1,2,1:2:0:0:
71,284,15991,1,0,3:0:0:0:
71,284,16200,2,0,B|34:284|53:118|18:125,1,170,2|0,3:2|3:0,0:0:0:0:
25,126,17453,1,2,3:2:0:0:
322,10,18080,6,0,B|286:23|256:61|261:146,1,113.333333333333,6|2,1:2|0:0,0:0:0:0:
236,122,18707,2,0,B|420:68|324:257|464:292|530:211,1,340,10|2,0:0|1:2,0:0:0:0:
511,229,20587,1,2,0:3:0:0:
297,311,21213,1,2,0:0:0:0:
319,336,21422,2,0,P|269:328|237:324,1,56.6666666666667,2|2,0:0|0:0,0:0:0:0:
199,353,21840,6,0,P|138:370|48:371,1,113.333333333333,2|0,1:2|3:0,0:0:0:0:
21,360,22467,1,10,0:0:0:0:
21,360,23093,1,2,0:0:0:0:
10,236,23511,1,2,1:2:0:0:
10,236,23615,1,2,0:0:0:0:
10,236,23720,2,0,P|48:172|115:296,1,283.333333333333,2|2,1:2|0:0,0:0:0:0:
159,274,24973,2,0,P|211:233|229:166,1,113.333333333333,2|0,0:0|0:0,0:0:0:0:
207,125,25600,5,2,1:2:0:0:
295,21,26018,1,2,0:0:0:0:
322,41,26226,2,0,B|288:79|309:138|332:162,1,113.333333333333,8|2,0:0|0:0,0:0:0:0:
379,182,26853,1,2,0:0:0:0:
512,141,27271,1,0,1:0:0:0:
512,141,27480,2,0,B|558:117|506:-9|464:16,2,170,2|2|2,1:2|0:3|0:0,0:0:0:0:
467,256,29151,1,2,0:0:0:0:
485,274,29359,6,0,P|404:287|359:314,1,113.333333333333,2|2,1:2|3:2,0:0:0:0:
369,335,29986,2,0,P|299:333|288:381,1,113.333333333333,8|2,0:0|0:0,0:0:0:0:
218,377,30613,1,2,0:0:0:0:
189,359,30822,1,2,0:0:0:0:
149,381,31030,1,2,1:2:0:0:
87,349,31239,2,0,P|75:325|66:293,3,56.6666666666667,2|2|2|2,1:2|0:0|0:0|0:3,0:0:0:0:
78,296,32493,2,0,B|96:309|65:335|74:361,2,56.6666666666667,2|0|0,3:2|3:0|3:0,0:0:0:0:
175,262,33120,6,0,P|200:189|144:202,1,170,2|8,1:2|0:0,0:0:0:0:
0,79,34373,2,0,B|-39:59|36:-11|52:28,1,113.333333333333,2|2,0:0|1:2,0:0:0:0:
66,94,34999,1,2,1:2:0:0:
9,217,35417,1,2,0:0:0:0:
9,217,35626,2,0,B|54:222|139:196|168:139,1,170,2|2,0:3|0:0,0:0:0:0:
299,14,36879,6,0,P|375:25|396:75,1,113.333333333333,2|2,1:2|3:2,0:0:0:0:
400,85,37506,1,8,0:0:0:0:
400,85,38132,2,0,B|437:41|459:32|441:30|428:98,1,113.333333333333,2|0,0:0|1:0,0:0:0:0:
489,123,38759,2,0,B|419:84|260:241|238:276,1,283.333333333333,2|0,1:2|0:0,0:0:0:0:
250,289,40012,1,2,0:0:0:0:
54,209,40639,6,0,P|0:145|138:103,1,283.333333333333,2|2,1:2|0:0,0:0:0:0:
157,160,41892,1,2,0:0:0:0:
157,160,42519,1,2,1:2:0:0:
287,122,42937,1,2,0:0:0:0:
287,122,43145,2,0,B|258:92|283:32|251:15,1,113.333333333333,2|0,0:3|0:0,0:0:0:0:
282,0,43772,2,0,P|270:27|265:121,1,113.333333333333,2|0,0:0|0:0,0:0:0:0:
255,183,44399,2,0,B|264:121|481:-20|548:47|471:102|425:78,1,340,2|2,1:2|3:2,0:0:0:0:
491,117,45861,1,0,3:0:0:0:
479,134,46070,1,0,3:0:0:0:
492,202,46279,1,2,1:2:0:0:
492,202,46905,1,6,0:0:0:0:
386,318,47323,5,8,0:3:0:0:
360,255,47532,1,4,0:3:0:0:
152,255,47950,5,4,0:3:0:0:
112,338,48158,1,6,1:2:0:0:
256,384,48576,5,2,0:0:0:0:
256,384,48785,2,0,B|221:339|304:307|261:255,1,124.666670471192,10|2,0:0|0:3,0:0:0:0:
249,235,49412,2,0,P|276:169|281:108,1,124.666670471192,2|2,0:0|1:2,0:0:0:0:
258,44,50038,1,2,1:2:0:0:
258,44,50665,2,0,B|232:78|159:57|166:-3,1,124.666670471192,10|2,0:0|0:0,0:0:0:0:
151,44,51292,2,0,B|119:51|49:21|32:-5,1,124.666670471192,2|2,0:0|0:0,0:0:0:0:
4,68,51918,5,2,1:2:0:0:
90,189,52336,1,2,3:2:0:0:
120,168,52545,2,0,B|107:182|150:216|131:289|90:300,1,124.666670471192,10|2,0:0|0:0,0:0:0:0:
109,356,53171,2,0,P|153:297|206:280,1,124.666670471192,2|2,0:0|1:2,0:0:0:0:
264,321,53798,1,2,1:2:0:0:
264,321,54425,1,10,0:0:0:0:
310,186,54843,1,2,0:0:0:0:
310,186,55051,2,0,B|324:229|376:132|398:245|429:186,1,124.666670471192,2|2,0:0|0:0,0:0:0:0:
448,167,55678,6,0,B|388:152|377:218|417:302|360:317|300:291|351:216|358:149|293:152,1,311.666676177979,2|2,1:2|0:3,0:0:0:0:
237,201,56931,1,2,0:0:0:0:
116,111,57349,1,0,1:2:0:0:
116,111,57558,2,0,P|46:130|81:45,2,187.000005706787,2|10|2,1:2|0:0|0:0,0:0:0:0:
86,333,59438,6,0,B|250:344|-69:54|544:360|114:70|329:75,1,374.000011413575,2|2,1:2|0:0,0:0:0:0:
357,129,60900,1,2,0:0:0:0:
338,162,61109,1,2,1:2:0:0:
271,184,61318,1,2,1:2:0:0:
256,265,61527,1,2,0:0:0:0:
132,168,61944,1,10,0:0:0:0:
132,168,62571,2,0,P|161:205|168:227,2,62.3333352355958,2|0|0,3:2|3:0|3:0,0:0:0:0:
128,131,63198,6,0,P|159:240|150:336,1,187.000005706787,2|8,1:2|0:0,0:0:0:0:
371,373,64451,2,0,P|356:296|366:247,1,124.666670471192,2|2,0:0|1:2,0:0:0:0:
386,221,65077,1,2,1:2:0:0:
207,84,65704,1,10,0:0:0:0:
207,84,66331,2,0,B|241:58|113:-2|130:69,1,124.666670471192,2|0,0:0|0:0,0:0:0:0:
128,131,66957,6,0,P|197:103|251:101,1,124.666670471192,6|6,1:2|0:0,0:0:0:0:
277,123,67584,2,0,P|294:71|357:88,1,124.666670471192,8|6,0:0|0:0,0:0:0:0:
427,93,68211,1,0,0:0:0:0:
442,58,68420,1,6,0:0:0:0:
511,74,68628,1,6,1:2:0:0:
512,0,68837,1,6,1:2:0:0:
512,0,69464,1,8,0:0:0:0:
352,81,69882,1,2,0:0:0:0:
352,81,70091,2,0,B|289:82|284:76|284:83|221:137,1,124.666670471192,2|0,0:0|0:0,0:0:0:0:
224,163,70717,6,0,B|144:130|155:122|149:153|109:154|120:147|146:238,1,187.000005706787,2|8,1:2|0:0,0:0:0:0:
144,232,71970,1,2,0:0:0:0:
282,307,72389,1,0,1:0:0:0:
253,366,72597,1,2,1:2:0:0:
253,366,73850,1,2,0:0:0:0:
253,366,74477,6,0,P|254:296|276:240,1,124.666670471192,2|2,1:2|3:2,0:0:0:0:
264,209,75104,2,0,B|216:201|259:106|297:142,1,124.666670471192,8|2,0:0|0:0,0:0:0:0:
369,143,75730,1,2,3:2:0:0:
398,149,75939,1,0,3:0:0:0:
448,134,76148,1,0,3:0:0:0:
478,72,76357,1,2,1:2:0:0:
478,72,76983,1,10,0:0:0:0:
316,17,77401,1,8,0:3:0:0:
302,90,77611,1,4,0:3:0:0:
158,360,78237,6,0,B|156:282|107:333|99:245,1,135.99999584961,6|2,1:2|0:0,0:0:0:0:
60,235,78863,1,8,0:0:0:0:
6,96,79281,1,2,0:0:0:0:
6,96,79490,2,0,P|61:97|116:36,1,135.99999584961,2|0,0:0|1:2,0:0:0:0:
172,5,80117,2,0,P|116:101|101:151,1,135.99999584961,2|2,1:2|0:3,0:0:0:0:
167,179,80743,1,10,0:0:0:0:
167,179,81370,1,2,0:0:0:0:
481,254,81997,6,0,B|438:228|455:221|433:228|225:291|217:294|219:303|237:348|231:351|156:371|113:372,1,407.999987548829,2|2,1:2|0:0,0:0:0:0:
116,371,83876,2,0,B|239:280|209:368|321:292,1,203.999993774414,2|10,1:2|0:0,0:0:0:0:
334,161,84921,1,2,0:0:0:0:
334,161,85130,2,0,B|372:162|444:108|445:67,1,135.99999584961,2|0,0:0|0:0,0:0:0:0:
397,15,85756,6,0,B|377:47|464:74|380:98|387:136|422:158,1,135.99999584961,2|2,1:2|0:0,0:0:0:0:
436,164,86383,1,10,0:0:0:0:
342,287,86800,1,2,0:0:0:0:
295,234,87010,2,0,P|223:207|219:153,1,135.99999584961,2|0,0:0|1:2,0:0:0:0:
158,100,87636,2,0,P|103:110|139:46,1,135.99999584961,2|2,1:2|0:0,0:0:0:0:
115,7,88263,1,10,0:0:0:0:
20,314,88889,6,0,B|-38:302|122:218|92:276,1,135.99999584961,2|0,0:0|0:0,0:0:0:0:
123,346,89412,1,2,0:0:0:0:
123,346,89516,1,2,1:2:0:0:
256,192,89725,12,10,92023,0:0:0:0:
497,325,92649,6,0,B|509:305|497:382|484:386,2,67.9999979248048,2|2|2,3:2|3:2|3:2,0:0:0:0:
442,258,93276,6,0,B|482:189|464:169|393:192,1,135.99999584961,6|2,1:2|0:0,0:0:0:0:
361,177,93903,2,0,B|313:197|259:144|294:93,1,135.99999584961,8|2,0:0|0:0,0:0:0:0:
327,28,94529,1,2,0:0:0:0:
327,28,95156,1,2,1:2:0:0:
361,177,95574,5,2,0:0:0:0:
361,177,95782,2,0,B|337:173|316:160|233:214,1,135.99999584961,10|0,0:0|0:0,0:0:0:0:
225,251,96409,2,0,B|200:204|169:218|121:271|169:290,1,135.99999584961,2|0,0:0|0:0,0:0:0:0:
161,304,96932,1,2,0:0:0:0:
153,317,97036,6,0,B|197:390|309:369|336:281|351:204|185:171|281:56,1,407.999987548829,2|2,1:2|0:0,0:0:0:0:
262,83,98916,1,2,1:2:0:0:
404,34,99334,1,2,0:0:0:0:
404,34,99542,2,0,B|426:22|446:-28|386:84|401:127,1,135.99999584961,10|2,0:0|0:0,0:0:0:0:
420,162,100169,2,0,P|464:182|457:111,1,135.99999584961,2|0,0:0|0:0,0:0:0:0:
512,47,100796,5,6,1:2:0:0:
0,47,101422,1,10,1:2:0:0:
0,47,102467,5,2,0:0:0:0:
52,109,102675,2,0,B|57:63|125:36|163:80,1,135.99999584961,6|0,1:2|0:0,0:0:0:0:
199,76,103302,2,0,B|193:33|215:5|257:4|275:67,1,135.99999584961,10|0,1:2|0:0,0:0:0:0:
307,82,103929,1,2,3:2:0:0:
427,192,104347,5,2,0:0:0:0:
427,192,104555,2,0,B|473:167|491:216|440:217,2,67.9999979248048,2|2|2,1:2|0:0|3:2,0:0:0:0:
376,243,105182,2,0,B|327:196|285:218|296:300,1,135.99999584961,10|2,0:0|0:3,0:0:0:0:
246,346,105809,1,2,3:2:0:0:
216,331,106017,1,0,3:0:0:0:
158,365,106227,1,0,3:0:0:0:
81,349,106436,1,2,1:2:0:0:
256,192,106644,12,2,108315,0:0:0:0:
416,100,109568,6,0,B|462:111|453:112|439:120|499:130,1,85.0000032424928,2|2,0:0|0:0,0:0:0:0:
504,145,110195,1,2,0:0:0:0:
0,384,111240,5,8,0:3:0:0:
0,384,111448,1,4,0:3:0:0:
72,326,111866,5,4,0:3:0:0:
72,368,112075,6,0,B|79:329|131:299|168:312|146:325,1,113.333333333333,6|2,1:2|3:2,0:0:0:0:
148,394,112701,6,0,B|177:335|240:335|243:351|229:363,1,113.333333333333,10|2,0:0|0:0,0:0:0:0:
271,384,113328,5,2,0:0:0:0:
445,392,113746,1,2,3:2:0:0:
445,392,113955,2,0,B|444:316|511:329|489:383|434:370,1,113.333333333333,2|2,1:2|0:0,0:0:0:0:
455,371,114790,5,2,0:0:0:0:
489,345,114999,1,2,3:2:0:0:
512,277,115208,2,0,B|520:260|478:247|424:278|424:318,1,113.333333333333,2|2,0:0|3:2,0:0:0:0:
426,304,115730,1,2,0:0:0:0:
426,304,115835,5,2,1:2:0:0:
362,279,116044,1,2,0:0:0:0:
362,279,116461,2,0,B|333:291|263:231|263:242|323:319|289:363,1,170,10|6,0:0|0:3,0:0:0:0:
267,389,117297,5,2,0:0:0:0:
230,325,117506,5,2,0:0:0:0:
290,252,117715,6,0,B|301:270|272:275|229:260|189:217|212:165|245:160|250:182,1,170,2|10,1:2|0:0,0:0:0:0:
170,356,118759,1,2,0:0:0:0:
155,316,118968,2,0,B|102:304|96:304|49:334,1,113.333333333333,2|2,0:0|3:2,0:0:0:0:
0,384,119594,5,2,1:2:0:0:
0,384,119699,1,2,0:0:0:0:
0,384,119803,2,0,B|12:357|11:350|-16:317|53:219|156:331|59:390|16:371,1,226.666666666667,2|2,0:0|0:0,0:0:0:0:
313,315,121265,1,2,3:2:0:0:
362,366,121474,6,0,B|391:372|413:347|420:348|435:382|467:384,1,113.333333333333,2|2,1:2|3:2,0:0:0:0:
512,373,122101,1,10,0:0:0:0:
473,390,122310,1,2,0:0:0:0:
429,353,122519,1,2,0:0:0:0:
436,285,122728,2,0,B|464:280|466:279|487:262,2,56.6666666666667,2|2|2,0:0|0:0|3:2,0:0:0:0:
376,254,123354,5,2,1:2:0:0:
231,306,123772,2,0,B|158:311|130:232|127:231|80:294|17:259,1,226.666666666667,2|0,3:2|0:0,0:0:0:0:
61,316,124816,1,2,0:0:0:0:
38,369,125025,1,2,0:0:0:0:
0,379,125234,5,6,1:2:0:0:
184,372,125652,1,2,0:0:0:0:
150,393,125861,2,0,B|153:379|156:377|158:363,5,28.3333333333333,10|0|0|0|0|0,0:0|0:0|0:0|0:0|0:0|0:0,0:0:0:0:
187,375,126487,6,0,B|232:342|293:355|270:387|239:379|249:326,1,113.333333333333,2|2,3:2|3:2,0:0:0:0:
396,362,127323,1,2,0:0:0:0:
396,362,127741,2,0,B|507:400|552:293|518:276|478:259|424:309|501:397|556:318,1,283.333333333333,10|0,0:0|3:0,0:0:0:0:
512,394,128994,6,0,B|488:391|429:342|429:312,1,113.333333333333,2|8,1:2|0:3,0:0:0:0:
400,354,129621,6,0,B|381:343|354:271|378:250,1,113.333333333333,6|0,0:3|3:0,0:0:0:0:
299,197,130247,6,0,B|273:164|308:88|344:91,1,113.333333333333,2|0,0:0|0:0,0:0:0:0:
255,27,130769,1,2,0:0:0:0:
245,19,130874,6,0,B|209:-10|226:-48|287:-24|305:36|256:110,1,203.999993774414,6|8,1:2|0:0,0:0:0:0:
8,41,131918,1,2,0:0:0:0:
8,41,132127,2,0,B|54:48|72:17|97:39|142:22,1,135.99999584961,2|0,0:0|1:2,0:0:0:0:
110,126,132754,6,0,B|97:95|148:36|193:53|191:78,1,135.99999584961,2|2,1:2|0:3,0:0:0:0:
252,118,133380,1,10,0:0:0:0:
441,289,134007,2,0,B|395:290|352:266|307:266,1,135.99999584961,2|0,0:0|0:0,0:0:0:0:
217,230,134634,6,0,B|316:259|340:177|293:132|223:153|244:213,1,203.999993774414,2|8,1:2|0:0,0:0:0:0:
204,363,135678,1,2,0:3:0:0:
204,363,135887,2,0,B|139:358|128:346|70:340,1,135.99999584961,2|0,0:0|1:2,0:0:0:0:
50,380,136514,6,0,B|117:418|186:382|171:297|158:278,1,203.999993774414,2|10,1:2|0:0,0:0:0:0:
52,107,137558,1,2,0:0:0:0:
6,114,137767,2,0,B|-28:74|-2:15|49:17,1,135.99999584961,2|0,0:0|0:0,0:0:0:0:
62,26,138289,1,2,0:0:0:0:
75,30,138393,6,0,B|80:71|253:101|276:40,1,203.999993774414,2|10,1:2|0:0,0:0:0:0:
261,58,139438,1,2,0:0:0:0:
230,0,139647,2,0,B|235:34|241:100|250:153,1,135.99999584961,2|0,0:0|1:2,0:0:0:0:
223,249,140273,6,0,B|246:252|285:195|287:201|258:270|291:295,1,135.99999584961,2|2,1:2|0:0,0:0:0:0:
222,322,140900,1,10,0:0:0:0:
260,143,141527,2,0,B|275:98|247:71|285:49|278:8,1,135.99999584961,2|0,0:0|0:0,0:0:0:0:
337,86,142153,6,0,B|345:86|532:61|539:61,2,203.999993774414,2|10|2,1:2|0:0|0:0,0:0:0:0:
315,103,143511,2,0,B|312:87|312:83|310:68,4,33.9999989624024,0|0|0|2|0,0:0|0:0|0:0|1:2|0:0,0:0:0:0:
324,110,144033,5,2,1:2:0:0:
341,130,144242,1,2,0:0:0:0:
351,173,144451,1,2,0:0:0:0:
317,236,144660,5,10,0:0:0:0:
273,254,144869,1,2,0:0:0:0:
208,242,145077,1,2,0:0:0:0:
177,176,145286,6,0,B|155:174|147:124|192:73|245:83,1,135.99999584961,2|2,3:2|3:2,0:0:0:0:
258,162,145809,1,2,0:0:0:0:
258,162,145913,6,0,B|187:152|94:127|43:126,1,203.999993774414,6|8,1:2|0:0,0:0:0:0:
57,126,146957,1,2,0:0:0:0:
128,110,147166,2,0,B|152:77|150:50|130:13|98:0|96:33|111:51,1,135.99999584961,2|0,0:0|1:2,0:0:0:0:
11,184,147793,6,0,B|-52:231|17:350|105:276,2,203.999993774414,2|10|2,1:2|0:0|0:0,0:0:0:0:
290,203,149464,1,0,0:0:0:0:
290,203,149568,1,2,0:0:0:0:
290,203,149673,6,0,B|265:262|356:294|372:232,1,135.99999584961,2|2,1:2|0:0,0:0:0:0:
388,202,150299,2,0,B|389:212|371:287|370:338,1,135.99999584961,10|2,0:0|0:0,0:0:0:0:
459,382,150926,6,0,B|425:360|436:316|450:277|516:273|568:341|518:373|471:373,1,203.999993774414,2|2,0:0|1:2,0:0:0:0:
185,219,152179,2,0,B|168:239|162:250|158:263|157:280,1,67.9999979248048,10|0,0:0|0:0,0:0:0:0:
195,347,152597,1,2,0:0:0:0:
195,347,152806,2,0,B|269:349|303:270|266:276,1,135.99999584961,2|0,0:0|0:0,0:0:0:0:
256,384,153433,5,6,1:2:0:0:
256,0,154059,1,10,1:2:0:0:
256,0,155104,1,2,0:0:0:0:
236,109,155312,6,0,B|219:92|235:36|306:14|317:42,1,135.99999584961,6|0,1:2|0:0,0:0:0:0:
244,113,155939,1,10,1:2:0:0:
31,23,156566,2,0,B|-9:16|-44:-33|42:-44|20:71,1,135.99999584961,2|2,3:2|0:0,0:0:0:0:
99,46,157192,6,0,B|124:57|135:60|179:64,1,67.9999979248048,2|2,1:2|0:0,0:0:0:0:
205,44,157610,1,2,3:2:0:0:
231,80,157819,2,0,B|271:123|311:118|354:77,1,135.99999584961,10|2,0:0|0:3,0:0:0:0:
440,77,158446,1,2,3:2:0:0:
416,53,158654,1,0,3:0:0:0:
427,10,158863,1,0,3:0:0:0:
379,0,159072,6,0,B|402:38|364:70|408:90|397:133,1,135.99999584961,2|2,1:2|0:0,0:0:0:0:
363,162,159699,6,0,B|331:186|359:211|379:196|391:163,2,67.9999979248048,2|2|2,0:0|0:0|0:0,0:0:0:0:
387,191,160326,1,2,0:0:0:0:
473,111,160743,1,2,0:0:0:0:
473,111,160952,5,2,0:0:0:0:
512,0,161370,1,2,0:0:0:0:
512,0,162623,6,0,B|503:40|517:27|505:72,1,67.9999979248048,2|2,0:0|0:0,0:0:0:0:
506,67,163876,6,0,B|508:-3|511:67|513:-1,1,67.9999979248048,8|4,0:3|0:3,0:0:0:0:
380,96,164503,1,2,0:0:0:0:
380,96,164712,5,6,1:2:0:0:
256,64,165130,1,2,0:0:0:0:
296,5,165339,2,0,B|283:35|318:63|297:104|314:127,1,124.666670471192,10|2,0:0|0:3,0:0:0:0:
219,159,165965,2,0,B|208:151|224:112|297:125|295:176|278:204,1,124.666670471192,2|0,0:0|1:0,0:0:0:0:
237,247,166592,1,2,1:2:0:0:
237,247,167218,6,0,B|227:307|212:321|151:297,1,124.666670471192,10|0,0:0|0:0,0:0:0:0:
136,257,167845,2,0,B|81:287|71:286|28:240,1,124.666670471192,2|0,0:0|0:0,0:0:0:0:
0,176,168472,5,2,1:2:0:0:
77,50,168889,1,2,0:0:0:0:
106,115,169098,2,0,B|128:150|106:264|76:293,1,187.000005706787,10|2,0:0|0:0,0:0:0:0:
33,310,169934,1,2,0:0:0:0:
43,352,170143,1,2,1:2:0:0:
20,368,170352,5,2,1:2:0:0:
217,384,170769,1,2,0:0:0:0:
217,384,170978,2,0,B|222:379|332:367|339:362,1,124.666670471192,10|0,0:0|0:0,0:0:0:0:
403,326,171605,6,0,B|408:293|416:248|436:253|430:298|427:331,1,124.666670471192,2|0,0:0|0:0,0:0:0:0:
512,299,172232,5,2,1:2:0:0:
512,299,172649,2,0,B|452:264|408:359|391:256|332:277,1,187.000005706787,2|2,0:0|0:3,0:0:0:0:
294,295,173485,2,0,B|303:285|297:273|239:333|174:247,1,124.666670471192,2|0,0:0|1:0,0:0:0:0:
206,358,174111,6,0,B|224:304|227:227|198:180|167:170,1,187.000005706787,2|10,1:2|0:0,0:0:0:0:
215,30,175156,1,2,0:0:0:0:
181,94,175365,2,0,B|201:79|135:-13|112:4,1,124.666670471192,2|2,0:0|0:0,0:0:0:0:
6,32,175991,6,0,B|36:-7|110:-19|185:7|231:139|135:238|-3:133|59:76|83:87,1,374.000011413575,2|2,1:2|0:0,0:0:0:0:
97,100,177453,1,0,0:0:0:0:
128,85,177662,1,2,1:2:0:0:
188,123,177871,5,2,1:2:0:0:
222,116,178080,1,2,0:0:0:0:
263,92,178289,1,2,0:0:0:0:
280,27,178498,1,10,0:0:0:0:
512,139,179124,2,0,B|546:120|552:125|530:169,2,62.3333352355958,2|0|0,3:2|3:0|3:0,0:0:0:0:
495,183,179751,5,2,1:2:0:0:
349,159,180169,1,2,0:0:0:0:
376,197,180378,2,0,B|371:152|370:117|378:63,1,124.666670471192,8|2,0:0|0:3,0:0:0:0:
382,0,181004,2,0,B|389:68|384:136|370:192,1,187.000005706787,2|2,0:0|1:2,0:0:0:0:
155,175,182258,6,0,B|176:169|189:139|199:141|195:209|244:226,1,124.666670471192,10|2,0:0|0:0,0:0:0:0:
283,280,182884,2,0,B|308:267|314:233|323:237|320:313|352:330,1,124.666670471192,2|0,0:0|0:0,0:0:0:0:
249,343,183511,6,0,B|247:333|274:168|270:158,2,187.000005706787,2|10|2,1:2|0:0|0:0,0:0:0:0:
235,366,184869,2,0,B|230:364|208:362|204:360,5,31.1666676177979
256,384,185495,6,0,B|274:392|312:406|366:378|478:301|554:264|567:178|591:101|350:53|315:79|330:162|397:184|327:313|416:344|474:288|307:201|455:144|382:89|317:97|229:156|191:198|187:275|227:338|456:381|556:425|601:337|536:236|497:298,1,1020,2|0,1:2|0:0,0:0:0:0:
256,318,190587,6,0,B|240:292|166:313|147:284,1,113.333333333333,2|2,1:2|0:0,0:0:0:0:
91,330,191213,1,10,0:0:0:0:
72,91,191840,2,0,B|69:109|84:121|75:157,1,56.6666666666667,2|0,0:0|0:0,0:0:0:0:
9,175,192258,1,2,1:2:0:0:
0,140,192466,6,0,B|59:124|108:308|201:151|263:201,1,283.333333333333,2|2,1:2|0:3,0:0:0:0:
322,234,193720,1,2,0:0:0:0:
512,160,194137,1,0,0:0:0:0:
512,160,194242,1,2,0:0:0:0:
512,160,194346,5,6,1:2:0:0:
496,0,194764,5,2,0:0:0:0:
478,68,194973,1,10,0:0:0:0:
365,30,195391,1,2,0:0:0:0:
363,74,195600,1,2,0:0:0:0:
269,70,196017,1,2,0:0:0:0:
278,103,196226,1,2,1:2:0:0:
180,160,196644,5,2,3:2:0:0:
157,122,196853,2,0,B|167:139|146:151|135:96|87:84|72:90|79:107,1,113.333333333333,10|2,0:0|0:3,0:0:0:0:
83,178,197479,1,2,3:2:0:0:
49,177,197706,1,0,3:2:0:0:
33,206,197933,1,0,3:2:0:0:
0,219,198160,6,0,B|10:255|55:297|80:284,1,113.333333333333,2|2,1:2|0:0,0:0:0:0:
87,248,198801,1,8,0:0:0:0:
193,333,199229,1,8,0:3:0:0:
162,265,199443,5,6,0:3:0:0:
15,298,199961,5,6,0:3:0:0:
0,384,200311,5,6,1:2:0:0:
256,192,200623,12,0,205936,0:0:0:0:
