osu file format v14

[General]
AudioFilename: audio.mp3
AudioLeadIn: 0
PreviewTime: 218525
Countdown: 0
SampleSet: Soft
StackLeniency: 0.4
Mode: 0
LetterboxInBreaks: 0
WidescreenStoryboard: 1

[Editor]
DistanceSpacing: 0.5
BeatDivisor: 9
GridSize: 32
TimelineZoom: 2.699999

[Metadata]
Title:Sweet Marriage
TitleUnicode:スイートマリアージュ
Artist:Kamishiro Ami
ArtistUnicode:神代あみ
Creator:-Aqua
Version:Kanna
Source:喫茶ステラと死神の蝶
Tags:明月栞那 Akizuki Kanna 麻倉亜恋 McLaren Makura Aren Cafe Stella to Shinigami no Chou Café Stella and the Reapers' Butterflies Butterfly Japanese Jazz Video Game Death Goddess Cat Strawberry Pancake Full Version エロゲー Eroge ギャルゲーム ギャルゲー Galgame Ending Song ゆずソフト Yuzusoft Visual Novel VN 高嶺昂晴 Takamine Kousei Miyu Famishin Angel Note AngelNote 清水愛 Shimizu Ai Love Daisuki Shizuku- Kazato Asa Shikibe Mayu Ayesha Altugle Laplus- La+
BeatmapID:3539028
BeatmapSetID:1731388

[Difficulty]
HPDrainRate:5
CircleSize:4.5
OverallDifficulty:7
ApproachRate:7
SliderMultiplier:1.9
SliderTickRate:1

[Events]
//Background and Video events
0,0,"kanna family.jpg",0,0
//Break Periods
//Storyboard Layer 0 (Background)
//Storyboard Layer 1 (Fail)
//Storyboard Layer 2 (Pass)
//Storyboard Layer 3 (Foreground)
//Storyboard Layer 4 (Overlay)
//Storyboard Sound Samples
Sample,289020,0,"KannaDaisuki.wav",100

[TimingPoints]
575,623.700623700624,3,2,1,55,1,0
575,-100,3,2,1,55,0,0
4317,-181.818181818181,3,2,1,45,0,0
4421,-181.818181818181,3,2,1,5,0,0
6223,623.700623700624,3,2,1,55,1,0
6223,-133.333333333333,3,2,1,55,0,0
9965,-133.333333333333,3,2,2,55,0,0
10589,626.631853785901,3,2,2,40,1,0
10589,-86.9565217391304,3,2,2,40,0,0
12573,-86.9565217391304,3,2,2,5,0,0
12782,-86.9565217391304,3,2,2,40,0,0
16750,-86.9565217391304,3,2,2,5,0,0
16855,-86.9565217391304,3,2,2,40,0,0
18108,-80,3,2,3,40,0,0
19048,-80,3,2,3,5,0,0
19152,-80,3,2,3,40,0,0
40562,-80,3,2,3,5,0,0
40667,-80,3,2,3,40,0,0
46411,-80,3,2,3,5,0,0
46515,-111.111111111111,3,2,3,40,0,0
48186,-71.4285714285714,3,2,1,55,0,0
49126,-71.4285714285714,3,2,1,5,0,0
49231,-71.4285714285714,3,2,1,55,0,0
56019,-71.4285714285714,3,2,1,5,0,0
56124,-71.4285714285714,3,2,1,55,0,0
63539,-71.4285714285714,3,2,1,5,0,0
63643,-71.4285714285714,3,2,1,55,0,0
67299,-71.4285714285714,3,2,1,5,0,0
67403,-71.4285714285714,3,2,1,55,0,0
71058,-71.4285714285714,3,2,1,5,0,0
71163,-71.4285714285714,3,2,1,55,0,0
73848,626.631853785901,3,2,1,40,1,0
73848,-111.111111111111,3,2,1,40,0,0
74505,626.631853785901,3,2,1,55,1,0
74505,-71.4285714285714,3,2,1,55,0,0
77429,-71.4285714285714,3,2,2,55,0,0
78264,-64.5161290322581,3,2,1,70,0,1
78578,-64.5161290322581,3,2,1,5,0,1
78682,-64.5161290322581,3,2,1,70,0,1
80458,-64.5161290322581,3,2,1,5,0,1
80562,-64.5161290322581,3,2,1,70,0,1
81398,-100,3,2,1,70,0,1
82025,-64.5161290322581,3,2,1,70,0,1
82338,-64.5161290322581,3,2,1,5,0,1
82442,-64.5161290322581,3,2,1,70,0,1
83904,-100,3,2,1,70,0,1
84531,-71.4285714285714,3,2,1,70,0,1
85784,-64.5161290322581,3,2,1,70,0,1
86098,-64.5161290322581,3,2,1,5,0,1
86202,-64.5161290322581,3,2,1,70,0,1
87038,-76.9230769230769,3,2,1,70,0,1
87664,-64.5161290322581,3,2,1,70,0,1
87978,-64.5161290322581,3,2,1,5,0,1
88082,-64.5161290322581,3,2,1,70,0,1
93199,-64.5161290322581,3,2,1,70,0,0
93303,-64.5161290322581,3,2,1,70,0,1
93617,-64.5161290322581,3,2,1,5,0,1
93722,-64.5161290322581,3,2,1,70,0,1
94557,-71.4285714285714,3,2,1,70,0,1
95184,-64.5161290322581,3,2,1,70,0,1
95497,-64.5161290322581,3,2,1,5,0,1
95602,-64.5161290322581,3,2,1,70,0,1
96437,-100,3,2,1,70,0,1
97064,-64.5161290322581,3,2,1,70,0,1
97377,-64.5161290322581,3,2,1,5,0,1
97481,-64.5161290322581,3,2,1,70,0,1
98944,-71.4285714285714,3,2,1,70,0,1
99570,-64.5161290322581,3,2,1,70,0,1
99988,-100,3,2,1,70,0,1
100719,-100,3,2,1,5,0,0
100823,-64.5161290322581,3,2,1,70,0,1
101346,-64.5161290322581,3,2,1,5,0,1
101450,-64.5161290322581,3,2,1,70,0,0
102076,-64.5161290322581,3,2,1,50,0,0
102703,-64.5161290322581,3,2,1,70,0,1
103330,-64.5161290322581,3,2,1,70,0,0
103957,-100,3,2,1,50,0,0
104583,-64.5161290322581,3,2,1,70,0,1
106463,-76.9230769230769,3,2,1,60,0,0
106567,-76.9230769230769,3,2,1,40,0,0
110223,-200,3,2,1,40,0,0
111267,-200,3,2,2,40,0,0
111894,-71.4285714285714,3,2,1,40,0,0
112102,-71.4285714285714,3,2,1,55,0,0
113042,-71.4285714285714,3,2,1,5,0,0
113147,-71.4285714285714,3,2,1,55,0,0
119935,-71.4285714285714,3,2,1,5,0,0
120040,-71.4285714285714,3,2,1,55,0,0
126411,-71.4285714285714,3,2,1,5,0,0
126515,-71.4285714285714,3,2,1,55,0,0
127455,-71.4285714285714,3,2,1,5,0,0
127559,-71.4285714285714,3,2,1,55,0,0
131215,-71.4285714285714,3,2,1,5,0,0
131319,-71.4285714285714,3,2,1,55,0,0
136541,-214.132762312634,3,2,1,40,0,0
138421,-71.4285714285714,3,2,1,55,0,0
138734,-71.4285714285714,3,2,1,5,0,0
138839,-71.4285714285714,3,2,1,55,0,0
140927,-100,3,2,1,55,0,0
141345,-100,3,2,2,55,0,0
142076,-71.4285714285714,3,2,1,5,0,0
142181,-71.4285714285714,3,2,4,50,0,0
144687,-71.4285714285714,3,2,1,50,0,0
144792,-71.4285714285714,3,2,4,50,0,0
145105,-71.4285714285714,3,2,1,50,0,0
145314,-71.4285714285714,3,2,4,50,0,0
146985,-71.4285714285714,3,2,2,50,0,0
147194,-71.4285714285714,3,2,4,50,0,0
150327,-71.4285714285714,3,2,1,50,0,0
150431,-71.4285714285714,3,2,4,50,0,0
154087,-71.4285714285714,3,2,1,50,0,0
154191,-71.4285714285714,3,2,4,50,0,0
155862,-71.4285714285714,3,2,4,5,0,0
155967,-71.4285714285714,3,2,4,50,0,0
156489,-71.4285714285714,3,2,4,5,0,0
156593,-71.4285714285714,3,2,4,50,0,0
157638,-71.4285714285714,3,2,2,50,0,0
157847,-71.4285714285714,3,2,4,50,0,0
159100,-80,3,2,3,40,0,0
177794,-80,3,2,3,5,0,0
177899,-80,3,2,3,40,0,0
187403,-80,3,2,3,5,0,0
187612,-80,3,2,3,40,0,0
187925,-111.111111111111,3,2,3,40,0,0
189178,-71.4285714285714,3,2,1,55,0,0
190118,-71.4285714285714,3,2,1,5,0,0
190223,-71.4285714285714,3,2,1,55,0,0
204531,-71.4285714285714,3,2,1,5,0,0
204635,-71.4285714285714,3,2,1,55,0,0
208290,-71.4285714285714,3,2,1,5,0,0
208395,-71.4285714285714,3,2,1,55,0,0
212050,-71.4285714285714,3,2,1,5,0,0
212155,-71.4285714285714,3,2,1,55,0,0
213617,-142.857142857143,3,2,1,40,0,0
215497,-71.4285714285714,3,2,1,55,0,0
218421,-71.4285714285714,3,2,2,55,0,0
218525,-71.4285714285714,3,2,1,55,0,0
219256,-64.5161290322581,3,2,1,70,0,1
219570,-64.5161290322581,3,2,1,5,0,1
219674,-64.5161290322581,3,2,1,70,0,1
221450,-64.5161290322581,3,2,1,5,0,1
221554,-64.5161290322581,3,2,1,70,0,1
222390,-100,3,2,1,70,0,1
223016,-64.5161290322581,3,2,1,70,0,1
223330,-64.5161290322581,3,2,1,5,0,1
223434,-64.5161290322581,3,2,1,70,0,1
224896,-100,3,2,1,70,0,1
225523,-71.4285714285714,3,2,1,70,0,1
226776,-64.5161290322581,3,2,1,70,0,1
227089,-64.5161290322581,3,2,1,5,0,1
227194,-64.5161290322581,3,2,1,70,0,1
228029,-100,3,2,1,70,0,1
228656,-64.5161290322581,3,2,1,70,0,1
228969,-64.5161290322581,3,2,1,5,0,1
229074,-64.5161290322581,3,2,1,70,0,1
232102,-64.5161290322581,3,2,1,5,0,1
232207,-64.5161290322581,3,2,1,70,0,1
234191,-64.5161290322581,3,2,1,70,0,0
234296,-64.5161290322581,3,2,1,70,0,1
234609,-64.5161290322581,3,2,1,5,0,1
234713,-64.5161290322581,3,2,1,70,0,1
235549,-71.4285714285714,3,2,1,70,0,1
236176,-64.5161290322581,3,2,1,70,0,1
236489,-64.5161290322581,3,2,1,5,0,1
236593,-64.5161290322581,3,2,1,70,0,1
237429,-71.4285714285714,3,2,1,70,0,1
238055,-64.5161290322581,3,2,1,70,0,1
238369,-64.5161290322581,3,2,1,5,0,1
238473,-64.5161290322581,3,2,1,70,0,1
240980,-100,3,2,1,70,0,1
241711,-100,3,2,1,5,0,0
241815,-64.5161290322581,3,2,1,70,0,1
242337,-64.5161290322581,3,2,1,5,0,1
242442,-64.5161290322581,3,2,1,70,0,0
243068,-64.5161290322581,3,2,1,50,0,0
243695,-64.5161290322581,3,2,1,70,0,1
244322,-64.5161290322581,3,2,1,70,0,0
244948,-100,3,2,1,50,0,0
245575,-64.5161290322581,3,2,1,70,0,1
247455,-64.5161290322581,3,2,1,60,0,0
247559,-64.5161290322581,3,2,1,40,0,0
251006,-200,3,2,1,40,0,0
252259,-200,3,2,2,40,0,0
252364,-200,3,2,1,40,0,0
253095,-71.4285714285714,3,2,1,55,0,0
254035,-71.4285714285714,3,2,1,5,0,0
254139,-71.4285714285714,3,2,1,55,0,0
260927,-71.4285714285714,3,2,1,5,0,0
261032,-71.4285714285714,3,2,1,55,0,0
267403,-71.4285714285714,3,2,1,5,0,0
267507,-71.4285714285714,3,2,1,55,0,0
268447,-71.4285714285714,3,2,1,5,0,0
268551,-71.4285714285714,3,2,1,55,0,0
271789,-71.4285714285714,3,2,1,5,0,0
271894,-71.4285714285714,3,2,1,55,0,0
272520,-80,3,2,1,55,0,0
273147,-357.142857142857,3,2,1,55,0,0
273669,-357.142857142857,3,2,1,5,0,0
273773,-100,3,2,1,40,0,0
273982,-100,3,2,1,5,0,0
278160,-100,3,2,1,40,0,0
278980,626.631853785901,3,2,1,40,1,0
278980,-71.4285714285714,3,2,1,55,0,0
280859,646.900269541779,3,2,1,55,1,0
280859,-71.4285714285714,3,2,1,55,0,0
281292,626.631853785901,3,2,1,55,1,0
281292,-71.4285714285714,3,2,1,55,0,0
281485,626.631853785901,3,2,1,55,1,0
281485,-71.4285714285714,3,2,1,55,0,0
282127,626.631853785901,3,1,1,55,1,0
282753,626.631853785901,3,2,1,55,1,0
282753,-71.4285714285714,3,2,1,55,0,0
284632,-76.9230769230769,3,2,1,55,0,0
286543,626.631853785901,3,2,1,55,1,0
286543,-83.3333333333333,3,2,1,55,0,0
287176,668.523676880223,3,2,1,55,1,0
287176,-83.3333333333333,3,2,1,55,0,0
287621,-83.3333333333333,3,2,2,55,0,0
287733,-83.3333333333333,3,2,1,55,0,0
287844,771.704180064309,3,2,1,50,1,0
287844,-100,3,2,1,50,0,0
288707,626.631853785901,3,2,1,40,1,0
288811,-100,3,2,1,40,0,0
289646,-100,3,2,1,35,0,0
290586,-100,3,2,1,30,0,0
291526,-100,3,2,1,25,0,0
292466,-100,3,2,1,20,0,0
293406,-100,3,2,1,15,0,0
294346,-100,3,2,1,10,0,0
294660,-100,3,2,1,5,0,0

[Colours]
Combo1 : 168,211,255
Combo2 : 211,211,211
Combo3 : 249,132,179
Combo4 : 255,255,168

[HitObjects]
160,32,575,6,0,P|99:62|106:104,1,95,2|2,0:0|0:0,0:0:0:0:
0,167,1198,2,0,P|17:208|62:215,1,95,2|2,0:0|0:0,0:0:0:0:
132,290,1822,1,2,0:0:0:0:
118,308,2134,1,2,0:0:0:0:
214,151,2446,6,0,P|259:163|305:177,1,95,2|2,0:0|0:0,0:0:0:0:
387,107,3069,2,0,P|341:94|295:80,1,95,2|2,0:0|0:0,0:0:0:0:
263,10,3693,1,2,0:0:0:0:
263,10,4005,1,2,0:0:0:0:
487,111,4317,6,0,B|385:95|357:186|406:210|356:269|256:258,1,287.375008769989,2|0,0:0|0:0,0:0:0:0:
242,323,6223,6,0,B|264:383|323:363|323:363|316:331|273:326,1,142.500005435944,2|2,0:0|0:0,0:0:0:0:
256,192,7002,12,8,9965,0:3:0:0:
196,170,10173,5,8,0:3:0:0:
305,101,10381,5,4,0:3:0:0:
145,36,10589,6,0,B|55:52|129:105|-5:112,1,145.666669445038,4|2,0:2|0:0,0:0:0:0:
17,91,11215,2,0,P|65:81|108:165,1,145.666669445038,0|0,3:0|0:0,0:0:0:0:
10,232,11842,2,0,P|31:310|47:377,1,145.666669445038,10|2,3:2|1:2,0:0:0:0:
194,133,12468,6,0,P|200:161|208:189,1,36.4166673612595,10|0,0:2|0:0,0:0:0:0:
145,238,13095,6,0,P|150:256|152:268,9,24.2777782408397,2|0|0|0|0|0|0|0|0|0,3:2|3:0|3:0|3:0|3:0|3:0|3:0|3:0|3:0|3:0,0:0:0:0:
286,310,13931,2,0,P|326:296|329:266,1,72.833334722519,8|0,3:2|3:0,0:0:0:0:
369,59,14348,6,0,P|446:102|447:163,1,145.666669445038,4|2,0:2|0:0,0:0:0:0:
433,160,14975,2,0,P|359:178|293:198,1,145.666669445038,0|0,3:0|0:0,0:0:0:0:
181,107,15602,1,2,1:2:0:0:
73,377,16019,5,8,0:2:0:0:
0,340,16228,2,0,P|29:288|148:313,1,182.083336806297,10|0,3:2|0:0,0:0:0:0:
191,247,16855,2,0,P|207:251|222:255,8,24.2777782408397,0|0|0|0|0|0|0|0|0,3:2|3:0|3:0|3:0|3:0|3:0|3:0|3:0|3:0,0:0:0:0:
140,192,17481,1,0,3:0:0:0:
16,91,18108,6,0,P|96:66|169:44,1,158.333333333333,4|0,0:0|0:0,0:0:0:0:
320,128,18735,2,0,P|367:97|362:41,1,118.75,8|0,0:0|0:0,0:0:0:0:
301,0,19152,1,2,0:0:0:0:
292,14,19779,1,2,1:2:0:0:
446,131,19988,6,0,P|460:224|497:378,1,237.5,2|0,1:2|3:0,0:0:0:0:
277,213,21241,1,2,0:0:0:0:
277,213,21450,2,0,P|268:252|262:291,1,79.1666666666667,2|0,0:0|0:0,0:0:0:0:
330,150,21868,6,0,B|225:158|285:214|175:211,1,158.333333333333,2|0,0:2|3:0,0:0:0:0:
5,338,22495,2,0,P|117:352|241:385,1,237.5,8|0,0:0|0:0,0:0:0:0:
101,155,23539,5,2,0:2:0:0:
87,148,23643,1,2,0:2:0:0:
82,134,23748,2,0,P|129:56|257:99,1,237.5,2|0,1:2|3:0,0:0:0:0:
512,0,24792,5,2,0:0:0:0:
438,41,25001,2,0,P|415:159|380:288,1,237.5,2|2,0:0|1:2,0:0:0:0:
302,364,26045,5,2,0:0:0:0:
391,354,26254,2,0,B|310:357|339:288|235:292,1,158.333333333333,8|0,0:0|0:0,0:0:0:0:
85,367,26881,2,0,P|44:376|29:267,1,158.333333333333,2|2,0:0|1:2,0:0:0:0:
84,58,27508,6,0,B|184:130|184:130|136:254,1,237.5,2|0,1:2|3:0,0:0:0:0:
127,228,28761,2,0,P|181:165|229:234,1,158.333333333333,2|2,0:0|0:0,0:0:0:0:
305,238,29387,1,2,1:2:0:0:
239,384,29805,5,0,3:0:0:0:
175,351,30014,2,0,P|254:366|348:389,1,158.333333333333,8|0,0:0|1:0,0:0:0:0:
512,261,30641,6,0,P|473:249|435:241,1,79.1666666666667,2|2,0:0|0:0,0:0:0:0:
435,241,31058,1,2,0:0:0:0:
436,115,31267,6,0,P|397:106|359:94,1,79.1666666666667,2|2,1:2|0:0,0:0:0:0:
291,135,31684,1,2,0:0:0:0:
291,135,31894,1,2,3:2:0:0:
129,176,32521,5,2,3:2:0:0:
132,195,32729,1,0,3:0:0:0:
135,213,32938,1,0,3:0:0:0:
102,333,33147,6,0,P|41:347|5:258,1,158.333333333333,2|2,1:2|0:0,0:0:0:0:
60,145,33774,2,0,P|137:130|214:111,1,158.333333333333,8|0,0:0|0:0,0:0:0:0:
290,155,34401,1,2,0:0:0:0:
221,349,34818,5,2,1:2:0:0:
184,282,35027,2,0,P|222:256|304:318,1,158.333333333333,2|2,1:2|0:0,0:0:0:0:
393,369,35654,1,0,3:0:0:0:
512,207,36280,2,0,P|435:186|352:158,1,158.333333333333,2|0,0:0|0:0,0:0:0:0:
183,14,36907,6,0,B|112:54|112:54|139:136,1,158.333333333333,2|2,1:2|3:2,0:0:0:0:
32,181,37534,2,0,P|89:155|139:249,1,158.333333333333,8|2,0:0|0:0,0:0:0:0:
207,279,38160,1,2,0:0:0:0:
58,377,38578,5,0,1:2:0:0:
9,322,38787,2,0,P|122:351|247:382,1,237.5,2|0,1:2|3:0,0:0:0:0:
512,285,39831,5,0,0:0:0:0:
416,351,40040,2,0,B|312:342|361:280|228:270,1,197.916666666667,2|0,0:0|0:0,0:0:0:0:
194,212,40667,1,2,1:2:0:0:
33,60,41085,5,2,0:0:0:0:
1,153,41293,2,0,P|89:122|172:95,1,158.333333333333,8|0,0:0|0:0,0:0:0:0:
271,198,41920,2,0,P|324:170|303:75,1,158.333333333333,2|2,0:0|1:2,0:0:0:0:
313,82,42547,1,2,1:2:0:0:
174,237,42964,5,2,0:0:0:0:
83,214,43173,2,0,P|114:302|141:385,1,158.333333333333,0|0,3:0|0:0,0:0:0:0:
219,382,43800,1,2,0:0:0:0:
377,222,44427,6,0,B|473:255|405:285|526:319,1,158.333333333333,2|2,1:2|3:2,0:0:0:0:
425,316,45053,1,8,0:0:0:0:
328,128,45680,5,2,3:2:0:0:
278,216,45889,1,0,3:2:0:0:
185,191,46098,1,0,3:2:0:0:
111,301,46307,6,0,L|46:323,1,39.5833333333333,2|0,1:2|0:0,0:0:0:0:
0,316,46933,6,0,L|131:349,1,113.999996520996,2|8,3:0|0:3,0:0:0:0:
110,344,47560,1,4,0:3:0:0:
356,257,47978,5,4,0:3:0:0:
425,316,48186,2,0,B|438:278|472:249|472:249|466:219|398:176,1,177.33332792155,4|2,1:2|0:0,0:0:0:0:
316,33,48813,6,0,P|363:81|433:55,1,132.999995941162,10|0,0:1|0:0,0:0:0:0:
404,0,49231,1,0,3:0:0:0:
512,101,49440,1,2,0:3:0:0:
306,177,49857,5,0,1:0:0:0:
238,232,50066,2,0,P|175:196|67:152,1,177.33332792155,2|0,1:3|0:0,0:0:0:0:
11,121,50693,6,0,P|59:142|144:49,1,177.33332792155,10|0,0:1|0:0,0:0:0:0:
257,124,51320,1,2,0:3:0:0:
309,17,51528,1,2,0:0:0:0:
390,67,51737,1,2,0:0:0:0:
309,17,51946,6,0,B|302:116|387:73|393:159,1,177.33332792155,2|0,0:3|3:0,0:0:0:0:
512,353,52573,2,0,P|472:293|356:342,1,177.33332792155,10|0,0:1|3:0,0:0:0:0:
298,361,53199,2,0,P|254:337|151:335,1,132.999995941162,2|2,0:1|0:0,0:0:0:0:
121,272,53617,5,2,0:0:0:0:
107,262,53722,1,2,0:0:0:0:
105,246,53826,2,0,P|203:246|279:198,1,177.33332792155,2|0,0:3|0:0,0:0:0:0:
269,207,54453,1,10,0:1:0:0:
441,60,54870,5,2,0:0:0:0:
505,130,55079,2,0,B|401:112|478:75|334:44,1,177.33332792155,2|0,0:3|0:0,0:0:0:0:
208,162,55706,6,0,P|223:232|235:306,1,132.999995941162,2|0,1:1|0:0,0:0:0:0:
174,333,56124,1,2,0:0:0:0:
293,220,56333,1,10,0:3:0:0:
512,304,56750,5,0,3:0:0:0:
425,353,56959,2,0,B|431:267|516:310|509:211,1,177.33332792155,2|0,0:3|1:0,0:0:0:0:
512,214,57586,6,0,P|451:204|329:176,1,177.33332792155,2|0,1:3|0:0,0:0:0:0:
109,347,58213,2,0,P|170:357|292:385,1,177.33332792155,10|0,0:1|0:0,0:0:0:0:
180,246,58839,2,0,P|119:236|-3:208,1,177.33332792155,2|0,0:3|0:0,0:0:0:0:
0,226,59466,6,0,B|102:207|51:168|175:141,1,177.33332792155,2|2,1:1|3:2,0:0:0:0:
205,48,60092,1,10,0:1:0:0:
209,68,60510,1,0,3:0:0:0:
342,168,60719,5,2,0:3:0:0:
261,232,60928,1,2,0:0:0:0:
340,43,61137,1,2,1:2:0:0:
278,111,61346,5,2,1:3:0:0:
272,130,61555,1,2,0:0:0:0:
270,150,61764,1,2,0:0:0:0:
270,150,61972,6,0,P|362:118|450:96,1,177.33332792155,10|0,0:3|0:0,0:0:0:0:
512,28,62599,2,0,P|469:15|427:0,1,88.6666639607748,2|0,3:1|3:0,0:0:0:0:
427,0,63017,1,0,3:0:0:0:
389,205,63226,6,0,P|405:279|427:357,1,132.999995941162,2|0,3:3|0:0,0:0:0:0:
372,384,63643,1,2,0:0:0:0:
211,274,63852,2,0,B|107:302|179:352|73:375,1,177.33332792155,10|0,0:1|3:0,0:0:0:0:
164,342,64479,6,0,P|206:345|224:383,1,88.6666639607748,2|2,0:1|0:0,0:0:0:0:
224,383,64897,1,2,1:2:0:0:
31,274,65105,6,0,B|1:192|1:192|94:141,1,177.33332792155,2|0,1:1|0:0,0:0:0:0:
120,68,65732,2,0,P|141:48|94:65,1,177.33332792155,10|0,0:1|0:0,0:0:0:0:
215,201,66359,2,0,P|291:229|348:165,1,177.33332792155,2|0,0:1|0:0,0:0:0:0:
433,90,66985,6,0,P|370:68|305:54,1,132.999995941162,2|0,0:3|0:0,0:0:0:0:
243,92,67403,1,2,0:0:0:0:
340,240,67612,2,0,P|437:261|531:293,1,177.33332792155,10|2,0:1|0:0,0:0:0:0:
511,285,68239,1,2,0:1:0:0:
428,353,68448,2,0,P|385:364|343:379,1,88.6666639607748,2|2,0:0|1:2,0:0:0:0:
140,271,68865,6,0,B|48:228|126:197|-1:149,1,177.33332792155,2|0,1:3|0:0,0:0:0:0:
0,242,69492,1,10,0:1:0:0:
288,116,69910,5,0,0:0:0:0:
256,41,70119,2,0,P|245:124|226:221,1,177.33332792155,2|0,0:1|0:0,0:0:0:0:
26,368,70745,6,0,P|18:305|74:278,1,132.999995941162,2|0,1:1|0:0,0:0:0:0:
117,338,71163,1,2,0:0:0:0:
283,384,71372,2,0,P|350:364|460:348,1,177.33332792155,10|0,0:1|0:0,0:0:0:0:
512,233,71998,6,0,P|441:253|378:168,1,177.33332792155,2|0,0:3|1:0,0:0:0:0:
228,66,72625,1,2,1:3:0:0:
241,49,73848,6,0,P|254:101|265:161,1,113.999996520996,0|0,0:0|0:0,0:0:0:0:
390,260,74505,6,0,P|301:276|214:297,1,177.33332792155,2|2,1:1|3:2,0:0:0:0:
154,370,75132,1,10,0:1:0:0:
230,189,75549,5,0,3:2:0:0:
153,227,75758,2,0,P|109:216|66:208,1,88.6666639607748,2|0,0:3|3:0,0:0:0:0:
66,208,76176,1,0,3:0:0:0:
13,62,76385,5,2,0:3:0:0:
0,81,77011,2,0,P|80:107|143:37,1,177.33332792155,10|8,0:0|3:0,0:0:0:0:
73,0,77638,1,4,3:0:0:0:
223,164,78265,6,0,B|317:188|250:234|364:248,1,147.250001123428,4|0,0:0|0:0,0:0:0:0:
374,306,78682,1,2,0:3:0:0:
494,384,78891,6,0,P|428:361|278:338,1,196.333334831238,8|0,0:0|3:0,0:0:0:0:
125,383,79518,2,0,B|43:384|45:299|45:299|80:312|96:365,1,196.333334831238,2|0,0:3|1:0,0:0:0:0:
178,287,80145,6,0,P|196:234|214:114,1,147.250001123428,2|0,0:3|0:0,0:0:0:0:
285,114,80562,1,2,0:1:0:0:
124,0,80771,6,0,P|91:97|74:199,1,196.333334831238,10|0,0:0|0:0,0:0:0:0:
61,199,81398,2,0,P|0:152|22:103,1,126.666666666667,2|0,0:1|0:0,0:0:0:0:
299,156,82025,6,0,P|371:168|441:191,1,147.250001123428,2|0,0:3|0:0,0:0:0:0:
495,140,82442,1,2,0:1:0:0:
322,52,82651,6,0,P|235:32|213:118,1,196.333334831238,8|0,0:0|3:0,0:0:0:0:
362,203,83278,2,0,B|368:313|274:261|285:388,1,196.333334831238,2|0,0:3|1:0,0:0:0:0:
267,375,83904,6,0,P|285:304|332:269,1,126.666666666667,2|0,0:3|0:0,0:0:0:0:
324,271,84531,1,8,0:0:0:0:
0,229,84949,5,0,0:0:0:0:
30,158,85158,2,0,P|99:220|116:312,1,177.33332792155,2|0,0:1|0:0,0:0:0:0:
107,304,85679,1,0,0:0:0:0:
100,309,85784,6,0,P|114:219|121:161,1,147.250001123428,2|0,0:3|0:0,0:0:0:0:
192,132,86202,1,2,0:3:0:0:
363,266,86411,6,0,B|484:301|398:362|527:380,1,196.333334831238,8|0,0:0|3:0,0:0:0:0:
303,334,87038,2,0,B|197:370|197:370|266:389,1,164.666659128825,2|0,0:3|1:0,0:0:0:0:
446,263,87664,6,0,P|451:194|387:168,1,147.250001123428,2|0,1:3|0:0,0:0:0:0:
336,120,88082,1,2,0:3:0:0:
503,40,88291,6,0,P|399:21|303:-3,1,196.333334831238,10|0,0:0|0:0,0:0:0:0:
230,226,88917,2,0,P|126:245|30:269,1,196.333334831238,2|0,0:3|0:0,0:0:0:0:
34,277,89439,1,0,0:0:0:0:
31,287,89544,6,0,B|133:263|53:192|167:151,1,196.333334831238,2|0,1:1|3:0,0:0:0:0:
196,50,90171,1,10,0:0:0:0:
360,198,90589,5,0,3:0:0:0:
408,139,90797,2,0,P|388:223|380:269,1,98.1666674156189,2|0,0:1|0:0,0:0:0:0:
299,279,91215,1,2,1:2:0:0:
373,379,91424,5,2,1:3:0:0:
295,296,91633,1,2,0:0:0:0:
201,342,91842,1,2,0:0:0:0:
291,317,92051,5,10,0:0:0:0:
197,363,92260,1,2,0:0:0:0:
122,286,92468,1,2,0:0:0:0:
193,384,92677,5,2,3:3:0:0:
197,363,92886,1,0,3:0:0:0:
201,342,93095,1,0,3:0:0:0:
360,198,93304,6,0,P|341:126|327:54,1,147.250001123428,4|0,0:0|0:0,0:0:0:0:
263,31,93721,1,2,0:3:0:0:
191,158,93931,6,0,P|75:180|-38:210,1,196.333334831238,8|0,0:0|1:0,0:0:0:0:
7,184,94557,2,0,B|113:221|48:269|157:292,1,177.33332792155,2|0,0:3|1:0,0:0:0:0:
399,379,95184,6,0,P|460:354|445:275,1,147.250001123428,2|0,1:3|0:0,0:0:0:0:
506,227,95602,1,2,0:3:0:0:
338,278,95810,6,0,P|258:245|278:142,1,196.333334831238,8|0,0:0|0:0,0:0:0:0:
328,64,96437,2,0,P|339:130|356:201,1,126.666666666667,2|0,0:3|0:0,0:0:0:0:
82,198,97064,6,0,P|67:285|47:371,1,147.250001123428,2|0,0:3|0:0,0:0:0:0:
119,384,97481,1,2,0:3:0:0:
328,314,97690,6,0,B|436:323|387:252|520:253,1,196.333334831238,8|0,0:0|3:0,0:0:0:0:
509,273,98317,2,0,P|413:254|308:225,1,196.333334831238,2|0,0:3|1:0,0:0:0:0:
188,104,98944,6,0,P|246:29|315:59,1,177.33332792155,2|0,0:3|0:0,0:0:0:0:
311,53,99570,1,8,0:0:0:0:
251,273,99988,5,0,0:0:0:0:
238,348,100197,2,0,P|151:365|57:391,1,158.333333333333,2|0,0:1|0:0,0:0:0:0:
0,322,100823,6,0,B|37:275|12:208|12:208|36:283|126:286,1,245.416668539047,4|0,1:2|0:0,0:0:0:0:
157,340,101450,1,8,0:0:0:0:
154,353,102077,1,0,3:2:0:0:
290,143,102495,5,0,1:2:0:0:
352,184,102703,2,0,B|407:214|422:157|408:112|336:88|294:140,1,196.333334831238,4|0,1:2|0:0,0:0:0:0:
216,43,103330,1,8,0:0:0:0:
348,291,103957,6,0,P|449:258|492:249,1,126.666666666667,0|2,3:2|0:0,0:0:0:0:
375,375,104583,6,0,B|272:347|369:287|227:241,1,196.333334831238,2|0,0:3|3:0,0:0:0:0:
0,135,105210,2,0,P|69:166|139:64,1,196.333334831238,8|0,0:0|0:0,0:0:0:0:
51,212,105837,5,2,0:3:0:0:
170,272,106045,5,0,3:0:0:0:
108,344,106254,5,0,3:0:0:0:
120,361,106463,5,2,0:3:0:0:
256,192,106568,12,2,108343,0:0:0:0:
168,106,108760,5,0,0:0:0:0:
362,72,110014,5,0,0:0:0:0:
325,0,110223,2,0,P|312:50|279:164,1,158.333333333333,2|8,0:0|3:0,0:0:0:0:
343,213,111476,1,4,3:0:0:0:
132,357,111894,5,0,0:0:0:0:
56,322,112102,2,0,P|77:268|181:276,1,177.33332792155,4|2,1:2|0:0,0:0:0:0:
320,342,112729,6,0,P|384:358|448:377,1,132.999995941162,10|0,0:1|0:0,0:0:0:0:
510,340,113147,1,0,3:0:0:0:
379,384,113356,1,2,0:3:0:0:
218,157,113773,5,0,1:0:0:0:
273,220,113982,2,0,B|371:206|307:152|430:125,1,177.33332792155,2|0,1:3|0:0,0:0:0:0:
450,50,114609,2,0,P|476:12|462:76,1,177.33332792155,10|0,0:3|0:0,0:0:0:0:
492,86,115236,1,2,0:3:0:0:
289,25,115653,5,0,0:0:0:0:
225,84,115862,2,0,P|161:64|48:33,1,177.33332792155,2|2,0:1|0:0,0:0:0:0:
171,187,116489,2,0,P|85:210|0:236,1,177.33332792155,10|0,0:1|3:0,0:0:0:0:
54,182,117115,5,2,0:3:0:0:
158,267,117324,1,2,0:0:0:0:
90,336,117533,1,2,1:2:0:0:
158,267,117742,6,0,B|256:281|196:354|315:362,1,177.33332792155,2|0,0:3|0:0,0:0:0:0:
354,308,118369,1,10,0:3:0:0:
409,128,118995,6,0,P|329:113|277:186,1,177.33332792155,2|0,0:3|0:0,0:0:0:0:
512,357,119622,6,0,P|474:305|381:332,1,132.999995941162,2|0,1:3|0:0,0:0:0:0:
344,349,120040,1,2,0:0:0:0:
344,349,120249,1,10,0:1:0:0:
183,202,120666,5,0,3:0:0:0:
261,160,120875,2,0,P|242:264|225:333,1,177.33332792155,2|0,0:3|1:0,0:0:0:0:
235,348,121502,6,0,P|255:261|271:174,1,177.33332792155,2|0,0:3|0:0,0:0:0:0:
399,283,122129,2,0,P|379:196|363:109,1,177.33332792155,10|2,0:1|0:0,0:0:0:0:
109,175,122755,2,0,P|129:88|145:1,1,177.33332792155,2|0,0:1|0:0,0:0:0:0:
144,1,123382,1,2,1:3:0:0:
6,241,123800,5,2,3:2:0:0:
33,156,124008,2,0,B|143:195|61:254|206:275,1,177.33332792155,10|0,0:1|3:0,0:0:0:0:
288,370,124635,2,0,B|330:396|364:366|364:366|383:303|319:247,1,177.33332792155,2|2,0:3|1:2,0:0:0:0:
274,197,125262,6,0,P|342:178|374:164,1,88.6666639607748,2|2,1:3|0:0,0:0:0:0:
358,171,125679,1,2,0:0:0:0:
512,61,125888,2,0,P|385:30|263:-14,1,221.666659901937,10|0,0:3|0:0,0:0:0:0:
377,50,126515,5,2,3:1:0:0:
381,64,126724,1,0,3:0:0:0:
385,78,126933,1,0,3:0:0:0:
485,174,127142,6,0,B|408:201|465:242|363:257,1,132.999995941162,2|0,3:3|0:0,0:0:0:0:
367,322,127559,1,2,0:0:0:0:
240,142,127768,2,0,B|197:161|193:210|193:210|198:156|168:127,1,177.33332792155,10|0,0:1|3:0,0:0:0:0:
274,217,128395,6,0,P|184:232|88:263,1,177.33332792155,2|0,0:3|1:0,0:0:0:0:
41,324,129021,1,2,1:3:0:0:
74,109,129439,5,0,0:0:0:0:
0,81,129648,2,0,P|87:66|172:40,1,177.33332792155,10|2,0:1|0:0,0:0:0:0:
369,172,130275,2,0,P|426:169|446:60,1,177.33332792155,2|0,0:1|0:0,0:0:0:0:
303,87,130901,6,0,P|291:156|270:224,1,132.999995941162,2|0,1:2|0:0,0:0:0:0:
327,268,131319,1,2,0:0:0:0:
91,330,131528,2,0,P|106:240|133:151,1,177.33332792155,10|0,0:1|3:0,0:0:0:0:
131,157,132155,1,2,0:3:0:0:
391,309,132572,5,0,1:2:0:0:
335,376,132780,2,0,B|434:374|376:294|502:287,1,177.33332792155,2|2,1:3|0:0,0:0:0:0:
511,90,133408,2,0,P|470:161|392:136,1,177.33332792155,10|0,0:1|0:0,0:0:0:0:
406,55,134035,1,2,0:3:0:0:
416,34,134661,6,0,P|360:21|228:-2,1,177.33332792155,2|2,1:1|0:0,0:0:0:0:
52,182,135288,2,0,P|108:169|240:146,1,177.33332792155,10|0,0:1|3:0,0:0:0:0:
292,209,135914,1,2,0:3:0:0:
308,223,136541,6,0,B|310:331|209:276|239:410,1,177.33332792155,2|0,3:3|0:0,0:0:0:0:
247,362,138421,6,0,P|238:293|227:213,1,132.999995941162,2|0,1:3|0:0,0:0:0:0:
161,190,138839,1,2,3:2:0:0:
91,68,139048,2,0,P|42:58|39:174,1,177.33332792155,10|0,0:1|3:2,0:0:0:0:
208,125,139674,5,2,0:3:0:0:
310,188,139883,1,0,3:0:0:0:
391,91,140092,1,0,3:0:0:0:
374,68,140301,5,2,1:3:0:0:
374,67,140927,2,0,P|384:116|409:219,1,126.666666666667,10|8,0:0|3:0,0:0:0:0:
284,222,141554,2,0,P|272:275|245:388,1,158.333333333333,4|0,3:0|0:0,0:0:0:0:
512,379,142181,6,0,B|401:361|480:293|329:289,1,177.33332792155,6|10,1:2|0:0,0:0:0:0:
249,377,142807,2,0,P|162:355|76:336,1,177.33332792155,10|2,0:3|1:2,0:0:0:0:
28,266,143434,1,2,0:3:0:0:
191,129,143851,5,2,3:2:0:0:
247,65,144060,2,0,B|324:122|324:122|283:213,1,177.33332792155,2|2,1:3|0:0,0:0:0:0:
290,196,144687,1,10,0:1:0:0:
377,297,144896,2,0,P|417:306|441:271,1,88.6666639607748,2|2,0:0|3:2,0:0:0:0:
211,263,145314,6,0,B|102:281|185:349|55:359,1,177.33332792155,2|0,0:3|3:0,0:0:0:0:
7,315,145836,1,0,0:0:0:0:
1,298,145940,1,2,0:3:0:0:
155,198,146149,6,0,P|164:158|174:95,1,88.6666639607748,2|8,0:0|0:0,0:0:0:0:
68,33,146567,2,0,P|164:16|259:-4,1,177.33332792155,10|8,0:3|3:0,0:0:0:0:
312,50,147193,1,4,3:0:0:0:
499,109,147402,5,2,0:0:0:0:
403,151,147611,1,2,1:2:0:0:
256,214,147820,6,0,B|156:188|235:120|113:100,1,177.33332792155,2|8,0:3|0:2,0:0:0:0:
58,175,148447,2,0,P|20:204|64:177,1,177.33332792155,10|2,0:3|0:2,0:0:0:0:
223,351,149073,6,0,P|310:366|397:384,1,177.33332792155,2|8,0:3|0:2,0:0:0:0:
485,340,149700,1,2,0:3:0:0:
496,338,149804,1,2,0:2:0:0:
502,330,149909,2,0,B|531:343|558:313|530:276|478:215|415:307,1,177.33332792155,2|10,0:2|0:1,0:0:0:0:
292,155,150744,5,2,1:2:0:0:
368,89,150953,2,0,P|383:144|401:197,1,88.6666639607748,2|0,0:1|3:2,0:0:0:0:
392,174,151371,1,0,3:2:0:0:
207,9,151580,6,0,P|192:84|165:185,1,177.33332792155,2|8,0:3|0:2,0:0:0:0:
113,259,152207,2,0,P|72:233|75:189,1,88.6666639607748,10|2,0:3|0:2,0:0:0:0:
71,196,152624,1,2,0:2:0:0:
273,290,152833,2,0,P|268:332|231:352,1,88.6666639607748,2|2,0:3|0:2,0:0:0:0:
231,351,153250,1,10,0:2:0:0:
259,166,153460,6,0,P|344:189|431:206,1,177.33332792155,2|0,0:3|3:2,0:0:0:0:
495,290,154086,1,10,0:1:0:0:
283,384,154504,5,0,3:2:0:0:
239,314,154713,2,0,P|188:327|135:338,1,88.6666639607748,2|10,0:1|0:2,0:0:0:0:
152,335,155131,1,10,0:2:0:0:
82,194,155340,5,2,1:1:0:0:
0,198,155549,2,0,P|-2:135|55:110,1,132.999995941162,2|0,0:0|0:0,0:0:0:0:
79,35,155967,2,0,B|202:57|128:140|246:162,1,221.666659901937,10|0,0:3|0:0,0:0:0:0:
293,216,156593,5,2,0:1:0:0:
310,209,156802,1,0,3:0:0:0:
325,203,157011,1,0,3:0:0:0:
446,134,157220,6,0,P|436:192|417:315,1,177.33332792155,2|8,1:3|3:0,0:0:0:0:
326,351,157847,1,4,3:0:0:0:
179,218,158264,5,0,3:0:0:0:
115,177,158473,2,0,B|98:198|53:137|122:71|218:91|204:160,1,177.33332792155,2|0,1:3|0:0,0:0:0:0:
246,190,158995,1,0,0:0:0:0:
257,182,159100,6,0,P|238:111|214:15,1,158.333333333333,4|0,0:0|0:0,0:0:0:0:
217,28,159726,1,8,0:0:0:0:
347,120,160144,6,0,P|434:130|477:-5,1,237.5,2|2,0:0|1:2,0:0:0:0:
452,8,160980,2,0,B|414:148|555:88|508:236,1,237.5,2|2,1:2|3:2,0:0:0:0:
326,384,162233,2,0,P|337:327|339:283,1,79.1666666666667,2|2,0:0|0:0,0:0:0:0:
338,306,162651,1,0,0:0:0:0:
428,286,162860,6,0,P|330:268|257:245,1,158.333333333333,2|0,1:2|3:0,0:0:0:0:
183,316,163486,2,0,P|83:290|8:402,1,237.5,8|2,0:0|0:0,0:0:0:0:
115,81,164531,5,2,0:2:0:0:
123,70,164635,1,2,0:2:0:0:
131,61,164739,2,0,B|237:100|237:100|197:242,1,237.5,2|0,1:2|3:0,0:0:0:0:
401,367,165784,5,2,0:0:0:0:
512,333,165993,2,0,B|390:316|486:227|333:178,1,237.5,2|2,0:0|1:2,0:0:0:0:
221,331,167037,5,2,0:0:0:0:
148,384,167246,2,0,P|84:357|-25:324,1,158.333333333333,8|0,0:0|0:0,0:0:0:0:
0,253,167873,1,2,0:0:0:0:
166,164,168290,5,2,1:2:0:0:
97,132,168499,2,0,B|146:90|127:16|127:16|139:89|224:96,1,237.5,2|0,1:2|3:0,0:0:0:0:
387,211,169753,2,0,P|459:157|425:91,1,158.333333333333,2|0,0:0|1:0,0:0:0:0:
361,142,170379,6,0,P|349:217|330:309,1,158.333333333333,2|2,1:2|3:2,0:0:0:0:
422,334,171006,1,8,0:0:0:0:
186,384,171424,5,0,1:0:0:0:
253,350,171632,2,0,P|244:310|238:271,1,79.1666666666667,2|2,0:0|0:0,0:0:0:0:
239,273,172050,1,2,0:0:0:0:
84,249,172259,6,0,P|91:215|98:171,1,79.1666666666667,2|2,1:2|0:0,0:0:0:0:
170,144,172677,1,2,0:0:0:0:
170,144,172886,2,0,B|304:203|205:267|347:309,1,237.5,2|2,3:2|3:2,0:0:0:0:
386,228,173721,1,0,3:0:0:0:
411,219,173930,1,0,3:0:0:0:
512,104,174139,6,0,P|526:32|460:1,1,158.333333333333,2|2,1:2|0:0,0:0:0:0:
420,69,174766,1,8,0:0:0:0:
287,94,175183,5,2,0:0:0:0:
322,184,175392,2,0,P|203:147|157:131,1,158.333333333333,2|2,0:0|1:2,0:0:0:0:
112,51,176019,2,0,P|94:1|142:39,1,158.333333333333,0|2,1:2|0:0,0:0:0:0:
141,39,176645,1,0,3:0:0:0:
167,256,177272,6,0,P|141:230|46:317,1,197.916666666667,2|0,0:0|0:0,0:0:0:0:
113,340,177899,2,0,P|191:352|268:368,1,158.333333333333,0|2,1:2|3:2,0:0:0:0:
343,302,178525,1,8,0:0:0:0:
474,178,178943,5,2,0:0:0:0:
418,97,179152,2,0,B|322:112|392:171|270:173,1,158.333333333333,2|0,0:0|1:2,0:0:0:0:
343,302,179779,6,0,P|304:220|164:257,1,237.5,2|0,1:2|3:0,0:0:0:0:
19,44,180823,1,0,0:0:0:0:
26,61,181032,1,2,0:0:0:0:
113,289,181659,6,0,P|125:221|139:122,1,158.333333333333,0|2,1:2|0:0,0:0:0:0:
209,87,182285,1,8,0:0:0:0:
281,259,182703,5,0,0:0:0:0:
319,188,182912,2,0,P|330:266|343:344,1,158.333333333333,2|0,0:0|1:2,0:0:0:0:
267,384,183538,1,0,1:2:0:0:
454,223,183956,5,2,0:0:0:0:
512,160,184165,2,0,B|397:134|461:77|321:26,1,237.5,0|2,3:0|0:0,0:0:0:0:
150,169,185418,6,0,B|45:201|45:201|122:211,1,158.333333333333,0|2,1:2|3:2,0:0:0:0:
171,88,186045,1,8,0:0:0:0:
278,234,186672,5,2,3:2:0:0:
360,317,186880,1,0,3:2:0:0:
286,384,187089,1,0,3:2:0:0:
367,298,187298,6,0,L|436:280,1,39.5833333333333,2|0,1:2|0:0,0:0:0:0:
286,384,187925,6,0,L|174:355,1,113.999996520996,2|8,3:0|0:3,0:0:0:0:
175,355,188551,1,4,0:3:0:0:
325,134,188969,5,4,0:3:0:0:
299,58,189178,2,0,P|289:156|275:248,1,177.33332792155,4|2,1:2|0:0,0:0:0:0:
437,360,189805,2,0,P|507:310|482:271,1,132.999995941162,10|0,0:1|0:0,0:0:0:0:
424,274,190223,1,0,3:0:0:0:
316,355,190431,5,2,0:3:0:0:
203,263,190640,1,2,0:0:0:0:
114,331,190849,1,2,1:2:0:0:
132,343,191058,6,0,B|165:269|165:269|83:214,1,177.33332792155,2|0,1:3|0:0,0:0:0:0:
0,106,191685,6,0,B|111:70|25:19|156:-6,1,177.33332792155,10|0,0:1|0:0,0:0:0:0:
203,60,192311,1,2,0:3:0:0:
198,78,192520,1,2,0:0:0:0:
379,16,192938,6,0,P|387:-10|388:35,1,177.33332792155,2|0,0:3|3:0,0:0:0:0:
294,106,193565,2,0,P|381:121|467:140,1,177.33332792155,10|0,0:1|3:0,0:0:0:0:
512,268,194191,6,0,P|433:281|355:299,1,132.999995941162,2|2,0:1|0:0,0:0:0:0:
353,363,194609,1,2,0:0:0:0:
349,375,194713,1,2,0:0:0:0:
342,382,194818,2,0,P|287:369|298:252,1,177.33332792155,2|0,0:3|0:0,0:0:0:0:
217,203,195444,1,10,0:1:0:0:
53,304,195862,5,2,0:0:0:0:
101,366,196071,2,0,P|89:309|65:186,1,177.33332792155,2|0,0:3|0:0,0:0:0:0:
155,35,196698,6,0,B|158:5|232:-6|266:35|291:68|262:86|235:66,1,177.33332792155,2|2,1:1|0:0,0:0:0:0:
174,113,197324,1,10,0:3:0:0:
291,214,197742,5,0,3:0:0:0:
354,137,197951,2,0,B|452:172|364:241|492:262,1,177.33332792155,2|0,0:3|1:0,0:0:0:0:
475,248,198578,6,0,P|393:277|290:322,1,177.33332792155,2|0,1:3|0:0,0:0:0:0:
233,166,199204,2,0,P|151:137|48:92,1,177.33332792155,10|0,0:1|0:0,0:0:0:0:
169,289,199831,2,0,P|87:318|-16:363,1,177.33332792155,2|0,0:3|0:0,0:0:0:0:
0,341,200458,6,0,P|25:317|117:386,1,177.33332792155,2|2,1:1|3:2,0:0:0:0:
117,384,201084,1,10,0:1:0:0:
287,298,201502,5,0,3:0:0:0:
372,381,201711,5,2,0:3:0:0:
279,282,201920,1,2,0:0:0:0:
449,206,202129,1,2,1:2:0:0:
386,288,202337,5,2,1:3:0:0:
388,271,202546,1,2,0:0:0:0:
391,253,202755,1,2,0:0:0:0:
512,73,202964,6,0,P|426:95|374:25,1,177.33332792155,10|0,0:3|0:0,0:0:0:0:
324,127,203591,2,0,P|259:148|227:161,1,88.6666639607748,2|0,3:1|3:0,0:0:0:0:
240,156,204008,1,0,3:0:0:0:
62,63,204217,6,0,B|13:117|13:117|52:185,1,132.999995941162,2|0,3:3|0:0,0:0:0:0:
0,236,204635,1,2,0:0:0:0:
135,338,204844,2,0,P|200:304|166:213,1,177.33332792155,10|0,0:1|3:0,0:0:0:0:
159,214,205471,6,0,P|154:253|214:268,1,88.6666639607748,2|2,0:1|0:0,0:0:0:0:
191,276,205888,1,2,1:2:0:0:
320,364,206097,6,0,P|406:338|494:320,1,177.33332792155,2|0,1:1|0:0,0:0:0:0:
511,201,206724,2,0,P|441:227|373:145,1,177.33332792155,10|0,0:1|0:0,0:0:0:0:
217,88,207350,2,0,P|211:26|233:84,1,177.33332792155,2|0,0:1|0:0,0:0:0:0:
201,178,207977,6,0,B|121:197|180:245|81:256,1,132.999995941162,2|0,0:3|0:0,0:0:0:0:
63,324,208395,1,2,0:0:0:0:
81,247,208604,2,0,P|129:235|202:333,1,177.33332792155,10|2,0:1|0:0,0:0:0:0:
203,321,209230,1,2,0:1:0:0:
299,384,209439,2,0,L|318:271,1,88.6666639607748,2|2,0:0|1:2,0:0:0:0:
502,216,209857,6,0,B|415:184|482:150|370:98,1,177.33332792155,2|0,1:3|0:0,0:0:0:0:
353,10,210484,1,10,0:1:0:0:
216,182,210901,5,0,0:0:0:0:
157,249,211110,2,0,B|111:242|104:185|104:185|117:233|82:281,1,177.33332792155,2|0,0:1|0:0,0:0:0:0:
0,119,211737,6,0,P|-8:56|46:26,1,132.999995941162,2|0,1:1|0:0,0:0:0:0:
104,79,212155,1,2,0:0:0:0:
216,182,212364,6,0,P|271:194|395:222,1,177.33332792155,10|0,0:1|0:0,0:0:0:0:
512,244,212990,2,0,P|457:256|333:284,1,177.33332792155,2|0,0:3|1:0,0:0:0:0:
158,349,213617,6,0,P|187:219|215:89,1,265.999991882324,2|0,3:3|0:0,0:0:0:0:
198,73,215497,6,0,B|182:173|282:138|264:238,1,177.33332792155,2|2,1:1|3:2,0:0:0:0:
193,278,216123,1,10,0:1:0:0:
415,146,216541,5,0,3:2:0:0:
488,204,216750,2,0,P|497:247|507:290,1,88.6666639607748,2|0,0:3|3:0,0:0:0:0:
507,290,217168,1,0,3:0:0:0:
348,384,217377,5,2,0:3:0:0:
327,375,218003,2,0,B|321:301|413:283|465:327|432:362|397:340,1,177.33332792155,10|8,0:0|3:0,0:0:0:0:
278,243,218630,1,4,3:0:0:0:
265,225,219256,6,0,P|191:212|87:192,1,147.250001123428,4|0,0:0|0:0,0:0:0:0:
59,241,219674,1,2,0:3:0:0:
0,47,219883,6,0,P|75:82|162:-10,1,196.333334831238,8|0,0:0|3:0,0:0:0:0:
280,129,220510,2,0,B|387:162|328:225|467:239,1,196.333334831238,2|0,0:3|1:0,0:0:0:0:
450,225,221136,6,0,P|419:207|362:295,1,147.250001123428,2|0,0:3|0:0,0:0:0:0:
411,319,221554,1,2,0:1:0:0:
243,357,221763,6,0,P|199:382|119:259,1,196.333334831238,10|0,0:0|0:0,0:0:0:0:
49,223,222390,2,0,P|12:197|46:226,1,126.666666666667,2|0,0:1|0:0,0:0:0:0:
137,67,222912,5,0,0:0:0:0:
148,78,223016,2,0,B|185:93|194:149|194:149|180:104|216:68,1,147.250001123428,2|0,0:3|0:0,0:0:0:0:
248,43,223434,1,2,0:1:0:0:
326,145,223643,6,0,P|250:168|133:213,1,196.333334831238,8|0,0:0|3:0,0:0:0:0:
307,310,224270,2,0,P|383:333|500:378,1,196.333334831238,2|0,0:3|1:0,0:0:0:0:
478,352,224896,6,0,P|434:332|391:389,1,126.666666666667,2|0,1:3|0:0,0:0:0:0:
390,384,225523,1,8,0:0:0:0:
106,282,225941,5,0,0:0:0:0:
7,237,226149,2,0,B|101:226|34:152|161:130,1,177.33332792155,2|0,0:1|0:0,0:0:0:0:
271,22,226672,5,0,0:0:0:0:
283,34,226776,2,0,P|272:103|259:188,1,147.250001123428,2|0,0:3|0:0,0:0:0:0:
199,230,227194,1,2,0:3:0:0:
344,370,227403,6,0,P|437:345|409:251,1,196.333334831238,8|0,0:0|3:0,0:0:0:0:
412,253,228029,2,0,P|405:318|465:339,1,126.666666666667,2|0,0:3|1:0,0:0:0:0:
503,148,228656,6,0,P|431:131|359:113,1,147.250001123428,2|0,1:3|0:0,0:0:0:0:
299,160,229074,1,2,0:3:0:0:
169,298,229283,2,0,B|115:276|105:219|105:219|119:271|79:317,1,196.333334831238,10|0,0:0|0:0,0:0:0:0:
289,179,229909,6,0,B|309:71|195:119|232:-11,1,196.333334831238,2|0,0:3|0:0,0:0:0:0:
241,0,230431,1,0,0:0:0:0:
249,8,230536,6,0,P|235:87|205:204,1,196.333334831238,2|0,1:1|3:0,0:0:0:0:
281,272,231162,1,10,0:0:0:0:
470,384,231580,5,0,3:0:0:0:
470,384,231789,2,0,P|520:363|498:272,1,147.250001123428,2|0,0:1|0:0,0:0:0:0:
439,294,232207,1,2,1:2:0:0:
375,152,232416,5,2,1:3:0:0:
282,200,232625,1,2,0:0:0:0:
223,113,232833,1,2,0:0:0:0:
235,99,233042,5,10,0:0:0:0:
142,51,233251,1,2,0:0:0:0:
83,138,233459,1,2,0:0:0:0:
142,51,233669,5,2,3:3:0:0:
137,32,233878,1,0,3:0:0:0:
132,14,234087,1,0,3:0:0:0:
42,212,234296,6,0,B|130:246|58:289|171:313,1,147.250001123428,4|0,0:0|0:0,0:0:0:0:
175,377,234713,1,2,0:3:0:0:
361,289,234922,6,0,P|391:240|347:286,1,196.333334831238,8|0,0:0|1:0,0:0:0:0:
292,351,235549,2,0,P|389:321|476:307,1,177.33332792155,2|0,0:3|1:0,0:0:0:0:
512,113,236176,6,0,P|454:135|389:72,1,147.250001123428,2|0,1:3|0:0,0:0:0:0:
327,45,236593,1,2,0:3:0:0:
189,190,236802,6,0,P|90:161|-30:137,1,196.333334831238,8|0,0:0|0:0,0:0:0:0:
0,160,237429,2,0,B|87:144|34:73|138:45,1,177.33332792155,2|0,0:3|0:0,0:0:0:0:
235,116,237951,5,0,0:0:0:0:
242,129,238055,2,0,B|331:164|265:205|389:234,1,147.250001123428,2|0,0:3|0:0,0:0:0:0:
407,168,238473,1,2,0:3:0:0:
190,240,238682,6,0,B|110:293|110:293|153:387,1,196.333334831238,8|0,0:0|3:0,0:0:0:0:
246,332,239309,2,0,P|346:351|456:377,1,196.333334831238,2|0,0:3|1:0,0:0:0:0:
512,159,239935,6,0,P|476:92|350:136,1,196.333334831238,2|0,0:3|0:0,0:0:0:0:
368,103,240562,1,8,0:0:0:0:
117,228,240980,5,0,0:0:0:0:
172,159,241189,2,0,P|156:239|136:327,1,158.333333333333,2|0,0:1|0:0,0:0:0:0:
140,314,241815,6,0,B|126:355|73:319|91:250|149:210|222:212|273:301|207:338,1,245.416668539047,4|0,1:2|0:0,0:0:0:0:
197,372,242442,1,8,0:0:0:0:
193,383,243068,1,0,3:2:0:0:
384,195,243486,5,0,1:2:0:0:
439,264,243695,2,0,P|416:169|392:45,1,196.333334831238,4|0,1:2|0:0,0:0:0:0:
252,19,244322,1,8,0:0:0:0:
238,33,244948,6,0,P|233:81|311:78,1,126.666666666667,0|2,3:2|0:0,0:0:0:0:
160,224,245575,6,0,B|38:244|125:319|-23:327,1,196.333334831238,2|0,0:3|3:0,0:0:0:0:
0,306,246202,2,0,P|100:325|206:360,1,196.333334831238,8|0,0:0|0:0,0:0:0:0:
334,262,246828,5,2,0:3:0:0:
422,345,247037,5,0,3:0:0:0:
489,292,247246,5,0,3:0:0:0:
504,310,247455,5,2,1:3:0:0:
256,192,247559,12,2,249335,0:0:0:0:
189,353,249753,5,0,0:0:0:0:
384,180,251006,5,0,0:0:0:0:
435,124,251215,2,0,B|493:130|513:166|513:166|489:142|451:145,1,158.333333333333,2|8,0:0|3:0,0:0:0:0:
384,180,252468,1,4,3:0:0:0:
192,84,252886,5,0,0:0:0:0:
177,11,253095,2,0,P|117:12|116:121,1,177.33332792155,4|2,1:2|0:0,0:0:0:0:
11,237,253721,6,0,P|80:252|151:274,1,132.999995941162,10|0,0:1|0:0,0:0:0:0:
177,335,254139,1,0,3:0:0:0:
317,227,254348,1,2,0:3:0:0:
310,244,254766,1,0,1:0:0:0:
243,176,254974,6,0,B|236:82|330:136|309:-7,1,177.33332792155,2|0,1:3|0:0,0:0:0:0:
299,11,255601,2,0,P|283:64|386:88,1,177.33332792155,10|0,0:3|0:0,0:0:0:0:
376,97,256228,1,2,0:3:0:0:
457,327,256645,5,0,0:0:0:0:
512,264,256854,2,0,P|422:283|330:312,1,177.33332792155,2|2,0:1|0:0,0:0:0:0:
144,140,257481,2,0,B|172:189|155:228|155:228|163:187|214:166,1,177.33332792155,10|0,0:1|3:0,0:0:0:0:
92,319,258108,2,0,P|44:288|51:233,1,88.6666639607748,2|2,0:3|0:0,0:0:0:0:
40,261,258525,1,2,1:2:0:0:
247,256,258734,6,0,B|343:286|278:354|406:366,1,177.33332792155,2|0,1:3|0:0,0:0:0:0:
449,321,259361,1,10,0:3:0:0:
428,310,259988,6,0,B|319:328|381:374|253:383,1,177.33332792155,2|0,0:3|0:0,0:0:0:0:
410,142,260614,6,0,P|469:121|511:167,1,132.999995941162,2|0,1:3|0:0,0:0:0:0:
456,216,261032,1,2,0:0:0:0:
299,31,261241,6,0,B|221:75|221:75|250:172,1,177.33332792155,10|0,0:1|3:0,0:0:0:0:
246,159,261867,1,2,0:3:0:0:
25,114,262285,5,0,1:0:0:0:
92,153,262494,2,0,P|80:249|67:343,1,177.33332792155,2|0,1:3|0:0,0:0:0:0:
150,377,263121,1,10,0:1:0:0:
288,182,263538,5,2,0:0:0:0:
343,241,263747,2,0,P|331:145|318:51,1,177.33332792155,2|0,0:1|0:0,0:0:0:0:
320,65,264374,1,2,1:3:0:0:
438,337,264792,5,2,3:2:0:0:
454,264,265001,2,0,P|408:243|337:338,1,177.33332792155,10|0,0:1|3:0,0:0:0:0:
183,198,265627,6,0,P|201:141|196:203,1,177.33332792155,2|2,0:3|1:2,0:0:0:0:
127,260,266254,2,0,P|62:242|32:236,1,88.6666639607748,2|2,1:3|0:0,0:0:0:0:
41,237,266672,1,2,0:0:0:0:
0,88,266880,6,0,B|38:50|21:-19|21:-19|38:51|116:66,1,221.666659901937,10|0,0:3|0:0,0:0:0:0:
151,8,267507,5,2,3:1:0:0:
165,12,267716,1,0,3:0:0:0:
181,16,267925,1,0,3:0:0:0:
268,152,268134,6,0,B|343:137|292:92|386:72,1,132.999995941162,2|0,3:3|0:0,0:0:0:0:
397,9,268551,1,2,0:0:0:0:
343,215,268760,6,0,P|264:188|171:167,1,177.33332792155,10|0,0:1|3:0,0:0:0:0:
27,316,269387,2,0,B|-1:335|-42:282|38:205|136:270|107:329,1,177.33332792155,2|0,0:3|1:0,0:0:0:0:
158,360,270014,1,2,1:3:0:0:
343,215,270431,5,0,0:0:0:0:
381,286,270640,2,0,P|445:268|411:156,1,177.33332792155,10|2,0:1|0:0,0:0:0:0:
425,158,271267,6,0,B|413:283|524:236|500:361,1,221.666659901937,2|0,0:1|0:0,0:0:0:0:
435,384,271894,1,2,1:2:0:0:
230,260,272311,5,2,0:0:0:0:
199,187,272520,2,0,P|182:266|156:365,1,158.333333333333,10|0,0:1|3:0,0:0:0:0:
246,341,273147,6,0,P|253:374|264:415,1,44.3333319803874,2|0,0:3|0:0,0:0:0:0:
333,258,273878,6,0,B|379:205|408:189|454:226|489:200|514:133|484:71|409:77|374:122|374:122|363:44|270:20|205:127|265:191|321:164|333:205|332:257,1,633.333333333333,2|0,1:3|0:0,0:0:0:0:
332,236,278160,5,0,0:0:0:0:
332,236,278369,1,0,0:0:0:0:
213,100,278980,6,0,B|114:142|196:186|84:218,1,177.33332792155,2|2,1:1|0:0,0:0:0:0:
0,257,279606,2,0,P|92:244|130:308,1,177.33332792155,10|0,0:1|0:0,0:0:0:0:
200,360,280233,1,2,0:3:0:0:
354,307,280651,5,0,1:0:0:0:
388,377,280859,2,0,P|403:292|418:185,1,177.33332792155,2|2,1:3|0:0,0:0:0:0:
469,140,281485,2,0,P|494:104|471:149,1,177.33332792155,10|0,0:1|3:0,0:0:0:0:
490,168,282128,1,2,0:3:0:0:
310,30,282545,5,2,0:0:0:0:
303,23,282650,1,2,0:0:0:0:
294,14,282754,2,0,B|206:42|206:42|226:138,1,177.33332792155,6|2,0:0|0:0,0:0:0:0:
102,196,283379,2,0,P|22:178|30:97,1,177.33332792155,10|2,0:3|0:0,0:0:0:0:
106,105,284006,1,2,0:3:0:0:
295,185,284425,5,2,0:0:0:0:
300,192,284528,1,2,0:0:0:0:
307,199,284632,2,0,B|404:230|347:277|455:293,1,164.666659128825,2|2,0:3|3:2,0:0:0:0:
447,273,285259,2,0,P|367:292|288:318,1,164.666659128825,10|2,0:3|0:0,0:0:0:0:
198,384,285887,5,2,0:3:0:0:
182,379,286096,1,0,3:0:0:0:
164,373,286303,1,0,3:0:0:0:
0,214,286543,6,0,P|65:240|109:183,1,151.999995361328,2|2,1:3|0:0,0:0:0:0:
172,124,287176,1,10,0:1:0:0:
164,105,287621,1,4,3:0:0:0:
326,3,287844,6,0,P|343:75|366:146,1,126.666666666667,2|4,0:3|3:0,0:0:0:0:
457,177,288707,1,2,0:3:0:0:
256,192,288811,12,0,294660,0:0:0:0:
