osu file format v14

[General]
AudioFilename: audio.mp3
AudioLeadIn: 0
PreviewTime: 60182
Countdown: 0
SampleSet: Soft
StackLeniency: 0
Mode: 0
LetterboxInBreaks: 0
WidescreenStoryboard: 1

[Editor]
Bookmarks: 2195,13902,25610,49024,60732,84146,95854,107561,119268,133902,157317,169024,180732
DistanceSpacing: 1.2
BeatDivisor: 4
GridSize: 8
TimelineZoom: 1.7

[Metadata]
Title:No. 5
TitleUnicode:N°5
Artist:Kamisama Club
ArtistUnicode:神様クラブ
Creator:dsco
Version:Hard
Source:
Tags:number jura art pop electronic japanese japan tokiko fsjallink fanzhen fanzhen0019
BeatmapID:3475431
BeatmapSetID:1626872

[Difficulty]
HPDrainRate:4
CircleSize:4
OverallDifficulty:6
ApproachRate:8
SliderMultiplier:1.45
SliderTickRate:1

[Events]
//Background and Video events
0,0,"carlosneda2.jpg",0,0
//Break Periods
2,49193,59357
2,128217,130011
2,167363,168243
//Storyboard Layer 0 (Background)
//Storyboard Layer 1 (Fail)
//Storyboard Layer 2 (Pass)
//Storyboard Layer 3 (Foreground)
//Storyboard Layer 4 (Overlay)
//Storyboard Sound Samples

[TimingPoints]
2175,365.519342065184,4,2,1,60,1,0
13872,365.853658536585,4,2,1,60,1,0
133871,-100,4,2,1,70,0,1
157286,-100,4,2,1,60,0,0

[Colours]
Combo1 : 248,240,143
Combo2 : 243,169,208

[HitObjects]
140,162,1808,5,0,1:0:0:0:
143,76,1991,1,0,1:0:0:0:
216,121,2174,6,0,L|287:127,1,72.5,2|0,3:0|0:0,0:0:0:0:
357,181,2539,2,0,L|501:194,1,145,8|0,0:1|0:0,0:0:0:0:
425,234,3087,1,8,0:1:0:0:
430,239,3453,6,0,L|436:310,1,72.5,2|0,0:0|0:0,0:0:0:0:
356,179,3818,2,0,L|349:107,1,72.5,8|0,0:1|0:0,0:0:0:0:
296,39,4184,1,2,0:0:0:0:
230,95,4367,2,0,L|158:88,1,72.5,2|0,0:0|0:0,0:0:0:0:
91,144,4732,2,0,L|19:137,1,72.5,8|0,0:1|0:0,0:0:0:0:
144,212,5098,6,0,L|157:356,1,145,2|8,3:0|0:1,0:0:0:0:
162,361,5829,1,2,0:0:0:0:
197,280,6011,2,0,L|268:286,1,72.5,8|0,0:1|0:0,0:0:0:0:
144,212,6377,2,0,L|0:225,1,145,2|8,0:0|0:1,0:0:0:0:
68,172,6925,1,2,0:0:0:0:
144,212,7108,1,0,0:0:0:0:
197,280,7291,2,0,L|268:286,1,72.5,2|0,0:0|0:0,0:0:0:0:
322,354,7656,2,0,L|394:360,1,72.5,8|2,0:1|0:0,0:0:0:0:
459,303,8022,5,2,3:0:0:0:
464,308,8387,2,0,L|451:164,1,145,8|2,0:1|0:0,0:0:0:0:
367,137,8936,2,0,L|360:64,1,72.5,8|0,0:1|0:0,0:0:0:0:
289,109,9301,2,0,L|302:253,2,145,2|8|2,0:0|0:1|0:0,0:0:0:0:
207,80,10215,2,0,L|200:7,1,72.5,2|2,0:0|0:0,0:0:0:0:
129,52,10580,2,0,L|135:124,1,72.5,8|2,0:1|0:0,0:0:0:0:
63,167,10946,5,2,3:0:0:0:
68,172,11311,2,0,L|212:159,1,145,8|2,0:1|0:0,0:0:0:0:
289,109,11860,2,0,L|295:36,1,72.5,8|0,0:1|0:0,0:0:0:0:
293,199,12225,2,0,L|437:212,2,145,2|8|2,0:0|0:1|0:0,0:0:0:0:
216,248,13139,1,0,0:0:0:0:
212,158,13322,1,2,3:0:0:0:
213,139,13413,1,0,3:0:0:0:
215,121,13505,2,0,L|218:84,2,36.25,10|10|10,0:1|0:0|0:0,0:0:0:0:
135,207,13871,6,0,L|38:215,2,72.5,4|0|8,0:0|0:0|0:0,0:0:0:0:
292,35,14603,2,0,L|388:43,2,72.5,2|0|8,3:0|0:0|0:0,0:0:0:0:
218,84,15151,1,2,0:0:0:0:
275,149,15334,6,0,L|283:245,1,72.5
368,211,15700,2,0,L|361:138,1,72.5,10|0,0:0|0:0,0:0:0:0:
448,129,16066,2,0,L|454:201,2,72.5,0|2|8,0:0|0:0|0:0,0:0:0:0:
292,35,16798,6,0,L|219:28,2,72.5,2|0|8,3:0|0:0|0:0,0:0:0:0:
448,129,17529,2,0,L|520:135,2,72.5,2|0|8,3:0|0:0|0:0,0:0:0:0:
375,177,18078,1,2,0:0:0:0:
350,260,18261,6,0,P|310:301|208:316,1,145,2|8,0:0|0:0,0:0:0:0:
164,258,18810,1,0,0:0:0:0:
82,287,18993,2,0,P|58:272|1:262,2,72.5,0|2|8,0:0|0:0|0:0,0:0:0:0:
223,185,19724,5,2,3:0:0:0:
227,189,20090,2,0,L|233:112,1,72.5,8|0,0:0|0:0,0:0:0:0:
311,78,20456,1,2,3:0:0:0:
384,124,20639,2,0,L|378:196,1,72.5,2|8,0:0|0:0,0:0:0:0:
299,233,21005,1,0,0:0:0:0:
372,280,21188,5,0,0:0:0:0:
441,329,21371,2,0,P|477:318|530:324,1,72.5,0|10,0:0|0:0,0:0:0:0:
363,362,21737,1,0,0:0:0:0:
289,315,21920,2,0,P|253:304|200:310,1,72.5,0|2,0:0|0:0,0:0:0:0:
207,308,22194,1,0,0:0:0:0:
196,313,22285,2,0,P|160:324|107:318,1,72.5,8|0,0:0|0:0,0:0:0:0:
52,274,22651,5,2,3:0:0:0:
94,197,22834,1,0,0:0:0:0:
44,125,23017,1,8,0:0:0:0:
86,48,23200,1,0,0:0:0:0:
174,44,23383,2,0,P|227:62|327:63,1,145,2|8,3:0|0:0,0:0:0:0:
443,183,24115,6,0,P|480:168|525:164,2,72.5,2|0|8,0:0|0:0|0:0,0:0:0:0:
386,248,24663,1,0,0:0:0:0:
385,260,24755,1,2,0:0:0:0:
384,272,24846,2,0,L|377:350,1,72.5,2|2,3:0|3:0,0:0:0:0:
290,336,25212,2,0,L|296:263,1,72.5,2|2,3:0|3:0,0:0:0:0:
231,204,25578,6,0,L|63:218,1,145,4|8,0:0|0:1,0:0:0:0:
8,176,26127,2,0,L|1:254,2,72.5,0|0|8,0:0|0:0|0:1,0:0:0:0:
135,296,26859,5,0,0:0:0:0:
140,301,27224,2,0,L|64:294,1,72.5,8|0,0:1|0:0,0:0:0:0:
83,135,27773,6,0,L|76:62,1,72.5,2|2,0:0|0:0,0:0:0:0:
163,55,28139,2,0,L|169:127,1,72.5,2|2,0:0|0:0,0:0:0:0:
240,177,28505,6,0,P|271:156|398:163,1,145,2|8,3:0|0:1,0:0:0:0:
446,100,29054,2,0,P|484:117|529:124,2,72.5,0|0|8,0:0|0:0|0:1,0:0:0:0:
409,270,29785,5,0,0:0:0:0:
414,275,30151,1,8,0:1:0:0:
419,280,30517,1,0,0:0:0:0:
375,151,30883,6,0,P|367:115|351:82,2,72.5,2|8|2,0:0|0:1|0:0,0:0:0:0:
315,214,31432,6,0,L|302:362,1,145,2|8,3:0|0:1,0:0:0:0:
258,283,31981,1,0,0:0:0:0:
202,349,32163,2,0,L|113:357,1,72.5,0|8,0:0|0:1,0:0:0:0:
135,361,32712,5,0,0:0:0:0:
67,306,32895,2,0,P|92:264|86:160,1,145,2|2,0:0|0:0,0:0:0:0:
262,138,33627,2,0,P|254:66|285:2,1,145,2|8,0:0|0:1,0:0:0:0:
256,192,34359,12,2,36920,0:0:0:0:
256,192,37285,6,0,L|243:337,1,145,4|8,0:0|0:1,0:0:0:0:
163,300,37834,2,0,L|80:307,2,72.5,0|0|8,0:0|0:0|0:1,0:0:0:0:
321,374,38566,5,0,0:0:0:0:
326,379,38932,2,0,L|408:371,1,72.5,8|0,0:1|0:0,0:0:0:0:
498,238,39481,6,0,L|491:310,1,72.5,2|2,0:0|0:0,0:0:0:0:
405,300,39846,2,0,L|411:227,1,72.5,2|2,0:0|0:0,0:0:0:0:
347,168,40212,6,0,P|319:196|206:198,1,145,2|8,3:0|0:1,0:0:0:0:
150,149,40761,2,0,P|136:114|140:68,2,72.5,0|0|8,0:0|0:0|0:1,0:0:0:0:
36,281,41493,5,2,0:0:0:0:
41,286,41859,1,8,0:1:0:0:
46,291,42224,1,2,0:0:0:0:
218,204,42590,6,0,P|253:190|299:194,2,72.5,2|8|2,0:0|0:1|0:0,0:0:0:0:
152,145,43139,6,0,L|4:132,1,145,2|8,3:0|0:1,0:0:0:0:
85,92,43688,1,0,0:0:0:0:
157,150,43871,2,0,L|164:232,1,72.5,0|8,0:0|0:1,0:0:0:0:
285,97,44420,5,0,0:0:0:0:
357,144,44603,2,0,P|327:208|347:295,1,145,2|2,0:0|0:0,0:0:0:0:
482,376,45334,2,0,P|512:312|492:225,1,145,2|8,0:0|0:1,0:0:0:0:
256,192,46066,12,2,48627,0:0:0:0:
256,192,48993,5,4,0:0:0:0:
256,192,60151,5,2,3:0:0:0:
256,180,60243,1,0,3:0:0:0:
256,168,60334,2,0,L|256:92,1,72.5,10|2,0:1|0:0,0:0:0:0:
183,46,60700,6,0,L|32:32,1,145,4|8,0:0|0:0,0:0:0:0:
30,150,61249,1,0,0:0:0:0:
108,187,61432,2,0,L|120:331,1,145,2|8,0:0|0:0,0:0:0:0:
208,373,61981,1,0,0:0:0:0:
199,286,62163,6,0,L|279:293,2,72.5,2|0|8,0:0|0:0|0:0,0:0:0:0:
191,198,62712,1,0,0:0:0:0:
182,111,62895,2,0,L|37:98,1,145,2|8,0:0|0:0,0:0:0:0:
174,23,63444,1,2,0:0:0:0:
252,61,63627,5,4,0:0:0:0:
257,66,63993,2,0,L|264:146,1,72.5,8|0,0:0|0:0,0:0:0:0:
350,129,64359,2,0,L|343:56,1,72.5,2|0,0:0|0:0,0:0:0:0:
416,185,64724,2,0,L|409:258,1,72.5,8|0,0:0|0:0,0:0:0:0:
495,267,65090,2,0,L|501:194,1,72.5,2|0,0:0|0:0,0:0:0:0:
334,303,65456,5,8,0:0:0:0:
263,252,65639,2,0,L|111:238,1,145
124,244,66371,1,0,0:0:0:0:
45,193,66554,6,0,L|37:112,1,72.5,4|0,0:0|0:0,0:0:0:0:
117,85,66920,2,0,L|124:157,1,72.5,8|0,0:0|0:0,0:0:0:0:
196,49,67285,1,2,0:0:0:0:
275,13,67468,1,0,0:0:0:0:
311,92,67651,2,0,L|383:97,1,72.5,8|0,0:0|0:0,0:0:0:0:
232,128,68017,6,0,L|160:121,1,72.5,2|0,0:0|0:0,0:0:0:0:
275,13,68383,1,8,0:0:0:0:
311,92,68566,2,0,L|325:236,1,145
406,269,69115,2,0,L|478:276,1,72.5,8|0,0:0|0:0,0:0:0:0:
335,318,69481,5,4,0:0:0:0:
254,285,69663,1,0,0:0:0:0:
173,251,69846,2,0,L|180:179,1,72.5,8|0,0:0|0:0,0:0:0:0:
92,217,70212,1,2,0:0:0:0:
97,222,70578,5,8,0:0:0:0:
268,139,70761,2,0,L|255:-4,1,145,2|0,0:0|0:0,0:0:0:0:
176,33,71310,1,8,0:0:0:0:
184,119,71493,1,0,0:0:0:0:
268,139,71676,2,0,L|275:211,1,72.5,2|8,3:0|0:0,0:0:0:0:
362,204,72042,2,0,L|355:132,1,72.5,0|8,3:0|0:0,0:0:0:0:
448,209,72407,6,0,L|520:216,2,72.5,4|0|8,0:0|0:0|0:0,0:0:0:0:
460,337,72956,1,0,0:0:0:0:
374,349,73139,2,0,L|361:180,1,145,2|8,0:0|0:0,0:0:0:0:
277,198,73688,1,0,0:0:0:0:
288,361,73871,5,2,0:0:0:0:
293,366,74237,1,8,0:0:0:0:
206,378,74420,2,0,L|193:209,1,145
201,238,75151,1,0,0:0:0:0:
109,227,75334,5,4,0:0:0:0:
114,232,75700,2,0,L|119:159,1,72.5,8|0,0:0|0:0,0:0:0:0:
206,165,76066,2,0,L|200:237,1,72.5,2|0,0:0|0:0,0:0:0:0:
275,282,76432,2,0,L|280:354,1,72.5,8|0,0:0|0:0,0:0:0:0:
367,349,76797,2,0,L|361:276,1,72.5
436,232,77163,5,8,0:0:0:0:
394,155,77346,2,0,L|405:10,1,145
321,35,77895,2,0,L|315:108,1,72.5,8|0,0:0|0:0,0:0:0:0:
309,194,78261,5,4,0:0:0:0:
314,199,78627,1,8,0:0:0:0:
391,157,78810,1,0,0:0:0:0:
361,276,78993,2,0,L|367:349,1,72.5,2|0,0:0|0:0,0:0:0:0:
436,232,79359,2,0,L|508:226,1,72.5,8|0,0:0|0:0,0:0:0:0:
391,157,79724,5,2,0:0:0:0:
316,201,79907,1,0,0:0:0:0:
241,245,80090,1,8,0:0:0:0:
166,289,80273,1,0,0:0:0:0:
171,294,80639,2,0,L|165:366,1,72.5,0|8,0:0|0:0,0:0:0:0:
169,371,81188,6,0,L|97:377,1,72.5,4|0,0:2|0:0,0:0:0:0:
104,227,81554,2,0,L|176:221,1,72.5,8|0,0:0|0:0,0:0:0:0:
254,261,81920,2,0,L|399:250,1,145,2|8,0:0|0:0,0:0:0:0:
330,301,82468,1,0,0:0:0:0:
254,261,82651,2,0,L|260:189,1,72.5,2|2,0:0|0:0,0:0:0:0:
184,148,83017,1,8,0:0:0:0:
107,107,83200,1,2,0:0:0:0:
112,112,83566,5,2,0:0:0:0:
189,153,83749,1,2,0:0:0:0:
266,194,83932,1,2,0:0:0:0:
343,235,84115,5,2,0:3:0:0:
506,176,84481,2,0,L|512:104,2,72.5,8|2|2,0:1|0:0|0:0,0:0:0:0:
343,235,85212,2,0,L|349:163,2,72.5,8|2|2,0:1|0:0|0:0,0:0:0:0:
180,294,85944,2,0,L|186:222,1,72.5,8|2,0:0|0:0,0:0:0:0:
125,158,86310,6,0,P|95:172|47:162,1,72.5,2|2,0:0|0:0,0:0:0:0:
45,80,86676,2,0,P|75:66|123:76,1,72.5,8|0,0:0|0:0,0:0:0:0:
193,105,87042,5,2,3:0:0:0:
101,240,87407,2,0,L|83:416,1,145,8|2,0:0|0:0,0:0:0:0:
48,308,87956,1,2,0:0:0:0:
101,240,88139,2,0,L|277:222,1,145,8|2,0:0|0:0,0:0:0:0:
169,187,88688,1,2,0:0:0:0:
101,240,88871,6,0,P|71:254|23:244,1,72.5,8|2,0:0|0:0,0:0:0:0:
21,162,89237,2,0,P|51:148|99:158,1,72.5,2|2,0:0|0:0,0:0:0:0:
169,187,89603,1,8,0:0:0:0:
199,110,89785,1,2,0:0:0:0:
123,72,89968,5,2,3:0:0:0:
276,140,90334,2,0,L|348:134,2,72.5,8|2|2,0:0|0:0|0:0,0:0:0:0:
245,223,90883,1,0,0:0:0:0:
214,306,91066,1,8,0:0:0:0:
164,182,91249,1,2,0:0:0:0:
169,187,91615,1,2,0:0:0:0:
245,223,91798,6,0,P|280:228|313:213,1,72.5,8|2,0:0|0:0,0:0:0:0:
381,165,92163,2,0,P|367:131|338:110,1,72.5,2|2,0:0|0:0,0:0:0:0:
264,76,92529,2,0,P|241:104|238:139,1,72.5,8|2,0:0|0:0,0:0:0:0:
169,187,92895,5,2,3:0:0:0:
245,223,93078,2,0,L|239:294,2,72.5,2|8|2,0:0|0:0|0:0,0:0:0:0:
321,259,93627,1,2,3:0:0:0:
397,223,93810,2,0,L|391:152,1,72.5,2|8,0:0|0:0,0:0:0:0:
473,187,94176,5,2,0:0:0:0:
478,192,94542,2,0,L|484:264,1,72.5,2|0,0:0|0:0,0:0:0:0:
401,291,94907,1,2,3:0:0:0:
402,310,95000,1,0,3:0:0:0:
404,328,95090,2,0,L|407:365,2,36.25,8|8|0,0:1|0:0|0:0,0:0:0:0:
315,317,95456,2,0,L|309:246,1,72.5,2|2,3:0|3:2,0:0:0:0:
219,233,95822,5,4,0:0:0:0:
223,237,96188,2,0,B|216:246|203:253|188:258|172:256|157:250,1,72.5,2|0,0:0|0:0,0:0:0:0:
86,196,96554,2,0,B|79:190|74:182|69:161|71:137|77:130|84:122,1,72.5,2|0,0:0|0:0,0:0:0:0:
154,84,96920,2,0,B|163:77|170:65|169:45|165:25|154:11,1,72.5,2|0,0:0|0:0,0:0:0:0:
74,0,97285,5,2,0:0:0:0:
6,55,97468,2,0,B|9:69|14:74|24:83|40:90|71:88,1,72.5,2|0,0:0|0:0,0:0:0:0:
114,159,97834,2,0,B|116:149|120:141|131:132|147:125|160:123|176:127,1,72.5,2|0,0:0|0:0,0:0:0:0:
251,89,98200,2,0,B|275:116|304:126|346:135|376:130|401:119,1,145,2|2,0:0|0:0,0:0:0:0:
469,101,98749,6,0,B|462:93|458:80|457:65|459:51|462:37|470:19|477:5|494:-15,2,108.75,2|2|2,0:0|0:0|0:0,0:0:0:0:
447,185,99481,2,0,B|451:190|458:200|461:216|461:236|449:266|442:276|432:282|423:285,2,108.75,2|2|2,0:0|0:0|0:0,0:0:0:0:
385,125,100212,2,0,B|379:119|368:113|351:113|337:116|327:121|319:131,1,72.5,2|2,0:0|0:0,0:0:0:0:
267,201,100578,2,0,B|262:211|262:220|266:230|274:235|277:244|279:259|276:272|271:276,1,72.5,2|2,0:0|0:0,0:0:0:0:
211,331,100944,2,0,B|198:338|184:341|170:338|158:332|146:320|139:308|130:296|115:287|95:286|82:290,1,145,2|2,0:0|0:0,0:0:0:0:
7,336,101493,2,0,B|20:342|36:344|55:340|67:331|74:320|75:309,1,72.5,2|4,0:0|0:0,0:0:0:0:
77,324,102042,6,0,B|84:315|88:301|88:282|84:268|78:258|72:250,1,72.5,2|0,0:0|0:0,0:0:0:0:
13,194,102407,2,0,B|10:191|4:181|0:167|0:148|4:134|11:125,1,72.5,2|0,0:0|0:0,0:0:0:0:
85,78,102773,2,0,B|95:73|110:71|136:79|148:89|150:98,1,72.5,2|0,0:0|0:0,0:0:0:0:
189,174,103139,5,2,0:0:0:0:
257,227,103322,2,0,B|266:232|276:236|290:238|308:238|324:235|336:227,1,72.5
390,170,103688,2,0,B|397:154|399:139|397:125|389:110|379:103,1,72.5,2|0,0:0|0:0,0:0:0:0:
299,67,104054,2,0,B|289:62|270:58|253:62|241:69|232:82|221:92|206:96|194:98|182:95|172:90|163:84,1,145,2|2,0:0|0:0,0:0:0:0:
99,24,104603,6,0,B|120:47|120:47|100:168,1,145,4|0,0:0|0:0,0:0:0:0:
33,213,105151,2,0,B|14:325|14:325|35:348,1,145,4|0,0:0|0:0,0:0:0:0:
40,353,105883,6,0,B|63:332|63:332|184:352,1,145,4|0,0:0|0:0,0:0:0:0:
254,312,106432,2,0,B|366:330|366:330|389:309,1,145,4|0,0:0|0:0,0:0:0:0:
394,314,107163,2,0,B|401:308|407:298|411:275|404:253|394:245,1,72.5,2|0,0:0|0:0,0:0:0:0:
337,181,107529,6,0,L|344:97,1,72.5,4|2,0:0|0:0,0:0:0:0:
422,71,107895,2,0,L|429:-12,1,72.5,8|2,0:1|0:0,0:0:0:0:
256,192,108261,12,8,110090,0:0:0:0:
175,181,110456,6,0,L|167:97,1,72.5,4|2,0:0|0:0,0:0:0:0:
90,71,110822,2,0,L|82:-12,1,72.5,8|2,0:1|0:0,0:0:0:0:
256,192,111188,12,8,113017,0:0:0:0:
343,108,113383,6,0,L|337:181,1,72.5,4|2,0:0|0:0,0:0:0:0:
422,71,113749,2,0,L|430:-12,1,72.5,8|2,0:1|0:0,0:0:0:0:
256,192,114115,12,8,115944,0:0:0:0:
168,108,116310,6,0,L|175:181,1,72.5,6|2,0:0|0:0,0:0:0:0:
90,71,116676,2,0,L|82:-12,1,72.5,8|2,0:0|0:0,0:0:0:0:
0,142,117042,2,0,L|72:148,1,72.5,2|2,0:0|0:0,0:0:0:0:
67,235,117407,2,0,L|-5:228,1,72.5,8|2,0:0|0:0,0:0:0:0:
61,321,117773,5,2,0:0:0:0:
139,283,117956,1,2,0:0:0:0:
220,309,118139,1,10,0:0:0:0:
258,384,118322,1,2,0:0:0:0:
308,313,118505,6,0,L|301:240,1,72.5,2|2,0:0|0:0,0:0:0:0:
387,235,118870,2,0,L|393:307,1,72.5,8|8,0:0|0:0,0:0:0:0:
472,229,119237,5,4,0:0:0:0:
256,192,122163,1,0,3:0:0:0:
40,229,125090,5,4,0:0:0:0:
256,192,128017,1,4,0:0:0:0:
256,192,130761,12,8,132407,0:0:0:0:
256,192,133688,5,2,0:0:0:0:
256,103,133871,6,0,L|407:89,1,145,4|8,0:0|0:0,0:0:0:0:
409,207,134420,1,0,0:0:0:0:
331,242,134603,2,0,L|319:386,1,145,2|8,0:0|0:0,0:0:0:0:
240,343,135152,1,0,0:0:0:0:
154,352,135334,6,0,L|74:359,2,72.5,2|0|8,0:0|0:0|0:0,0:0:0:0:
188,271,135883,1,0,0:0:0:0:
223,190,136066,2,0,L|368:177,1,145,2|8,0:0|0:0,0:0:0:0:
258,109,136615,1,0,0:0:0:0:
142,198,136798,5,4,0:0:0:0:
147,203,137163,2,0,L|140:283,1,72.5,8|0,0:0|0:0,0:0:0:0:
53,264,137529,2,0,L|59:191,1,72.5,2|0,0:0|0:0,0:0:0:0:
113,122,137895,2,0,L|193:115,1,72.5,8|0,0:0|0:0,0:0:0:0:
174,28,138261,2,0,L|101:34,1,72.5,2|0,0:0|0:0,0:0:0:0:
30,84,138627,5,8,0:0:0:0:
59,191,138810,2,0,L|45:346,1,145
52,341,139542,1,0,0:0:0:0:
129,303,139724,2,0,L|201:309,1,72.5,4|0,0:0|0:0,0:0:0:0:
278,271,140090,2,0,L|351:277,1,72.5,8|0,0:0|0:0,0:0:0:0:
239,194,140456,1,2,0:0:0:0:
162,232,140639,1,0,0:0:0:0:
201,309,140822,2,0,L|194:381,1,72.5,8|0,0:0|0:0,0:0:0:0:
239,194,141188,6,0,L|245:121,1,72.5,2|0,0:0|0:0,0:0:0:0:
162,232,141554,1,8,0:0:0:0:
278,271,141737,2,0,L|442:284,1,145
499,242,142285,2,0,L|505:169,1,72.5,8|0,0:0|0:0,0:0:0:0:
495,326,142651,5,4,0:0:0:0:
422,282,142834,1,0,0:0:0:0:
349,238,143017,2,0,L|355:165,1,72.5,8|0,0:0|0:0,0:0:0:0:
271,189,143383,1,2,0:0:0:0:
276,194,143749,5,8,0:0:0:0:
203,150,143932,2,0,L|191:5,1,145
140,205,144481,1,8,0:0:0:0:
76,259,144663,1,0,0:0:0:0:
157,290,144846,2,0,L|150:362,1,72.5,2|8,3:0|0:0,0:0:0:0:
237,374,145212,2,0,L|243:301,1,72.5,0|8,3:0|0:0,0:0:0:0:
310,245,145578,6,0,L|382:238,2,72.5,4|0|8,0:0|0:0|0:0,0:0:0:0:
320,158,146127,1,0,0:0:0:0:
185,82,146310,2,0,L|330:71,1,145,2|8,0:0|0:0,0:0:0:0:
396,14,146859,1,0,0:0:0:0:
315,153,147042,5,2,0:0:0:0:
320,158,147407,1,8,0:0:0:0:
330,71,147590,2,0,L|161:84,1,145
190,87,148323,1,0,0:0:0:0:
179,179,148506,5,4,0:0:0:0:
184,184,148871,2,0,L|179:257,1,72.5,8|0,0:0|0:0,0:0:0:0:
92,251,149237,2,0,L|98:179,1,72.5
52,104,149603,2,0,L|47:31,1,72.5,8|0,0:0|0:0,0:0:0:0:
133,26,149968,2,0,L|139:98,1,72.5,2|0,0:0|0:0,0:0:0:0:
225,87,150334,1,8,0:0:0:0:
184,184,150517,2,0,L|172:328,1,145
85,336,151066,2,0,L|13:342,1,72.5,8|0,0:0|0:0,0:0:0:0:
86,248,151432,5,4,0:0:0:0:
91,253,151798,1,8,0:0:0:0:
85,336,151981,1,0,0:0:0:0:
8,247,152163,2,0,L|14:175,1,72.5,2|0,0:0|0:0,0:0:0:0:
97,170,152529,2,0,L|103:98,1,72.5,8|0,0:0|0:0,0:0:0:0:
192,10,152895,5,0,0:0:0:0:
186,93,153078,1,2,0:0:0:0:
269,99,153261,1,0,0:0:0:0:
275,16,153444,1,0,0:0:0:0:
280,21,153810,2,0,L|353:14,1,72.5,0|8,0:0|0:0,0:0:0:0:
357,19,154359,6,0,L|351:91,1,72.5,4|2,0:0|0:0,0:0:0:0:
437,99,154724,2,0,L|443:27,1,72.5,8|2,0:0|0:0,0:0:0:0:
384,168,155090,2,0,L|395:312,1,145,2|8,0:0|0:0,0:0:0:0:
481,328,155639,1,0,0:0:0:0:
309,298,155822,6,0,L|303:370,1,72.5,4|2,0:0|0:0,0:0:0:0:
223,282,156188,1,10,0:0:0:0:
395,312,156371,1,2,0:0:0:0:
400,317,156737,5,0,3:0:0:0:
419,318,156828,1,0,3:0:0:0:
437,320,156920,2,0,L|474:323,2,36.25,10|10|2,0:0|0:1|0:0,0:0:0:0:
428,233,157285,6,0,L|422:161,2,72.5,4|0|8,0:0|0:0|0:0,0:0:0:0:
225,281,158017,2,0,L|231:353,2,72.5,2|0|8,3:0|0:0|0:0,0:0:0:0:
139,265,158566,1,2,0:0:0:0:
190,195,158749,6,0,L|196:123,1,72.5,2|0,0:0|0:0,0:0:0:0:
108,114,159115,2,0,L|102:186,1,72.5,8|0,0:0|0:0,0:0:0:0:
14,176,159481,2,0,L|20:104,2,72.5,2|0|8,0:0|0:0|0:0,0:0:0:0:
190,195,160212,6,0,L|196:267,2,72.5,4|0|8,0:0|0:0|0:0,0:0:0:0:
366,214,160944,2,0,L|372:286,2,72.5,2|0|8,3:0|0:0|0:0,0:0:0:0:
452,225,161493,1,2,0:0:0:0:
419,144,161676,6,0,P|437:110|410:1,1,145,2|8,0:0|0:0,0:0:0:0:
331,0,162224,1,0,0:0:0:0:
250,33,162407,2,0,P|229:42|168:35,2,72.5,2|0|8,0:0|0:0|0:0,0:0:0:0:
419,144,163139,5,4,0:0:0:0:
424,149,163505,2,0,L|430:226,1,72.5,8|0,0:0|0:0,0:0:0:0:
437,308,163871,1,2,3:0:0:0:
358,271,164054,2,0,L|352:198,1,72.5,2|8,0:0|0:0,0:0:0:0:
345,112,164420,1,2,0:0:0:0:
273,161,164603,5,2,0:0:0:0:
357,203,164785,2,0,P|397:192|426:160,1,72.5,0|8,0:0|0:0,0:0:0:0:
278,166,165151,2,0,P|267:206|280:247,1,72.5,0|2,0:0|0:0,0:0:0:0:
350,117,165517,2,0,P|320:87|278:78,1,72.5,0|8,0:0|0:0,0:0:0:0:
209,108,165883,1,0,0:0:0:0:
125,82,166066,5,4,0:0:0:0:
74,153,166249,1,0,0:0:0:0:
126,223,166432,1,8,0:0:0:0:
209,195,166615,1,0,0:0:0:0:
209,107,166798,2,0,L|363:94,1,145,2|8,0:0|0:0,0:0:0:0:
353,95,168993,6,0,P|404:146|404:214,1,145,6|2,0:0|0:0,0:0:0:0:
349,282,169542,2,0,P|316:293|270:283,1,72.5,2|2,0:0|0:0,0:0:0:0:
279,287,170273,6,0,P|273:251|252:222,1,72.5,2|2,0:0|0:0,0:0:0:0:
176,178,170639,2,0,P|140:172|106:183,1,72.5,2|2,0:0|0:0,0:0:0:0:
40,242,171005,2,0,P|23:273|23:309,1,72.5,2|0,0:0|0:0,0:0:0:0:
60,384,171371,1,2,0:0:0:0:
164,350,171554,2,0,P|138:324|104:313,1,72.5,2|2,0:0|0:0,0:0:0:0:
109,318,172103,5,2,0:0:0:0:
23,309,172285,2,0,P|1:280|-3:244,1,72.5
62,187,172651,2,0,P|82:119|50:56,1,145,2|0,0:0|0:0,0:0:0:0:
115,115,173200,6,0,P|150:120|184:109,1,72.5,2|2,0:0|0:0,0:0:0:0:
255,57,173566,1,2,0:0:0:0:
326,106,173749,2,0,P|355:127|371:159,1,72.5,2|2,0:0|0:0,0:0:0:0:
361,246,174115,2,0,P|350:280|324:305,1,72.5,2|2,0:0|0:0,0:0:0:0:
239,322,174481,2,0,P|203:322|171:305,1,72.5,2|2,0:0|0:0,0:0:0:0:
171,305,175212,5,2,0:0:0:0:
128,230,175395,2,0,P|116:195|122:160,1,72.5,2|2,0:0|0:0,0:0:0:0:
127,165,175944,5,0,0:0:0:0:
183,96,176127,2,0,P|211:74|247:69,1,72.5,2|2,0:0|0:0,0:0:0:0:
326,106,176493,2,0,P|355:127|371:159,1,72.5,2|2,0:0|0:0,0:0:0:0:
361,246,176859,2,0,P|350:280|324:305,1,72.5,2|0,0:0|0:0,0:0:0:0:
329,310,177407,6,0,P|364:302|398:311,1,72.5,2|2,0:0|0:0,0:0:0:0:
403,316,178139,6,0,P|378:289|369:254,1,72.5,2|2,0:0|0:0,0:0:0:0:
402,173,178505,1,2,0:0:0:0:
333,116,178688,1,2,0:0:0:0:
257,162,178871,1,2,0:0:0:0:
280,248,179054,5,2,0:0:0:0:
285,253,179420,1,2,0:0:0:0:
290,258,179785,1,2,0:0:0:0:
295,263,180151,5,2,0:0:0:0:
272,177,180334,1,2,0:0:0:0:
249,91,180517,1,2,0:0:0:0:
226,5,180700,5,4,0:0:0:0:
101,131,181066,2,0,L|28:137,2,72.5,8|2|2,0:0|0:0|0:0,0:0:0:0:
272,177,181798,2,0,L|344:183,2,72.5,8|2|2,0:0|0:0|0:0,0:0:0:0:
101,223,182529,2,0,L|28:229,1,72.5,8|2,0:0|0:0,0:0:0:0:
93,307,182895,1,2,0:0:0:0:
91,318,182986,1,8,0:0:0:0:
90,330,183079,1,0,0:0:0:0:
176,299,183261,1,8,0:0:0:0:
259,291,183444,1,2,0:0:0:0:
342,283,183627,5,2,3:0:0:0:
248,146,183993,2,0,L|235:-30,1,145,8|2,0:0|0:0,0:0:0:0:
194,77,184542,1,2,0:0:0:0:
248,146,184724,2,0,L|424:158,1,145,8|2,0:0|0:0,0:0:0:0:
317,200,185273,1,2,0:0:0:0:
248,146,185456,6,0,P|232:170|231:225,1,72.5,8|2,0:0|0:0,0:0:0:0:
141,225,185822,2,0,P|128:199|81:170,1,72.5,2|2,0:0|0:0,0:0:0:0:
126,92,186188,2,0,P|154:93|202:67,1,72.5,8|0,0:0|0:0,0:0:0:0:
248,146,186554,5,2,3:0:0:0:
420,122,186920,2,0,L|426:49,2,72.5,8|2|2,0:0|0:0|0:0,0:0:0:0:
412,208,187468,1,0,0:0:0:0:
404,294,187651,1,8,0:0:0:0:
321,195,187834,5,2,0:0:0:0:
326,200,188200,1,2,0:0:0:0:
318,286,188383,6,0,P|283:277|254:249,1,72.5,8|2,0:0|0:0,0:0:0:0:
185,202,188749,2,0,P|210:176|249:165,1,72.5,2|0,0:0|0:0,0:0:0:0:
324,128,189115,2,0,P|333:162|323:201,1,72.5,8|2,0:0|0:0,0:0:0:0:
398,247,189481,5,2,3:0:0:0:
318,286,189663,2,0,L|311:358,2,72.5,2|8|2,0:0|0:0|0:0,0:0:0:0:
238,325,190212,5,4,0:0:0:0:
238,325,190944,1,4,0:0:0:0:
238,325,191676,1,4,0:0:0:0:
