osu file format v14

[General]
AudioFilename: audio.mp3
AudioLeadIn: 0
PreviewTime: 60182
Countdown: 0
SampleSet: Soft
StackLeniency: 0
Mode: 0
LetterboxInBreaks: 0
WidescreenStoryboard: 0

[Editor]
Bookmarks: 2195,13902,25610,49024,60732,84146,95854,107561,119268,133902,157317,169024,180732
DistanceSpacing: 1.8
BeatDivisor: 8
GridSize: 4
TimelineZoom: 2.2

[Metadata]
Title:No. 5
TitleUnicode:N°5
Artist:Kamisama Club
ArtistUnicode:神様クラブ
Creator:dsco
Version:Capital
Source:
Tags:number jura art pop electronic japanese japan tokiko fsjallink fanzhen fanzhen0019
BeatmapID:3321406
BeatmapSetID:1626872

[Difficulty]
HPDrainRate:5.2
CircleSize:5.2
OverallDifficulty:9.2
ApproachRate:9.2
SliderMultiplier:2.7
SliderTickRate:2

[Events]
//Background and Video events
0,0,"carlosneda2.jpg",0,0
//Break Periods
2,49194,51351
2,52121,54277
2,55047,57204
2,122547,124521
//Storyboard Layer 0 (Background)
//Storyboard Layer 1 (Fail)
//Storyboard Layer 2 (Pass)
//Storyboard Layer 3 (Foreground)
//Storyboard Layer 4 (Overlay)
//Storyboard Sound Samples

[TimingPoints]
2175,365.519342065184,4,2,1,60,1,0
4550,-1000,4,2,1,60,0,0
4596,-1000,4,2,1,25,0,0
4733,-100,4,2,1,60,0,0
4916,-1000,4,2,1,60,0,0
4962,-1000,4,2,1,25,0,0
5099,-100,4,2,1,60,0,0
7109,-1000,4,2,1,60,0,0
7155,-1000,4,2,1,25,0,0
7292,-100,4,2,1,60,0,0
7475,-1000,4,2,1,60,0,0
7520,-1000,4,2,1,25,0,0
7657,-1000,4,2,1,60,0,0
7886,-1000,4,2,1,25,0,0
8023,-100,4,2,1,60,0,0
10947,-100,4,2,1,60,0,0
12957,-1000,4,2,1,60,0,0
13003,-1000,4,2,1,25,0,0
13140,-1000,4,2,1,60,0,0
13323,-20,4,2,1,60,0,0
13872,365.853658536585,4,2,1,60,1,0
13872,-100,4,2,1,60,0,0
15701,-1000,4,2,1,60,0,0
15747,-1000,4,2,1,25,0,0
15884,-1000,4,2,1,60,0,0
16296,-1000,4,2,1,25,0,0
16433,-100,4,2,1,60,0,0
18262,-1000,4,2,1,60,0,0
18308,-1000,4,2,1,25,0,0
18445,-1000,4,2,1,60,0,0
19222,-1000,4,2,1,25,0,0
19360,-100,4,2,1,60,0,0
21555,-1000,4,2,1,60,0,0
21600,-1000,4,2,1,25,0,0
21738,-100,4,2,1,60,0,0
22104,-1000,4,2,1,60,0,0
22149,-1000,4,2,1,25,0,0
22195,-1000,4,2,1,60,0,0
22332,-1000,4,2,1,25,0,0
22470,-100,4,2,1,60,0,0
23384,-1000,4,2,1,60,0,0
23430,-1000,4,2,1,25,0,0
23567,-1000,4,2,1,60,0,0
24161,-1000,4,2,1,25,0,0
24299,-1000,4,2,1,60,0,0
24847,-66.6666666666667,4,2,1,60,0,0
25030,-66.6666666666667,4,2,1,45,0,0
25579,-1000,4,2,1,50,0,0
35686,-1000,4,2,1,25,0,0
35823,-1000,4,2,1,50,0,0
35869,-1000,4,2,1,25,0,0
36006,-1000,4,2,1,50,0,0
36052,-1000,4,2,1,25,0,0
36189,-1000,4,2,1,50,0,0
36235,-1000,4,2,1,25,0,0
36372,-1000,4,2,1,50,0,0
36418,-1000,4,2,1,25,0,0
36738,-1000,4,2,1,50,0,0
47393,-1000,4,2,1,25,0,0
47530,-1000,4,2,1,50,0,0
47576,-1000,4,2,1,25,0,0
47713,-1000,4,2,1,50,0,0
47759,-1000,4,2,1,25,0,0
47896,-1000,4,2,1,50,0,0
47942,-1000,4,2,1,25,0,0
48079,-1000,4,2,1,50,0,0
48125,-1000,4,2,1,25,0,0
48445,-1000,4,2,1,50,0,0
48994,-1000,4,2,1,40,0,0
58872,-1000,4,2,1,50,0,0
59009,-1000,4,2,1,25,0,0
59055,-1000,4,2,1,50,0,0
59192,-1000,4,2,1,25,0,0
59238,-1000,4,2,1,50,0,0
59466,-1000,4,2,1,25,0,0
59695,-1000,4,2,1,50,0,0
59786,-100,4,2,1,60,0,0
60335,-20,4,2,1,60,0,0
60518,-100,4,2,1,60,0,0
60701,-1000,4,2,1,60,0,0
65503,-1000,4,2,1,25,0,0
65640,-1000,4,2,1,60,0,0
77210,-1000,4,2,1,25,0,0
77347,-1000,4,2,1,60,0,0
83613,-1000,4,2,1,25,0,0
83750,-200,4,2,1,60,0,0
83933,-100,4,2,1,60,0,0
84116,-303.030303030303,4,2,1,60,0,0
84482,-100,4,2,1,60,0,0
86311,-86.0215053763441,4,2,1,60,0,0
86677,-1000,4,2,1,60,0,0
86905,-1000,4,2,1,25,0,0
87043,-1000,4,2,1,60,0,0
87088,-1000,4,2,1,25,0,0
87225,-1000,4,2,1,60,0,0
87408,-100,4,2,1,60,0,0
89604,-1000,4,2,1,60,0,0
89649,-1000,4,2,1,25,0,0
89786,-1000,4,2,1,60,0,0
89832,-1000,4,2,1,25,0,0
89969,-303.030303030303,4,2,1,60,0,0
90335,-100,4,2,1,60,0,0
92164,-86.0215053763441,4,2,1,60,0,0
92530,-100,4,2,1,60,0,0
93994,-1000,4,2,1,60,0,0
94039,-1000,4,2,1,25,0,0
94177,-1000,4,2,1,60,0,0
94222,-1000,4,2,1,25,0,0
94543,-1000,4,2,1,60,0,0
94588,-1000,4,2,1,25,0,0
94908,-1000,4,2,1,60,0,0
95091,-20,4,2,1,60,0,0
95457,-50,4,2,1,60,0,0
95503,-50,4,2,1,25,0,0
95823,-66.6666666666667,4,2,1,60,0,0
96509,-66.6666666666667,4,2,1,25,0,0
96555,-100,4,2,1,60,0,0
96875,-100,4,2,1,25,0,0
96921,-133.333333333333,4,2,1,60,0,0
97241,-133.333333333333,4,2,1,25,0,0
97286,-133.333333333333,4,2,1,60,0,0
97424,-133.333333333333,4,2,1,25,0,0
97469,-100,4,2,1,60,0,0
97789,-100,4,2,1,25,0,0
97835,-66.6666666666667,4,2,1,60,0,0
98155,-66.6666666666667,4,2,1,25,0,0
98201,-100,4,2,1,60,0,0
98521,-100,4,2,1,25,0,0
98567,-133.333333333333,4,2,1,60,0,0
98704,-133.333333333333,4,2,1,25,0,0
98750,-100,4,2,1,60,0,0
98979,-100,4,2,1,25,0,0
99024,-80,4,2,1,60,0,0
99253,-80,4,2,1,25,0,0
99299,-66.6666666666667,4,2,1,60,0,0
99436,-66.6666666666667,4,2,1,25,0,0
99482,-66.6666666666667,4,2,1,60,0,0
99710,-66.6666666666667,4,2,1,25,0,0
99756,-80,4,2,1,60,0,0
99985,-80,4,2,1,25,0,0
100030,-100,4,2,1,60,0,0
100168,-100,4,2,1,25,0,0
100213,-50,4,2,1,60,0,0
100350,-50,4,2,1,25,0,0
100396,-50,4,2,1,60,0,0
100533,-50,4,2,1,25,0,0
100579,-50,4,2,1,60,0,0
100716,-50,4,2,1,25,0,0
100762,-50,4,2,1,60,0,0
100899,-50,4,2,1,25,0,0
100945,-66.6666666666667,4,2,1,60,0,0
101219,-66.6666666666667,4,2,1,25,0,0
101311,-66.6666666666667,4,2,1,60,0,0
101631,-66.6666666666667,4,2,1,25,0,0
101677,-66.6666666666667,4,2,1,60,0,0
102363,-66.6666666666667,4,2,1,25,0,0
102408,-100,4,2,1,60,0,0
102729,-100,4,2,1,25,0,0
102774,-133.333333333333,4,2,1,60,0,0
103094,-133.333333333333,4,2,1,25,0,0
103140,-133.333333333333,4,2,1,60,0,0
103369,-133.333333333333,4,2,1,25,0,0
103414,-133.333333333333,4,2,1,60,0,0
103643,-133.333333333333,4,2,1,25,0,0
103689,-66.6666666666667,4,2,1,60,0,0
104009,-66.6666666666667,4,2,1,25,0,0
104055,-100,4,2,1,60,0,0
104375,-100,4,2,1,25,0,0
104421,-133.333333333333,4,2,1,60,0,0
104512,-133.333333333333,4,2,1,25,0,0
104604,-66.6666666666667,4,2,1,60,0,0
105061,-66.6666666666667,4,2,1,15,0,0
105152,-133.333333333333,4,2,1,40,0,0
105793,-133.333333333333,4,2,1,15,0,0
105884,-100,4,2,1,50,0,0
106341,-100,4,2,1,15,0,0
106433,-200,4,2,1,30,0,0
107073,-200,4,2,1,15,0,0
107164,-66.6666666666667,4,2,1,60,0,0
107439,-66.6666666666667,4,2,1,25,0,0
107530,-66.6666666666667,4,2,1,60,0,0
108262,-100,4,2,1,60,0,0
108445,-200,4,2,1,60,0,0
108628,-400,4,2,1,60,0,0
108811,-1000,4,2,1,60,0,0
109725,-66.6666666666667,4,2,1,60,0,0
111189,-100,4,2,1,60,0,0
111372,-200,4,2,1,60,0,0
111555,-400,4,2,1,60,0,0
111738,-1000,4,2,1,60,0,0
112286,-133.333333333333,4,2,1,60,0,0
112469,-100,4,2,1,60,0,0
113384,-66.6666666666667,4,2,1,60,0,0
114116,-100,4,2,1,60,0,0
114299,-133.333333333333,4,2,1,60,0,0
114482,-200,4,2,1,60,0,0
114664,-400,4,2,1,60,0,0
116311,-1000,4,2,1,60,0,0
117591,-100,4,2,1,60,0,0
117957,-133.333333333333,4,2,1,60,0,0
118323,-200,4,2,1,60,0,0
118689,-400,4,2,1,60,0,0
118872,-1000,4,2,1,60,0,0
118918,-1000,4,2,1,25,0,0
119238,-1000,4,2,1,50,0,0
129299,-100,4,2,1,60,0,0
129573,-1000,4,2,1,60,0,0
129619,-1000,4,2,1,25,0,0
129939,-1000,4,2,1,60,0,0
130030,-100,4,2,1,60,0,0
130396,-1000,4,2,1,60,0,0
130533,-1000,4,2,1,25,0,0
130579,-1000,4,2,1,60,0,0
130671,-100,4,2,1,60,0,0
130854,-40,4,2,1,60,0,0
130945,-40,4,2,1,45,0,0
132408,-1000,4,2,1,60,0,0
132591,-100,4,2,1,60,0,0
133232,-1000,4,2,1,60,0,0
133277,-1000,4,2,1,25,0,0
133414,-1000,4,2,1,60,0,0
133460,-1000,4,2,1,25,0,0
133506,-100,4,2,1,70,0,0
133871,-1000,4,2,1,70,0,1
134055,-1000,4,2,1,60,0,1
138674,-1000,4,2,1,25,0,1
138811,-1000,4,2,1,60,0,1
150381,-1000,4,2,1,25,0,1
150518,-1000,4,2,1,60,0,1
156738,-20,4,2,1,60,0,1
157286,-100,4,2,1,60,0,0
162043,-1000,4,2,1,60,0,0
162088,-1000,4,2,1,25,0,0
162225,-100,4,2,1,60,0,0
168994,-200,4,2,1,45,0,0
169360,-200,4,2,1,25,0,0
169543,-200,4,2,1,40,0,0
169725,-200,4,2,1,25,0,0
170274,-204.081632653061,4,2,1,40,0,0
170457,-200,4,2,1,25,0,0
170640,-204.081632653061,4,2,1,40,0,0
170823,-200,4,2,1,25,0,0
171006,-200,4,2,1,40,0,0
171097,-200,4,2,1,25,0,0
171372,-200,4,2,1,40,0,0
171463,-200,4,2,1,25,0,0
171554,-204.081632653061,4,2,1,40,0,0
171738,-200,4,2,1,25,0,0
172104,-200,4,2,1,40,0,0
172195,-200,4,2,1,25,0,0
172652,-204.081632653061,4,2,1,40,0,0
172835,-200,4,2,1,25,0,0
173201,-204.081632653061,4,2,1,40,0,0
173384,-200,4,2,1,25,0,0
173567,-200,4,2,1,40,0,0
173658,-200,4,2,1,25,0,0
173750,-204.081632653061,4,2,1,40,0,0
173933,-200,4,2,1,25,0,0
174115,-204.081632653061,4,2,1,40,0,0
174299,-200,4,2,1,25,0,0
174481,-204.081632653061,4,2,1,40,0,0
174664,-200,4,2,1,25,0,0
175213,-200,4,2,1,40,0,0
175305,-200,4,2,1,25,0,0
175396,-204.081632653061,4,2,1,40,0,0
175579,-200,4,2,1,25,0,0
176128,-204.081632653061,4,2,1,40,0,0
176311,-200,4,2,1,25,0,0
176493,-204.081632653061,4,2,1,40,0,0
176677,-200,4,2,1,25,0,0
176860,-200,4,2,1,40,0,0
176951,-200,4,2,1,25,0,0
177408,-204.081632653061,4,2,1,40,0,0
177591,-200,4,2,1,25,0,0
178140,-204.081632653061,4,2,1,40,0,0
178323,-200,4,2,1,25,0,0
178506,-200,4,2,1,40,0,0
178597,-200,4,2,1,25,0,0
178689,-200,4,2,1,40,0,0
178780,-200,4,2,1,25,0,0
178872,-200,4,2,1,40,0,0
178963,-200,4,2,1,25,0,0
179055,-200,4,2,1,40,0,0
179146,-200,4,2,1,25,0,0
179420,-204.081632653061,4,2,1,40,0,0
179604,-200,4,2,1,25,0,0
179786,-204.081632653061,4,2,1,40,0,0
179969,-200,4,2,1,25,0,0
180152,-200,4,2,1,40,0,0
180244,-200,4,2,1,25,0,0
180335,-1000,4,2,1,40,0,0
180381,-1000,4,2,1,25,0,0
180518,-1000,4,2,1,40,0,0
181067,-100,4,2,1,50,0,0
183262,-1000,4,2,1,50,0,0
183308,-1000,4,2,1,25,0,0
183445,-1000,4,2,1,50,0,0
183491,-1000,4,2,1,25,0,0
183628,-100,4,2,1,50,0,0
190579,-1000,4,2,1,50,0,0
190625,-1000,4,2,1,25,0,0
190762,-1000,4,2,1,50,0,0
190808,-1000,4,2,1,25,0,0
190945,-1000,4,2,1,40,0,0
191677,-1000,4,2,1,25,0,0

[Colours]
Combo1 : 248,240,143
Combo2 : 243,169,208

[HitObjects]
12,238,1809,6,0,B|3:224|3:224|8:208|8:208|17:223|17:223|12:238,1,67.5,0|0,1:0|0:0,0:0:0:0:
82,258,1992,2,0,B|91:272|91:272|86:288|86:288|77:273|77:273|82:258,1,67.5,0|0,1:0|0:0,0:0:0:0:
145,222,2175,6,0,L|219:214,1,67.5,2|0,3:0|0:0,0:0:0:0:
276,179,2357,1,0,0:0:0:0:
346,199,2540,2,0,L|494:183,1,135,8|0,0:1|0:0,0:0:0:0:
416,219,2906,1,0,0:0:0:0:
212,214,3088,6,0,L|145:222,1,67.5,8|0,0:1|0:0,0:0:0:0:
276,179,3271,1,0,0:1:0:0:
480,184,3454,2,0,L|346:199,1,135,2|0,0:0|0:0,0:0:0:0:
416,219,3819,1,8,0:1:0:0:
416,219,4185,1,2,0:0:0:0:
145,222,4368,6,0,L|212:214,1,67.5,2|0,0:0|0:0,0:0:0:0:
276,179,4550,2,0,L|281:178,1,3.375
416,219,4733,2,0,L|483:211,1,67.5,8|0,0:1|0:0,0:0:0:0:
345,199,4916,2,0,L|350:198,1,3.375
82,258,5099,6,0,L|74:325,1,67.5,2|0,3:0|0:0,0:0:0:0:
10,361,5281,1,0,0:0:0:0:
145,222,5464,2,0,L|160:88,1,135,8|0,0:1|0:0,0:0:0:0:
106,37,5830,1,2,0:0:0:0:
74,325,6012,6,0,L|82:258,1,67.5,8|0,0:1|0:0,0:0:0:0:
10,361,6195,1,0,0:0:0:0:
160,88,6378,2,0,L|145:222,1,135,2|0,0:0|0:0,0:0:0:0:
106,37,6743,1,8,0:1:0:0:
82,258,6926,6,0,L|74:325,1,67.5,2|0,0:0|0:0,0:0:0:0:
10,361,7109,2,0,L|9:365,1,3.375
144,222,7292,2,0,L|152:155,1,67.5,2|0,0:0|0:0,0:0:0:0:
216,119,7475,2,0,L|217:115,1,3.375
106,37,7657,1,8,0:1:0:0:
325,180,7840,2,0,L|324:185,2,3.375,2|0|2,0:0|0:0|0:0,0:0:0:0:
329,184,8023,6,0,L|396:176,1,67.5,2|0,3:0|0:0,0:0:0:0:
459,149,8206,1,0,0:0:0:0:
132,225,8388,2,0,L|280:209,1,135,8|0,0:1|0:0,0:0:0:0:
203,251,8662,2,0,L|195:184,1,67.5,2|2,0:0|0:0,0:0:0:0:
396,176,8937,6,0,L|329:184,1,67.5,8|0,0:1|0:0,0:0:0:0:
459,149,9119,1,0,0:0:0:0:
266,210,9302,2,0,L|132:225,1,135,2|0,0:0|0:0,0:0:0:0:
329,184,9668,6,0,L|396:176,2,67.5,8|0|0,0:1|0:0|0:0,0:0:0:0:
266,210,9942,1,0,0:0:0:0:
203,251,10033,2,0,L|195:184,1,67.5,2|0,0:0|0:0,0:0:0:0:
132,225,10216,1,2,0:0:0:0:
396,176,10399,6,0,L|329:184,1,67.5,2|0,0:0|0:0,0:0:0:0:
459,149,10581,1,8,0:1:0:0:
199,218,10764,2,0,L|266:210,1,67.5,2|0,0:0|0:0,0:0:0:0:
136,255,10947,6,0,L|128:322,1,67.5,2|0,3:0|0:0,0:0:0:0:
84,206,11130,1,0,0:0:0:0:
146,167,11311,2,0,L|161:33,1,135,8|0,0:1|0:0,0:0:0:0:
224,0,11678,1,2,0:0:0:0:
128,322,11861,6,0,L|136:255,1,67.5,8|0,0:1|0:0,0:0:0:0:
84,206,12044,1,0,0:0:0:0:
161,33,12226,2,0,L|146:167,1,135,2|0,0:0|0:0,0:0:0:0:
136,255,12592,6,0,L|128:322,2,67.5,8|0|0,0:1|0:0|0:0,0:0:0:0:
84,206,12866,1,0,0:0:0:0:
146,167,12957,2,0,L|147:162,1,3.375,2|0,0:0|0:0,0:0:0:0:
224,0,13140,1,0,0:0:0:0:
217,135,13323,5,2,3:0:0:0:
211,133,13414,1,0,3:0:0:0:
146,167,13506,6,2,P|28:123|151:99,1,337.5,10|10,0:1|0:0,0:0:0:0:
165,237,13688,5,10,0:0:0:0:
171,239,13780,1,8,0:0:0:0:
129,301,13872,6,0,L|147:159,2,135,4|0|8,0:0|0:0|0:0,0:0:0:0:
146,167,14421,1,2,0:0:0:0:
129,301,14604,2,0,L|147:159,2,135,2|0|8,3:0|0:0|0:0,0:0:0:0:
146,167,15152,1,2,0:0:0:0:
109,231,15335,5,0,0:0:0:0:
129,301,15518,1,0,0:0:0:0:
193,338,15701,2,0,L|192:343,1,3.375,10|0,0:0|0:0,0:0:0:0:
263,318,15884,1,0,0:0:0:0:
300,254,16067,5,0,0:0:0:0:
407,170,16250,2,0,L|408:166,1,3.375,2|0,0:0|0:0,0:0:0:0:
491,277,16433,1,8,0:0:0:0:
381,361,16616,1,0,0:0:0:0:
451,341,16799,6,0,L|317:324,2,135,2|0|8,3:0|0:0|0:0,0:0:0:0:
317,324,17347,1,2,0:0:0:0:
451,341,17530,2,0,L|317:324,2,135,2|0|8,3:0|0:0|0:0,0:0:0:0:
317,324,18079,1,2,0:0:0:0:
381,361,18262,6,0,L|380:366,1,3.375,2|0,0:0|0:0,0:0:0:0:
451,341,18445,1,0,0:0:0:0:
491,277,18628,1,8,0:0:0:0:
471,207,18811,1,0,0:0:0:0:
407,167,18994,5,0,0:0:0:0:
297,251,19177,2,0,L|296:256,1,3.375,2|0,0:0|0:0,0:0:0:0:
213,141,19360,1,8,0:0:0:0:
323,57,19543,1,0,0:0:0:0:
253,77,19725,5,2,3:0:0:0:
253,77,20091,2,0,L|395:95,1,135,8|0,0:0|0:0,0:0:0:0:
253,77,20457,5,2,3:0:0:0:
387,94,20640,2,0,L|254:77,1,135,2|8,0:0|0:0,0:0:0:0:
387,94,21006,1,0,0:0:0:0:
253,77,21189,5,0,0:0:0:0:
323,57,21372,1,0,0:0:0:0:
387,94,21555,2,0,L|392:95,1,3.375,10|0,0:0|0:0,0:0:0:0:
407,164,21738,1,0,0:0:0:0:
370,228,21921,1,0,0:0:0:0:
300,248,22104,6,0,L|299:253,1,3.375,2|0,0:0|0:0,0:0:0:0:
228,216,22195,1,0,0:0:0:0:
236,211,22286,6,0,L|231:212,1,3.375,8|0,0:0|0:0,0:0:0:0:
216,141,22469,5,0,0:0:0:0:
258,84,22561,1,2,0:0:0:0:
253,77,22652,5,2,3:0:0:0:
236,211,22835,1,0,0:0:0:0:
370,228,23018,1,8,0:0:0:0:
387,94,23201,1,0,0:0:0:0:
312,153,23384,6,0,L|313:158,1,3.375,2|0,3:0|0:0,0:0:0:0:
357,322,23567,1,0,0:0:0:0:
188,369,23750,1,8,0:0:0:0:
142,199,23933,1,0,0:0:0:0:
186,151,24024,1,0,0:0:0:0:
195,157,24116,6,0,L|200:158,1,3.375,2|0,0:0|0:0,0:0:0:0:
204,91,24299,1,0,0:0:0:0:
162,37,24482,1,8,0:0:0:0:
96,29,24664,1,0,0:0:0:0:
42,70,24756,1,2,0:0:0:0:
34,65,24847,6,2,L|256:40,3,202.500007724762,2|2|2|2,3:0|3:0|3:0|3:0,3:0:0:0:
42,70,25488,1,2,0:0:0:0:
34,65,25579,6,0,L|36:37,1,27,4|8,0:1|0:1,0:0:0:0:
114,74,26128,1,0,0:0:0:0:
155,216,26311,1,0,0:0:0:0:
164,136,26494,2,0,L|165:123,1,13.5,8|0,0:1|0:0,0:0:0:0:
93,266,26860,2,0,L|91:288,1,20.25,0|0,0:0|0:0,0:0:0:0:
155,216,27225,2,0,L|140:214,1,13.5,8|0,0:1|0:0,0:0:0:0:
141,214,27774,6,0,L|155:216,1,13.5,2|2,0:0|0:0,0:0:0:0:
14,258,28140,2,0,L|0:256,1,13.5,2|2,0:0|0:0,0:0:0:0:
84,255,28506,6,0,L|81:283,1,27,2|8,3:0|0:1,0:0:0:0:
155,216,29055,1,0,0:0:0:0:
272,311,29238,1,0,0:0:0:0:
233,239,29421,2,0,L|234:225,1,13.5,8|0,0:1|0:0,0:0:0:0:
350,334,29786,2,0,L|348:355,1,20.25
272,311,30152,2,0,L|258:309,1,13.5,8|0,0:1|0:0,0:0:0:0:
422,295,30518,2,0,L|435:296,1,13.5
258,309,30884,2,0,L|272:311,2,13.5,2|8|2,0:0|0:1|0:0,0:0:0:0:
350,334,31433,6,0,L|349:348,1,13.5,2|0,3:0|0:0,0:0:0:0:
445,217,31799,2,0,L|459:218,1,13.5,8|0,0:1|0:0,0:0:0:0:
422,295,32164,1,0,0:0:0:0:
406,145,32347,2,0,L|407:123,1,20.25,8|0,0:1|0:0,0:0:0:0:
445,217,32713,1,0,0:0:0:0:
328,121,32896,6,0,L|308:120,1,20.25,2|0,0:0|0:0,0:0:0:0:
256,160,33262,2,0,L|242:159,1,13.5,2|0,0:0|0:0,0:0:0:0:
406,145,33628,2,0,L|407:131,1,13.5,2|0,0:0|0:0,0:0:0:0:
231,237,33994,2,0,L|230:251,1,13.5,8|0,0:1|0:0,0:0:0:0:
256,160,34360,5,2,3:0:0:0:
272,311,34543,1,2,0:0:0:0:
231,237,34725,1,2,0:0:0:0:
328,121,34908,1,2,0:0:0:0:
445,217,35091,1,2,0:0:0:0:
422,295,35274,1,2,0:0:0:0:
422,295,35640,6,0,L|425:298,1,3.375,2|0,0:0|0:0,0:0:0:0:
350,334,35823,2,0,L|351:339,1,3.375,2|0,0:0|0:0,0:0:0:0:
445,217,36006,2,0,L|449:216,1,3.375,2|0,0:0|0:0,0:0:0:0:
328,121,36189,2,0,L|327:116,1,3.375,2|0,0:0|0:0,0:0:0:0:
231,237,36372,2,0,L|226:238,1,3.375,2|0,0:0|0:0,0:0:0:0:
231,237,36738,5,2,0:0:0:0:
247,153,36829,1,2,0:0:0:0:
256,160,36921,5,2,0:0:0:0:
138,61,37104,1,0,3:0:0:0:
211,86,37286,6,0,L|239:84,1,27,4|8,0:1|0:1,0:0:0:0:
138,61,37835,1,0,0:0:0:0:
39,179,38018,1,0,0:0:0:0:
63,101,38201,2,0,L|62:87,1,13.5,8|0,0:1|0:0,0:0:0:0:
79,253,38567,2,0,L|80:272,1,20.25
39,179,38933,2,0,L|24:180,1,13.5,8|0,0:1|0:0,0:0:0:0:
25,179,39482,6,0,L|39:179,1,13.5,2|2,0:0|0:0,0:0:0:0:
170,277,39847,2,0,L|156:277,1,13.5,2|2,0:0|0:0,0:0:0:0:
245,237,40213,6,0,L|247:265,1,27,2|8,3:0|0:1,0:0:0:0:
326,261,40762,1,0,0:0:0:0:
482,245,40945,1,0,0:0:0:0:
407,284,41128,2,0,L|408:299,1,13.5,8|0,0:1|0:0,0:0:0:0:
505,164,41494,2,0,L|504:150,1,13.5,2|0,0:0|0:0,0:0:0:0:
482,245,41860,2,0,L|482:258,1,13.5,8|0,0:1|0:0,0:0:0:0:
465,89,42225,2,0,L|464:75,1,13.5,2|0,0:0|0:0,0:0:0:0:
505,164,42591,2,0,L|504:150,2,13.5,2|8|2,0:0|0:1|0:0,0:0:0:0:
384,66,43140,6,0,L|370:67,1,13.5,2|0,3:0|0:0,0:0:0:0:
228,83,43506,2,0,L|214:84,1,13.5,8|0,0:1|0:0,0:0:0:0:
309,106,43872,1,0,0:0:0:0:
147,60,44055,2,0,L|146:40,1,20.25,8|0,0:1|0:0,0:0:0:0:
72,100,44421,1,0,0:0:0:0:
47,181,44604,6,0,L|46:160,1,20.25,2|0,0:0|0:0,0:0:0:0:
87,256,44969,2,0,L|88:271,1,13.5,2|0,0:0|0:0,0:0:0:0:
168,281,45335,2,0,L|153:282,1,13.5,2|0,0:0|0:0,0:0:0:0:
268,160,45701,2,0,L|283:159,1,13.5,8|0,0:1|0:0,0:0:0:0:
243,241,46067,5,2,3:0:0:0:
168,281,46250,1,2,0:0:0:0:
268,160,46433,1,2,0:0:0:0:
389,260,46616,1,2,0:0:0:0:
289,381,46799,1,2,0:0:0:0:
314,300,46982,1,2,0:0:0:0:
314,300,47347,6,0,L|313:295,1,3.375,2|0,0:0|0:0,0:0:0:0:
289,381,47530,2,0,L|290:386,1,3.375,2|0,0:0|0:0,0:0:0:0:
389,260,47713,2,0,L|394:259,1,3.375,2|0,0:0|0:0,0:0:0:0:
268,160,47896,2,0,L|267:155,1,3.375,2|0,0:0|0:0,0:0:0:0:
168,281,48079,2,0,L|163:282,1,3.375,2|0,0:0|0:0,0:0:0:0:
168,281,48445,5,2,0:0:0:0:
234,234,48536,1,2,0:0:0:0:
243,241,48628,5,2,0:0:0:0:
228,85,48811,1,0,3:0:0:0:
268,160,48994,5,4,0:1:0:0:
267,170,51921,5,4,0:0:0:0:
266,179,54847,5,4,0:0:0:0:
265,190,57774,5,4,0:0:0:0:
264,200,58872,5,0,0:0:0:0:
328,173,58963,2,0,L|327:168,1,3.375,2|0,0:0|0:0,0:0:0:0:
328,163,59055,5,0,0:0:0:0:
395,191,59146,2,0,L|396:186,1,3.375,2|0,0:0|0:0,0:0:0:0:
399,182,59238,5,2,3:0:0:0:
435,246,59421,2,0,L|440:245,4,3.375,2|0|2|0|2,0:0|0:0|0:0|0:0|0:0,0:0:0:0:
410,311,59695,1,0,0:0:0:0:
417,317,59786,6,0,L|423:386,1,67.5,0|0,3:0|0:0,0:0:0:0:
399,182,59969,2,0,L|393:114,1,67.5,0|0,3:0|0:0,0:0:0:0:
264,191,60152,5,2,3:0:0:0:
265,200,60244,1,0,3:0:0:0:
271,268,60335,6,2,P|150:256|265:200,1,337.5,10|10,0:1|0:0,0:0:0:0:
213,239,60518,1,2,0:0:0:0:
435,246,60701,5,4,0:0:0:0:
213,239,60884,1,0,0:0:0:0:
0,233,61067,1,8,0:0:0:0:
326,197,61250,1,0,0:0:0:0:
100,281,61433,5,2,0:0:0:0:
264,130,61616,1,0,0:0:0:0:
223,17,61799,1,8,0:0:0:0:
213,239,61982,1,0,0:0:0:0:
254,352,62164,5,2,0:0:0:0:
172,126,62347,1,0,0:0:0:0:
398,44,62530,1,8,0:0:0:0:
480,270,62713,1,0,0:0:0:0:
393,174,62896,5,2,0:0:0:0:
423,111,63079,1,0,0:0:0:0:
391,50,63171,1,2,0:0:0:0:
398,44,63262,5,8,0:0:0:0:
393,174,63445,1,2,0:0:0:0:
480,270,63628,5,4,0:0:0:0:
254,352,63811,1,0,0:0:0:0:
172,126,63994,1,8,0:0:0:0:
259,222,64177,1,0,0:0:0:0:
167,256,64360,5,2,0:0:0:0:
264,92,64543,1,0,0:0:0:0:
101,0,64725,1,8,0:0:0:0:
3,164,64908,1,0,0:0:0:0:
184,154,65091,5,2,0:0:0:0:
93,97,65274,1,0,0:0:0:0:
101,0,65457,2,0,L|97:-3,2,3.375,8|0|8,0:0|0:0|0:0,0:0:0:0:
264,92,65640,1,0,0:0:0:0:
167,80,65823,5,2,0:0:0:0:
93,97,66006,1,0,0:0:0:0:
110,171,66189,1,8,0:0:0:0:
184,154,66372,1,0,0:0:0:0:
3,164,66555,5,4,0:0:0:0:
167,256,66738,1,0,0:0:0:0:
160,363,66921,1,8,0:0:0:0:
110,171,67104,1,0,0:0:0:0:
302,121,67286,5,2,0:0:0:0:
217,178,67469,1,0,0:0:0:0:
359,206,67652,1,8,0:0:0:0:
309,14,67835,1,0,0:0:0:0:
302,121,68018,5,2,0:0:0:0:
466,213,68201,1,0,0:0:0:0:
374,377,68384,1,8,0:0:0:0:
210,285,68567,1,0,0:0:0:0:
359,206,68750,5,2,0:0:0:0:
295,228,68933,1,0,0:0:0:0:
317,292,69116,1,8,0:0:0:0:
381,270,69299,1,0,0:0:0:0:
302,121,69482,5,4,0:0:0:0:
217,178,69664,1,0,0:0:0:0:
59,73,69847,1,8,0:0:0:0:
116,158,70030,1,0,0:0:0:0:
96,258,70213,5,2,0:0:0:0:
281,221,70396,1,0,0:0:0:0:
244,36,70579,1,8,0:0:0:0:
59,73,70762,1,2,0:0:0:0:
59,73,71128,5,0,0:0:0:0:
300,121,71311,1,8,0:0:0:0:
252,362,71494,1,0,0:0:0:0:
11,314,71677,5,2,3:0:0:0:
190,48,71860,1,8,0:0:0:0:
123,384,72043,1,0,3:0:0:0:
59,73,72225,1,8,0:0:0:0:
325,252,72408,5,4,0:0:0:0:
300,121,72591,1,0,0:0:0:0:
431,96,72774,1,8,0:0:0:0:
350,383,72957,1,0,0:0:0:0:
169,146,73140,5,2,0:0:0:0:
240,161,73323,1,0,0:0:0:0:
130,86,73506,1,8,0:0:0:0:
55,196,73689,1,0,0:0:0:0:
165,271,73872,5,2,0:0:0:0:
130,86,74055,1,0,0:0:0:0:
315,51,74238,1,8,0:0:0:0:
350,236,74421,1,0,0:0:0:0:
240,161,74604,5,2,0:0:0:0:
300,122,74786,1,0,0:0:0:0:
305,52,74878,1,2,0:0:0:0:
315,51,74969,5,8,0:0:0:0:
240,161,75152,1,0,0:0:0:0:
350,236,75335,5,4,0:0:0:0:
165,269,75518,1,0,0:0:0:0:
216,31,75701,1,8,0:0:0:0:
240,161,75884,1,0,0:0:0:0:
35,293,76067,5,2,0:0:0:0:
110,185,76250,1,0,0:0:0:0:
2,110,76433,1,8,0:0:0:0:
240,161,76616,1,0,0:0:0:0:
315,53,76799,5,0,0:0:0:0:
348,236,76982,1,0,0:0:0:0:
165,269,77164,2,0,L|166:274,2,3.375,8|0|8,0:0|0:0|0:0,0:0:0:0:
132,86,77347,1,0,0:0:0:0:
231,108,77530,5,2,0:0:0:0:
249,214,77713,1,0,0:0:0:0:
432,181,77896,1,8,0:0:0:0:
414,75,78079,1,0,0:0:0:0:
187,170,78262,5,4,0:0:0:0:
476,119,78445,1,0,0:0:0:0:
343,205,78628,1,8,0:0:0:0:
31,135,78811,1,0,0:0:0:0:
91,230,78994,5,2,0:0:0:0:
126,74,79177,1,0,0:0:0:0:
31,135,79360,1,8,0:0:0:0:
152,326,79543,1,0,0:0:0:0:
248,266,79725,5,2,0:0:0:0:
91,230,79908,1,0,0:0:0:0:
126,74,80091,1,8,0:0:0:0:
283,110,80274,1,0,0:0:0:0:
177,216,80457,5,2,0:0:0:0:
232,179,80640,1,0,0:0:0:0:
195,124,80823,1,8,0:0:0:0:
140,161,81006,1,0,0:0:0:0:
159,308,81189,5,4,0:2:0:0:
213,32,81372,1,0,0:0:0:0:
489,86,81555,1,8,0:0:0:0:
435,362,81738,1,0,0:0:0:0:
360,13,81921,5,2,0:0:0:0:
360,13,82286,1,8,0:0:0:0:
288,381,82469,1,0,0:0:0:0:
246,249,82652,5,2,0:0:0:0:
401,144,82835,1,2,0:0:0:0:
213,32,83018,1,8,0:0:0:0:
435,362,83201,1,2,0:0:0:0:
435,362,83567,6,0,L|440:363,1,3.375,2|0,0:0|0:0,0:0:0:0:
337,329,83750,2,0,L|374:325,1,33.75,2|0,0:0|0:0,0:0:0:0:
206,357,83933,2,0,L|280:365,1,67.5,2|0,0:0|0:0,0:0:0:0:
138,320,84116,6,0,B|146:320|146:320|145:324|145:324|142:327|142:327|138:328|138:328|134:327|134:327|131:324|131:324|130:320|130:320|131:316|131:316|134:313|134:313|138:312|138:312|142:313|142:313|145:316|145:316|146:320|146:320|138:320,1,66.8249997960663,2|0,0:3|0:0,0:0:0:0:
138,320,84482,6,0,L|64:328,1,67.5,8|0,0:1|0:0,0:0:0:0:
269,277,84664,2,0,L|202:285,1,67.5,2|0,0:0|0:0,0:0:0:0:
420,263,84847,2,0,B|443:282|443:282|339:294,1,135,2|0,0:0|0:0,0:0:0:0:
70,327,85213,6,0,L|138:320,1,67.5,8|0,0:1|0:0,0:0:0:0:
202,285,85396,2,0,L|269:277,1,67.5,2|0,0:0|0:0,0:0:0:0:
339,294,85579,2,0,B|443:282|443:282|420:263,1,135,2|0,0:0|0:0,0:0:0:0:
66,331,85854,1,2,0:0:0:0:
138,320,85945,6,0,L|64:328,1,67.5,8|0,0:0|0:0,0:0:0:0:
269,277,86128,2,0,L|202:285,1,67.5,2|0,0:0|0:0,0:0:0:0:
420,263,86311,2,0,B|443:282|443:282|340:294,1,117.70312241824,2|0,0:0|0:0,0:0:0:0:
338,294,86494,1,2,0:0:0:0:
70,327,86677,1,8,0:0:0:0:
202,285,86860,2,0,L|207:284,1,3.375
100,192,87043,6,0,L|99:187,1,3.375,2|0,3:0|0:0,0:0:0:0:
37,228,87225,1,2,0:0:0:0:
143,61,87408,2,0,B|247:73|247:73|224:92,1,135,8|0,0:0|0:0,0:0:0:0:
104,196,87683,1,2,0:0:0:0:
107,124,87774,6,0,L|100:192,1,67.5,2|0,0:0|0:0,0:0:0:0:
29,295,87957,2,0,L|37:228,1,67.5,2|0,0:0|0:0,0:0:0:0:
224,92,88140,2,0,B|247:73|247:73|143:61,1,135,8|0,0:0|0:0,0:0:0:0:
103,120,88414,1,2,0:0:0:0:
100,192,88506,6,0,L|107:124,1,67.5,2|0,0:0|0:0,0:0:0:0:
37,228,88689,2,0,L|29:295,1,67.5,2|0,0:0|0:0,0:0:0:0:
143,61,88872,2,0,B|243:72,1,101.25,8|0,0:0|0:0,0:0:0:0:
224,92,89055,2,0,B|244:73|244:73|232:25,1,67.5,2|0,0:0|0:0,0:0:0:0:
107,124,89238,6,0,L|100:192,1,67.5,2|0,0:0|0:0,0:0:0:0:
29,295,89421,2,0,L|37:228,1,67.5,2|0,0:0|0:0,0:0:0:0:
224,92,89604,2,0,L|228:88,1,3.375,8|0,0:0|0:0,0:0:0:0:
143,61,89786,2,0,L|138:60,1,3.375,2|0,0:0|0:0,0:0:0:0:
305,123,89969,6,0,B|297:123|297:123|298:119|298:119|301:116|301:116|305:115|305:115|309:116|309:116|312:119|312:119|313:123|313:123|312:127|312:127|309:130|309:130|305:131|305:131|301:130|301:130|298:127|298:127|297:123|297:123|305:123,1,66.8249997960663,2|0,3:0|0:0,0:0:0:0:
305,123,90335,6,0,L|379:115,1,67.5,8|0,0:0|0:0,0:0:0:0:
510,127,90518,2,0,L|443:135,1,67.5,2|0,0:0|0:0,0:0:0:0:
156,138,90701,2,0,B|139:167|139:167|239:157,1,135,2|0,0:0|0:0,0:0:0:0:
372,115,91067,6,0,L|305:123,1,67.5,8|0,0:0|0:0,0:0:0:0:
443,135,91250,1,2,0:0:0:0:
443,135,91616,1,2,0:0:0:0:
305,123,91799,6,0,L|379:115,1,67.5,8|0,0:0|0:0,0:0:0:0:
510,127,91982,2,0,L|443:135,1,67.5,2|0,0:0|0:0,0:0:0:0:
156,138,92164,2,0,B|139:167|139:167|239:157,1,117.70312241824,2|0,0:0|0:0,0:0:0:0:
240,157,92347,1,2,0:0:0:0:
372,115,92530,6,0,L|305:123,1,67.5,8|0,0:0|0:0,0:0:0:0:
443,135,92713,1,2,0:0:0:0:
510,127,92805,1,2,0:0:0:0:
439,139,92896,5,2,3:0:0:0:
363,182,93079,2,0,L|371:115,1,67.5,2|0,0:0|0:0,0:0:0:0:
304,123,93262,2,0,L|312:56,1,67.5,8|0,0:0|0:0,0:0:0:0:
232,224,93445,2,0,L|240:157,1,67.5,2|0,0:0|0:0,0:0:0:0:
439,139,93628,5,2,3:0:0:0:
371,115,93811,2,0,L|363:182,1,67.5,2|0,0:0|0:0,0:0:0:0:
312,56,93994,2,0,L|311:61,2,3.375,8|0|8,0:0|0:0|0:0,0:0:0:0:
240,157,94177,2,0,L|239:162,1,3.375,2|0,0:0|0:0,0:0:0:0:
180,100,94543,2,0,L|179:105,1,3.375,2|0,0:0|0:0,0:0:0:0:
108,202,94908,5,2,3:0:0:0:
175,193,95000,1,0,3:0:0:0:
103,207,95091,6,0,P|101:308|170:199,1,337.5,8|8,0:1|0:0,0:0:0:0:
143,258,95274,1,0,0:0:0:0:
179,103,95457,2,0,B|187:89|187:89|182:72|182:72|174:88|174:88|179:103,6,67.5,2|0|2|0|2|0|0,3:0|0:0|3:2|0:0|3:2|0:0|3:2,0:0:0:0:
175,107,95823,5,4,0:0:0:0:
175,107,96189,6,0,B|182:143|217:169|260:179|298:184|351:179|381:160|390:129|389:97|376:74|351:57|322:60|299:68|287:85|287:107,1,354.375013518334,2|0,0:0|0:0,0:0:0:0:
291,90,96555,2,0,B|271:106|259:152|290:209|328:182|358:250|351:285|331:304,1,236.25,2|0,0:0|0:0,0:0:0:0:
328,306,96921,2,0,B|305:320|274:307|262:273|276:246|311:225|345:225|373:235,1,177.187506759167,2|0,0:0|0:0,0:0:0:0:
374,235,97286,2,0,B|381:239|394:242|410:242|426:240|439:233|449:225|456:214,1,75.9375028967858,2|0,0:0|0:0,0:0:0:0:
451,220,97469,2,0,B|466:211|470:177|464:148|448:136|434:147|416:145|400:111|399:71|413:51|437:38|464:43|477:64|479:73|473:88,1,236.25,2|0,0:0|0:0,0:0:0:0:
472,82,97835,2,0,B|467:91|455:103|432:109|404:108|384:97|370:77|379:53|369:30|345:14|308:0|264:-8|216:-5|185:7|167:20|161:37|163:52,1,354.375013518334,2|0,0:0|0:0,0:0:0:0:
163,42,98201,2,0,B|155:53|149:78|145:108|150:136|164:160|185:170|210:174|234:166|249:153|256:134|253:117|246:102|231:90,1,236.25,2|0,0:0|0:0,0:0:0:0:
234,96,98567,2,0,B|225:91|213:93|199:98|189:113|194:143,1,75.9375028967858,2|0,0:0|0:0,0:0:0:0:
197,146,98750,6,0,B|203:162|217:172|243:176|270:166|264:155|285:145|315:142|338:151|352:169,1,168.75,2|0,0:0|0:0,0:0:0:0:
353,173,99024,2,0,B|363:185|370:203|367:220|357:231|353:226|344:238|342:257|343:274|349:289|362:299|380:304|394:304|408:299|418:289|425:276|426:265|422:253,1,210.9375,2|0,0:0|0:0,0:0:0:0:
418,251,99299,2,0,B|412:242|404:234|390:226|370:223|348:228|325:242|312:260|312:282|315:297|324:312,1,151.875005793572,2|0,0:0|0:0,0:0:0:0:
322,303,99482,6,0,B|329:311|339:315|353:316|367:312|378:302|385:290|388:273|385:257|379:243|364:230|347:219|322:215|293:221|272:233|257:254|249:275,1,253.125009655953,2|0,0:0|0:0,0:0:0:0:
248,277,99756,2,0,B|243:291|235:305|222:317|209:326|188:333|159:334|131:330|114:324|97:315|82:304|74:293|70:279,1,210.9375,2|0,0:0|0:0,0:0:0:0:
69,281,100030,2,0,B|64:273|61:258|62:241|72:222|89:213|107:210|124:216,1,101.25,2|0,0:0|0:0,0:0:0:0:
123,217,100213,6,0,B|131:221|142:222|153:220|164:213|174:199|182:174|182:151|173:118|152:101|133:96|116:98|101:107|93:120|94:135,1,202.500007724762,2|0,0:0|0:0,0:0:0:0:
96,130,100396,2,0,B|95:136|97:142|103:147|113:152|123:156|136:158|148:156|161:152|172:141|181:131|185:121|183:116|180:110|179:102|181:94|187:84|198:74|212:68|228:66|238:68|248:73|254:79,1,202.5,2|0,0:0|0:0,0:0:0:0:
252,80,100579,2,0,B|266:103|253:134|219:146|192:132|171:97|167:68|174:43|193:10,1,202.5,2|0,0:0|0:0,0:0:0:0:
193,12,100762,2,0,B|197:6|202:0|211:-6|225:-12|255:-18|286:-15|315:-5|336:9|351:29|359:48|361:66|352:86,1,202.5,2|0,0:0|0:0,0:0:0:0:
358,69,100945,6,0,B|362:78|370:89|382:98|398:104|416:109|441:111|463:108|479:101|491:89|494:77|496:65|492:52|483:37|470:29|452:28|440:32|429:39|418:52|412:67|409:86|411:107|415:123|429:144,1,303.750011587143,2|0,0:0|0:0,0:0:0:0:
420,131,101311,5,2,0:0:0:0:
412,139,101372,5,2,0:0:0:0:
418,152,101433,5,2,0:0:0:0:
409,161,101494,6,0,B|403:169|406:176|412:179|419:180|426:177|430:171|430:162|425:149|412:136|393:129|367:129|344:139|327:157|324:175,1,151.875005793572,2|0,0:0|0:0,0:0:0:0:
326,169,101677,5,4,0:0:0:0:
326,169,102043,6,0,B|321:176|308:185|295:192|275:190|244:180|231:157|230:125|239:94|270:73|321:62|366:65|403:80|437:109|445:147,1,354.375013518334,2|0,0:0|0:0,0:0:0:0:
444,148,102408,2,0,B|445:156|444:166|443:178|437:190|425:198|416:201|406:205|397:211|390:221|385:236|384:252|390:266|400:275|412:284|430:289|446:288|459:285|472:275|479:260|480:241,1,236.25,2|0,0:0|0:0,0:0:0:0:
478,241,102774,2,0,B|473:230|465:222|448:218|425:220|404:233|387:257|379:282|382:305|389:329|400:346,1,177.187506759167,2|0,0:0|0:0,0:0:0:0:
396,337,103140,2,0,B|401:343|410:343|418:339|421:327|416:315|406:305|385:295|369:294|345:303|325:319,1,126.562504827976,2|0,0:0|0:0,0:0:0:0:
324,318,103414,2,0,B|314:326|301:329|276:330|241:317|225:308|210:296|202:276,1,126.562504827976,2|0,0:0|0:0,0:0:0:0:
206,283,103689,2,0,B|199:274|195:263|194:248|201:233|210:220|229:211|252:209|274:219|290:243|299:268|302:304|290:340|277:361|259:377|236:383|208:385|177:375|159:358|150:339,1,354.375013518334,2|0,0:0|0:0,0:0:0:0:
152,344,104055,2,0,B|143:328|125:314|97:307|69:307|48:314|23:327|10:344|18:386|38:396|62:399|80:396|93:383,1,236.25,2|0,0:0|0:0,0:0:0:0:
94,380,104421,2,0,B|102:370|105:355|106:343|99:316,1,50.6250019311906,2|0,0:0|0:0,0:0:0:0:
6,127,104604,6,0,B|56:138|56:138|101:116|101:116|151:128|151:128|196:107|196:107|246:118|246:118|291:97|291:97|341:108|341:108|386:87|386:87|436:98|436:98|495:71,1,506.250019311906,4|0,0:0|0:0,0:0:0:0:
488,145,105152,6,0,B|443:167|443:167|393:155|393:155|348:176|348:176|298:165|298:165|253:186|253:186|203:175|203:175|153:198,1,354.375013518334,4|0,0:0|0:0,0:0:0:0:
0,59,105884,6,0,B|50:70|50:70|95:48|95:48|145:60|145:60|190:39|190:39|240:50|240:50|285:29|285:29|335:40,1,337.5,4|0,0:0|0:0,0:0:0:0:
292,97,106433,6,0,B|247:119|247:119|197:107|197:107|152:128|152:128|102:117|102:117|59:136,1,236.25,4|0,0:0|0:0,0:0:0:0:
0,316,107164,6,2,B|9:312|20:304|29:292|35:276|40:258|42:233|39:211|32:195|20:183|8:180|-4:178|-17:182|-32:191|-40:204|-41:222|-37:234|-30:245|-17:256|-2:262|17:265|38:263|54:259|75:245,1,303.750011587143
109,201,107530,6,0,L|87:0,3,202.500007724762,4|2|8|2,0:0|0:0|0:1|0:0,0:0:0:0:
55,103,108262,6,2,P|25:89|0:67,1,67.5,2|2,0:0|0:0,0:0:0:0:
109,200,108445,2,2,P|93:207|77:212,1,33.75,2|2,0:0|0:0,0:0:0:0:
187,223,108628,2,2,P|185:234|181:243,1,16.875,10|2,0:0|0:0,0:0:0:0:
244,191,108811,2,2,P|248:193|250:196,1,6.75
252,159,108994,5,2,0:0:0:0:
309,127,109177,1,0,0:0:0:0:
387,150,109360,1,8,0:0:0:0:
441,247,109543,1,0,0:0:0:0:
409,351,109725,5,2,0:0:0:0:
337,384,109908,1,0,0:0:0:0:
309,127,110091,1,8,0:0:0:0:
387,150,110274,1,0,0:0:0:0:
409,351,110457,6,0,L|387:150,3,202.500007724762,4|2|8|2,0:0|0:0|0:1|0:0,0:0:0:0:
441,247,111189,6,2,P|471:261|496:283,1,67.5
387,150,111372,2,2,P|403:143|419:138,1,33.75
309,127,111555,2,2,P|311:116|315:107,1,16.875,10|2,0:0|0:0,0:0:0:0:
252,159,111738,2,2,P|248:157|246:154,1,6.75,2|2,0:0|0:0,0:0:0:0:
244,191,111921,5,2,0:0:0:0:
276,248,112104,1,0,0:0:0:0:
354,271,112286,2,0,B|360:265|360:265|357:256|357:256|350:254|350:254|344:259|344:259|346:268|346:268|354:271,1,50.6250019311906,10|0,0:0|0:0,0:0:0:0:
451,217,112469,2,0,B|447:205|447:205|436:201|436:201|429:208|429:208|431:219|431:219|442:223|442:223|451:217,1,67.5,2|0,0:0|0:0,0:0:0:0:
490,69,112652,5,0,0:0:0:0:
440,135,112835,1,0,0:0:0:0:
460,210,112927,1,2,0:0:0:0:
451,217,113018,5,8,0:0:0:0:
512,270,113201,1,0,0:0:0:0:
490,69,113384,6,0,L|512:270,3,202.500007724762,4|2|8|2,0:0|0:0|0:1|0:0,0:0:0:0:
458,172,114116,6,2,P|431:191|409:229,1,67.5
302,198,114299,2,2,P|300:223|304:248,1,50.6250019311906,2|2,0:0|0:0,0:0:0:0:
239,294,114482,2,2,P|250:307|263:317,1,33.75,10|2,0:0|0:0,0:0:0:0:
261,385,114664,2,2,P|270:385|278:384,1,16.875,2|2,0:0|0:0,0:0:0:0:
329,339,114847,5,2,0:0:0:0:
304,248,115030,1,0,0:0:0:0:
194,185,115213,1,8,0:0:0:0:
31,229,115396,1,0,0:0:0:0:
122,241,115579,5,2,0:0:0:0:
103,173,115762,1,0,0:0:0:0:
50,297,115945,1,8,0:0:0:0:
194,185,116128,1,0,0:0:0:0:
12,161,116311,6,0,L|21:162,1,6.75,6|0,0:0|0:0,0:0:0:0:
203,186,116494,2,0,L|212:187,1,6.75,2|0,0:0|0:0,0:0:0:0:
346,204,116677,2,0,L|355:205,1,6.75,8|0,0:0|0:0,0:0:0:0:
453,217,116860,2,0,L|462:218,1,6.75,2|0,0:0|0:0,0:0:0:0:
50,297,117043,6,0,L|55:292,1,6.75,2|0,0:0|0:0,0:0:0:0:
201,179,117225,2,0,L|206:174,1,6.75,2|0,0:0|0:0,0:0:0:0:
314,90,117408,2,0,L|319:85,1,6.75,8|0,0:0|0:0,0:0:0:0:
398,22,117591,6,2,P|379:-5|351:-25,1,67.5,2|2,0:0|0:0,0:0:0:0:
50,297,117774,2,2,P|67:325|94:346,1,67.5
314,90,117957,6,2,P|290:81|265:78,1,50.6250019311906,2|2,0:0|0:0,0:0:0:0:
94,346,118140,2,2,P|118:355|143:357,1,50.6250019311906,10|2,0:0|0:0,0:0:0:0:
201,179,118323,6,2,P|184:180|168:185,1,33.75,2|2,0:0|0:0,0:0:0:0:
143,357,118506,2,2,P|159:356|176:351,1,33.75,2|2,0:0|0:0,0:0:0:0:
50,297,118689,6,2,P|54:307|59:314,1,16.875,2|2,0:0|0:0,0:0:0:0:
176,351,118872,2,0,L|181:350,6,3.375,8|0|8|0|8|0|8,0:0|0:0|0:0|0:0|0:0|0:0|0:0,0:0:0:0:
108,359,119238,5,4,0:0:0:0:
244,343,119421,2,0,L|258:341,1,13.5,0|8,0:0|0:1,0:0:0:0:
327,361,119786,2,0,L|355:357,1,27,0|0,3:0|3:0,0:0:0:0:
420,324,120335,2,0,L|434:322,1,13.5,8|0,0:1|3:0,0:0:0:0:
496,285,120701,5,0,3:0:0:0:
439,321,120884,1,0,0:0:0:0:
502,284,121067,2,0,L|500:270,1,13.5,8|0,0:1|3:0,0:0:0:0:
431,250,121433,5,0,3:0:0:0:
494,269,121616,1,0,0:0:0:0:
425,249,121799,2,0,L|423:235,1,13.5,8|0,0:1|0:0,0:0:0:0:
486,198,122164,5,0,3:0:0:0:
433,322,122347,1,2,0:0:0:0:
433,322,125091,5,4,0:0:0:0:
486,198,125274,1,0,0:0:0:0:
434,328,125457,2,0,L|436:343,1,13.5,8|0,0:1|3:0,0:0:0:0:
488,274,125823,5,0,3:0:0:0:
432,144,126006,2,0,L|430:130,1,13.5,0|8,0:0|0:1,0:0:0:0:
486,198,126372,5,0,3:0:0:0:
359,140,126555,1,0,0:0:0:0:
491,198,126738,2,0,L|520:194,3,27,0|0|0|0,3:0|3:0|3:0|3:0,0:0:0:0:
256,192,128018,5,4,0:0:0:0:
256,192,128201,12,0,129116,0:0:0:0:
256,192,129299,5,0,3:0:0:0:
249,191,129390,2,0,L|182:183,1,67.5,2|0,0:0|0:0,0:0:0:0:
140,129,129573,6,0,L|141:123,6,3.375,8|0|8|0|8|0|8,0:0|0:0|0:0|0:0|0:0|0:0|0:0,0:0:0:0:
73,122,129939,1,0,0:0:0:0:
21,165,130030,5,0,3:0:0:0:
15,162,130122,1,0,0:0:0:0:
71,117,130213,2,0,L|79:49,1,67.5,2|0,3:0|0:0,0:0:0:0:
15,233,130396,5,8,0:0:0:0:
8,234,130488,2,0,L|3:235,1,3.375,2|0,0:0|0:0,0:0:0:0:
56,284,130579,5,8,0:0:0:0:
52,289,130671,2,0,L|44:357,1,67.5,8|0,0:0|0:0,0:0:0:0:
123,292,130854,6,2,B|149:282|149:282|171:297|171:297|168:325|168:325|142:338|142:338|120:319|120:319|123:292,16,168.75,4|2|2|2|2|2|2|2|2|2|2|2|2|2|2|2|2,3:2|3:0|3:0|3:0|3:0|3:0|3:0|3:0|3:0|3:0|3:0|3:0|3:0|3:0|3:0|3:0|3:0,3:0:0:0:
56,284,132408,5,8,0:0:0:0:
15,233,132500,2,0,L|10:232,1,3.375,2|0,0:0|0:0,0:0:0:0:
52,289,132591,2,0,L|44:357,1,67.5,8|0,0:1|0:0,0:0:0:0:
140,129,132774,6,0,L|148:61,1,67.5,2|0,0:0|0:0,0:0:0:0:
123,292,132957,2,0,L|115:360,1,67.5,2|0,0:0|0:0,0:0:0:0:
73,122,133140,5,8,0:0:0:0:
21,165,133232,2,0,L|16:164,1,3.375,2|0,0:0|0:0,0:0:0:0:
15,162,133414,2,0,L|10:161,1,3.375,2|0,0:0|0:0,0:0:0:0:
71,117,133506,5,8,0:0:0:0:
52,289,133689,1,2,0:0:0:0:
147,62,133872,5,4,0:0:0:0:
115,358,134055,1,0,0:0:0:0:
411,384,134238,1,8,0:0:0:0:
443,88,134421,1,0,0:0:0:0:
365,229,134604,5,2,0:0:0:0:
489,243,134786,1,0,0:0:0:0:
267,307,134969,1,8,0:0:0:0:
65,195,135152,1,0,0:0:0:0:
189,209,135335,5,2,0:0:0:0:
32,50,135518,1,0,0:0:0:0:
120,264,135701,1,8,0:0:0:0:
134,140,135884,1,0,0:0:0:0:
0,346,136067,5,2,0:0:0:0:
43,280,136250,1,0,0:0:0:0:
117,273,136341,1,2,0:0:0:0:
120,264,136433,5,8,0:0:0:0:
0,346,136616,1,0,0:0:0:0:
134,140,136799,5,4,0:0:0:0:
202,384,136982,1,0,0:0:0:0:
446,316,137164,1,8,0:0:0:0:
309,300,137347,1,0,0:0:0:0:
373,337,137530,5,2,0:0:0:0:
288,227,137713,1,0,0:0:0:0:
398,142,137896,1,8,0:0:0:0:
483,252,138079,1,0,0:0:0:0:
419,215,138262,5,2,0:0:0:0:
435,78,138445,1,0,0:0:0:0:
139,180,138628,2,0,L|140:175,2,3.375,8|0|8,0:0|0:0|0:0,0:0:0:0:
123,317,138811,1,0,0:0:0:0:
160,253,138994,5,2,0:0:0:0:
118,107,139177,1,0,0:0:0:0:
259,76,139360,1,8,0:0:0:0:
86,381,139543,1,0,0:0:0:0:
0,31,139725,5,4,0:0:0:0:
118,107,139908,1,0,0:0:0:0:
259,76,140091,1,8,0:0:0:0:
141,0,140274,1,0,0:0:0:0:
235,182,140457,5,2,0:0:0:0:
419,88,140640,1,0,0:0:0:0:
512,271,140823,1,8,0:0:0:0:
427,199,141006,1,0,0:0:0:0:
504,160,141189,5,2,0:0:0:0:
307,97,141372,1,0,0:0:0:0:
124,191,141555,1,8,0:0:0:0:
235,182,141738,1,0,0:0:0:0:
175,131,141921,5,2,0:0:0:0:
184,242,142104,1,0,0:0:0:0:
73,251,142286,1,8,0:0:0:0:
64,140,142469,1,0,0:0:0:0:
133,302,142652,5,4,0:0:0:0:
115,80,142835,1,0,0:0:0:0:
73,251,143018,1,8,0:0:0:0:
184,242,143201,1,0,0:0:0:0:
4,89,143384,5,2,0:0:0:0:
226,71,143567,1,0,0:0:0:0:
244,293,143750,1,8,0:0:0:0:
22,311,143933,1,0,0:0:0:0:
22,311,144299,5,0,0:0:0:0:
304,344,144482,1,8,0:0:0:0:
337,62,144664,1,0,0:0:0:0:
55,29,144847,5,2,3:0:0:0:
170,271,145030,1,8,0:0:0:0:
189,102,145213,1,0,3:0:0:0:
22,311,145396,1,8,0:0:0:0:
377,210,145579,5,4,0:0:0:0:
264,196,145762,1,0,0:0:0:0:
466,140,145945,1,8,0:0:0:0:
447,300,146128,1,0,0:0:0:0:
396,50,146311,5,2,0:0:0:0:
358,370,146494,1,0,0:0:0:0:
447,300,146677,1,8,0:0:0:0:
306,120,146860,1,0,0:0:0:0:
126,261,147043,5,2,0:0:0:0:
245,228,147225,1,0,0:0:0:0:
278,347,147408,1,8,0:0:0:0:
159,380,147591,1,0,0:0:0:0:
203,303,147774,5,2,0:0:0:0:
245,228,147957,1,0,0:0:0:0:
214,153,148049,1,2,0:0:0:0:
222,145,148140,5,8,0:0:0:0:
203,303,148323,1,0,0:0:0:0:
264,70,148506,5,4,0:0:0:0:
497,131,148689,1,0,0:0:0:0:
436,364,148872,1,8,0:0:0:0:
203,303,149055,1,0,0:0:0:0:
281,199,149238,5,0,0:0:0:0:
419,235,149421,1,0,0:0:0:0:
497,131,149604,1,8,0:0:0:0:
266,68,149786,1,0,0:0:0:0:
368,148,149969,5,2,0:0:0:0:
393,53,150152,1,0,0:0:0:0:
419,235,150335,2,0,L|424:236,2,3.375,8|0|8,0:0|0:0|0:0,0:0:0:0:
281,199,150518,1,0,0:0:0:0:
368,148,150701,5,2,0:0:0:0:
419,235,150884,1,0,0:0:0:0:
506,184,151067,1,8,0:0:0:0:
455,97,151250,1,0,0:0:0:0:
281,199,151433,5,4,0:0:0:0:
107,301,151616,1,0,0:0:0:0:
5,127,151799,1,8,0:0:0:0:
179,25,151982,1,0,0:0:0:0:
172,211,152164,5,2,0:0:0:0:
214,291,152347,1,0,0:0:0:0:
270,91,152530,1,8,0:0:0:0:
71,36,152713,1,0,0:0:0:0:
15,236,152896,5,0,0:0:0:0:
190,133,153079,1,2,0:0:0:0:
172,211,153262,1,8,0:0:0:0:
95,194,153445,1,0,0:0:0:0:
113,116,153628,5,2,0:0:0:0:
138,273,153811,1,0,0:0:0:0:
295,248,153994,1,8,0:0:0:0:
270,91,154177,1,0,0:0:0:0:
71,34,154360,5,4,0:0:0:0:
398,58,154543,1,2,0:0:0:0:
373,384,154725,1,8,0:0:0:0:
46,360,154908,1,2,0:0:0:0:
447,229,155091,5,2,0:0:0:0:
447,229,155457,1,8,0:0:0:0:
0,189,155640,1,0,0:0:0:0:
71,30,155823,5,6,0:0:0:0:
374,384,156006,1,2,0:0:0:0:
45,360,156189,1,10,0:0:0:0:
398,54,156372,1,2,0:0:0:0:
398,54,156738,5,0,3:0:0:0:
392,53,156829,1,0,3:0:0:0:
325,86,156921,6,2,P|210:31|335:9,1,337.5,10|10,0:0|0:1,0:0:0:0:
276,40,157104,1,2,0:0:0:0:
140,28,157286,6,0,L|-2:10,2,135,4|0|8,0:0|0:0|0:0,0:0:0:0:
6,11,157835,1,2,0:0:0:0:
140,28,158018,2,0,L|-2:10,2,135,2|0|8,3:0|0:0|0:0,0:0:0:0:
6,11,158567,1,2,0:0:0:0:
69,47,158750,5,2,0:0:0:0:
140,28,158933,1,0,0:0:0:0:
203,65,159116,1,8,0:0:0:0:
222,136,159299,1,0,0:0:0:0:
186,199,159482,5,2,0:0:0:0:
52,182,159664,1,0,0:0:0:0:
25,245,159756,1,2,0:0:0:0:
16,245,159847,5,8,0:0:0:0:
35,316,160030,1,0,0:0:0:0:
169,333,160213,6,0,L|27:315,2,135,4|0|8,0:0|0:0|0:0,0:0:0:0:
35,316,160762,1,2,0:0:0:0:
169,333,160945,2,0,L|27:315,2,135,2|0|8,3:0|0:0|0:0,0:0:0:0:
35,316,161494,1,2,0:0:0:0:
98,352,161677,5,2,0:0:0:0:
169,333,161860,1,0,0:0:0:0:
205,270,162043,2,0,L|210:271,2,3.375,8|0|8,0:0|0:0|0:0,0:0:0:0:
186,199,162225,1,0,0:0:0:0:
122,163,162408,5,2,0:0:0:0:
228,81,162591,1,0,0:0:0:0:
310,187,162774,1,8,0:0:0:0:
205,270,162957,1,0,0:0:0:0:
122,163,163140,5,4,0:0:0:0:
122,163,163506,2,0,L|140:21,1,135,8|0,0:0|0:0,0:0:0:0:
122,163,163872,5,2,3:0:0:0:
139,29,164055,2,0,L|122:162,1,135,2|8,0:0|0:0,0:0:0:0:
139,29,164421,1,2,0:0:0:0:
103,92,164604,5,2,0:0:0:0:
122,163,164786,1,0,0:0:0:0:
185,199,164969,1,8,0:0:0:0:
256,180,165152,1,0,0:0:0:0:
292,117,165335,5,2,0:0:0:0:
399,35,165518,1,0,0:0:0:0:
481,142,165701,1,8,0:0:0:0:
374,224,165884,1,0,0:0:0:0:
462,72,166067,5,4,0:0:0:0:
437,261,166250,1,0,0:0:0:0:
248,236,166433,1,8,0:0:0:0:
273,47,166616,1,0,0:0:0:0:
337,288,166799,5,2,0:0:0:0:
248,236,166982,1,0,0:0:0:0:
151,263,167164,1,8,0:0:0:0:
100,352,167347,1,0,0:0:0:0:
197,325,167530,5,2,0:0:0:0:
221,138,167713,1,0,0:0:0:0:
34,114,167896,1,8,0:0:0:0:
10,301,168079,1,0,0:0:0:0:
100,352,168262,5,2,3:0:0:0:
130,85,168445,1,8,0:0:0:0:
287,376,168628,1,0,3:0:0:0:
318,111,168811,1,8,0:0:0:0:
435,259,168994,6,2,B|435:243|435:243|429:244|429:244|424:247|424:247|420:252|420:252|418:259|418:259|420:266|420:266|424:271|424:271|429:274|429:274|435:275|435:275|441:274|441:274|446:271|446:271|450:266|450:266|452:259|452:259|450:252|450:252|446:247|446:247|441:244|441:244|435:243|435:243|435:259,1,135,6|2,0:0|0:0,0:0:0:0:
346,209,169543,6,2,B|346:201|346:201|342:202|342:202|339:205|339:205|338:209|338:209|339:213|339:213|342:216|342:216|346:217|346:217|350:216|350:216|353:213|353:213|354:209|354:209|353:205|353:205|350:202|350:202|346:201|346:201|346:209,1,66.8249997960663
318,111,170274,6,2,B|318:103|318:103|314:104|314:104|311:107|311:107|310:111|310:111|311:115|311:115|314:118|314:118|318:119|318:119|322:118|322:118|325:115|325:115|326:111|326:111|325:107|325:107|322:104|322:104|318:103|318:103|318:111,1,66.1499993943787
229,61,170640,6,2,B|229:53|229:53|225:54|225:54|222:57|222:57|221:61|221:61|222:65|222:65|225:68|225:68|229:69|229:69|233:68|233:68|236:65|236:65|237:61|237:61|236:57|236:57|233:54|233:54|229:53|229:53|229:61,1,66.8249997960663
131,89,171006,6,2,B|131:85|131:85|127:88|127:88|129:93|129:93|133:93|133:93|135:88|135:88|131:85|131:85|131:89,1,33.75
81,178,171372,6,2,B|81:174|81:174|77:177|77:177|79:182|79:182|83:182|83:182|85:177|85:177|81:174|81:174|81:178,1,33.75
109,276,171554,6,2,B|109:268|109:268|105:269|105:269|102:272|102:272|101:276|101:276|102:280|102:280|105:283|105:283|109:284|109:284|113:283|113:283|116:280|116:280|117:276|117:276|116:272|116:272|113:269|113:269|109:268|109:268|109:276,1,66.8249997960663
198,326,172103,6,2,B|198:322|198:322|194:325|194:325|196:330|196:330|200:330|200:330|202:325|202:325|198:322|198:322|198:326,1,33.75
296,298,172652,6,2,B|296:290|296:290|292:291|292:291|289:294|289:294|288:298|288:298|289:302|289:302|292:305|292:305|296:306|296:306|300:305|300:305|303:302|303:302|304:298|304:298|303:294|303:294|300:291|300:291|296:290|296:290|296:298,1,66.8249997960663
346,209,173201,6,2,B|346:201|346:201|342:202|342:202|339:205|339:205|338:209|338:209|339:213|339:213|342:216|342:216|346:217|346:217|350:216|350:216|353:213|353:213|354:209|354:209|353:205|353:205|350:202|350:202|346:201|346:201|346:209,1,66.8249997960663
445,181,173567,6,2,B|445:177|445:177|441:180|441:180|443:185|443:185|447:185|447:185|449:180|449:180|445:177|445:177|445:181,1,33.75
395,270,173750,6,2,B|395:262|395:262|391:263|391:263|388:266|388:266|387:270|387:270|388:274|388:274|391:277|391:277|395:278|395:278|399:277|399:277|402:274|402:274|403:270|403:270|402:266|402:266|399:263|399:263|395:262|395:262|395:270,1,66.1499993943787
296,298,174115,6,2,B|296:290|296:290|292:291|292:291|289:294|289:294|288:298|288:298|289:302|289:302|292:305|292:305|296:306|296:306|300:305|300:305|303:302|303:302|304:298|304:298|303:294|303:294|300:291|300:291|296:290|296:290|296:298,1,66.8249997960663
207,248,174481,6,2,B|207:240|207:240|203:241|203:241|200:244|200:244|199:248|199:248|200:252|200:252|203:255|203:255|207:256|207:256|211:255|211:255|214:252|214:252|215:248|215:248|214:244|214:244|211:241|211:241|207:240|207:240|207:248,1,66.8249997960663
179,149,175213,6,2,B|179:145|179:145|175:148|175:148|177:153|177:153|181:153|181:153|183:148|183:148|179:145|179:145|179:149,1,33.75
229,60,175396,6,2,B|229:52|229:52|225:53|225:53|222:56|222:56|221:60|221:60|222:64|222:64|225:67|225:67|229:68|229:68|233:67|233:67|236:64|236:64|237:60|237:60|236:56|236:56|233:53|233:53|229:52|229:52|229:60,1,66.8249997960663
328,32,176128,6,2,B|328:24|328:24|324:25|324:25|321:28|321:28|320:32|320:32|321:36|321:36|324:39|324:39|328:40|328:40|332:39|332:39|335:36|335:36|336:32|336:32|335:28|335:28|332:25|332:25|328:24|328:24|328:32,1,66.8249997960663
417,82,176493,6,2,B|417:74|417:74|413:75|413:75|410:78|410:78|409:82|409:82|410:86|410:86|413:89|413:89|417:90|417:90|421:89|421:89|424:86|424:86|425:82|425:82|424:78|424:78|421:75|421:75|417:74|417:74|417:82,1,66.8249997960663
445,181,176859,6,2,B|445:177|445:177|441:180|441:180|443:185|443:185|447:185|447:185|449:180|449:180|445:177|445:177|445:181,1,33.75
395,270,177408,6,2,B|395:262|395:262|391:263|391:263|388:266|388:266|387:270|387:270|388:274|388:274|391:277|391:277|395:278|395:278|399:277|399:277|402:274|402:274|403:270|403:270|402:266|402:266|399:263|399:263|395:262|395:262|395:270,1,66.8249997960663
423,369,178140,6,2,B|423:361|423:361|419:362|419:362|416:365|416:365|415:369|415:369|416:373|416:373|419:376|419:376|423:377|423:377|427:376|427:376|430:373|430:373|431:369|431:369|430:365|430:365|427:362|427:362|423:361|423:361|423:369,1,66.8249997960663
395,270,178506,6,2,B|395:266|395:266|391:269|391:269|393:274|393:274|397:274|397:274|399:269|399:269|395:266|395:266|395:270,1,33.75
306,219,178689,6,2,B|306:215|306:215|302:218|302:218|304:223|304:223|308:223|308:223|310:218|310:218|306:215|306:215|306:219,1,33.75
207,247,178871,6,2,B|207:243|207:243|203:246|203:246|205:251|205:251|209:251|209:251|211:246|211:246|207:243|207:243|207:247,1,33.75
156,336,179054,6,2,B|156:332|156:332|152:335|152:335|154:340|154:340|158:340|158:340|160:335|160:335|156:332|156:332|156:336,1,33.75
255,308,179420,6,2,B|255:300|255:300|251:301|251:301|248:304|248:304|247:308|247:308|248:312|248:312|251:315|251:315|255:316|255:316|259:315|259:315|262:312|262:312|263:308|263:308|262:304|262:304|259:301|259:301|255:300|255:300|255:308,1,66.8249997960663
306,219,179786,6,2,B|306:211|306:211|302:212|302:212|299:215|299:215|298:219|298:219|299:223|299:223|302:226|302:226|306:227|306:227|310:226|310:226|313:223|313:223|314:219|314:219|313:215|313:215|310:212|310:212|306:211|306:211|306:219,1,66.8249997960663
278,120,180152,6,2,B|278:116|278:116|274:119|274:119|276:124|276:124|280:124|280:124|282:119|282:119|278:116|278:116|278:120,1,33.75
189,69,180335,6,2,L|190:64,1,3.375
91,95,180518,5,2,0:0:0:0:
41,182,180701,5,4,0:0:0:0:
41,182,181067,6,0,L|108:190,1,67.5,8|0,0:0|0:0,0:0:0:0:
172,225,181250,2,0,L|239:233,1,67.5,2|0,0:0|0:0,0:0:0:0:
80,342,181433,2,0,B|99:365|99:365|111:261,1,135,2|0,0:0|0:0,0:0:0:0:
108,190,181799,6,0,L|41:182,1,67.5,8|0,0:0|0:0,0:0:0:0:
239,233,181982,2,0,L|172:225,1,67.5,2|0,0:0|0:0,0:0:0:0:
111,261,182164,2,0,B|99:365|99:365|80:342,1,135,2|0,0:0|0:0,0:0:0:0:
104,186,182439,1,2,0:0:0:0:
41,182,182530,6,0,L|108:190,1,67.5,8|0,0:0|0:0,0:0:0:0:
172,225,182713,2,0,L|239:233,1,67.5,2|0,0:0|0:0,0:0:0:0:
76,338,182896,1,2,0:0:0:0:
80,342,182988,2,0,B|99:365|99:365|111:261,1,135,8|0,0:0|0:0,0:0:0:0:
108,190,183262,6,0,L|103:189,1,3.375,8|0,0:0|0:0,0:0:0:0:
239,233,183445,2,0,L|234:232,1,3.375,2|0,0:0|0:0,0:0:0:0:
374,281,183628,5,2,3:0:0:0:
306,257,183811,1,0,0:0:0:0:
359,145,183994,2,0,B|460:135|460:135|439:169,1,135,8|0,0:0|0:0,0:0:0:0:
370,277,184268,1,2,0:0:0:0:
382,348,184360,6,0,L|374:281,1,67.5,2|0,0:0|0:0,0:0:0:0:
299,189,184543,2,0,L|306:257,1,67.5,2|0,0:0|0:0,0:0:0:0:
443,163,184725,2,0,B|460:135|460:135|359:145,1,135,8|0,0:0|0:0,0:0:0:0:
378,344,185000,1,2,0:0:0:0:
374,281,185091,6,0,L|382:348,1,67.5,2|0,0:0|0:0,0:0:0:0:
306,257,185274,2,0,L|299:189,1,67.5,2|0,0:0|0:0,0:0:0:0:
359,145,185457,2,0,B|465:134,1,101.25,8|0,0:0|0:0,0:0:0:0:
443,163,185640,2,0,B|460:135|460:135|435:98,1,67.5,2|0,0:0|0:0,0:0:0:0:
382,348,185823,6,0,L|374:281,1,67.5,2|0,0:0|0:0,0:0:0:0:
299,189,186006,2,0,L|306:257,1,67.5,2|0,0:0|0:0,0:0:0:0:
443,163,186189,1,8,0:0:0:0:
359,145,186372,1,0,0:0:0:0:
275,127,186555,5,2,3:0:0:0:
275,127,186921,6,0,L|201:119,1,67.5,8|0,0:0|0:0,0:0:0:0:
70,131,187104,2,0,L|137:139,1,67.5,2|0,0:0|0:0,0:0:0:0:
176,292,187286,2,0,B|147:309|147:309|157:209,1,135,2|0,0:0|0:0,0:0:0:0:
208,119,187652,6,0,L|275:127,1,67.5,8|0,0:0|0:0,0:0:0:0:
137,139,187835,1,2,0:0:0:0:
137,139,188201,1,2,0:0:0:0:
275,127,188384,6,0,L|201:119,1,67.5,8|0,0:0|0:0,0:0:0:0:
70,131,188567,2,0,L|137:139,1,67.5,2|0,0:0|0:0,0:0:0:0:
172,288,188750,1,2,0:0:0:0:
176,292,188841,2,0,B|147:309|147:309|157:209,1,135,8|0,0:0|0:0,0:0:0:0:
208,119,189116,6,0,L|275:127,1,67.5,8|0,0:0|0:0,0:0:0:0:
137,139,189299,1,2,0:0:0:0:
70,131,189390,1,0,0:0:0:0:
141,143,189482,5,2,3:0:0:0:
208,119,189664,2,0,L|200:52,1,67.5,2|0,0:0|0:0,0:0:0:0:
284,194,189847,2,0,L|276:127,1,67.5,8|0,0:0|0:0,0:0:0:0:
339,68,190030,2,0,L|331:1,1,67.5,2|0,0:0|0:0,0:0:0:0:
141,143,190213,5,4,0:0:0:0:
200,52,190396,2,0,L|208:119,1,67.5,2|0,0:0|0:0,0:0:0:0:
276,127,190579,2,0,L|277:132,2,3.375,8|0|8,0:0|0:0|0:0,0:0:0:0:
331,1,190762,2,0,L|332:6,1,3.375,4|0,0:0|0:0,0:0:0:0:
141,143,190945,5,0,0:0:0:0:
141,143,191677,1,4,0:0:0:0:
