osu file format v14

[General]
AudioFilename: ivy of rutiles.ogg
AudioLeadIn: 1500
PreviewTime: 88660
Countdown: 0
SampleSet: Soft
StackLeniency: 0.7
Mode: 3
LetterboxInBreaks: 0
SpecialStyle: 0
WidescreenStoryboard: 1

[Editor]
DistanceSpacing: 0.8
BeatDivisor: 4
GridSize: 16
TimelineZoom: 3.299998

[Metadata]
Title:ivy of rutiles
TitleUnicode:ivy of rutiles
Artist:Kaminose Tsukasa
ArtistUnicode:上ノ瀬つかさ
Creator:MJH
Version:Rio's Hard
Source:ノスタルジア Op.2
Tags:Video Game Instrumental Jazz Classical uptempo piano accordion soundtrack arcade story unlocks 小さな家 (left) 9th KONAMI Arcade Championship BEMANI LC2446 NOSTALGIA Music Collection ~Op.1 & Op.2~ ~Op.1 & Op.2~ DISC 5 コナステ Op.3 kaminosetsukasa Xnery Roasted Chicken UnluckyCroco Rio1- MJHs
BeatmapID:3317999
BeatmapSetID:1576010

[Difficulty]
HPDrainRate:7.2
CircleSize:5
OverallDifficulty:7.2
ApproachRate:9
SliderMultiplier:1.4
SliderTickRate:1

[Events]
//Background and Video events
0,0,"bg.jpg",0,0
//Break Periods
//Storyboard Layer 0 (Background)
//Storyboard Layer 1 (Fail)
//Storyboard Layer 2 (Pass)
//Storyboard Layer 3 (Foreground)
//Storyboard Layer 4 (Overlay)
//Storyboard Sound Samples

[TimingPoints]
961,228.137,4,2,1,15,1,0
961,-87.66662137,4,2,1,15,0,0
1645,255.319,4,2,1,15,1,8
1645,-78.33337903,4,2,1,15,0,0
2156,240,10,2,1,15,1,8
2156,-83.33333333,10,2,1,15,0,0
4556,235.294,4,2,1,15,1,8
4556,-85.0000425,4,2,1,15,0,0
4791,211.267605633803,4,2,1,15,1,0
4791,-94.66666667,4,2,1,15,0,0
5002,205.479452054795,4,2,1,15,1,8
5002,-97.33333333,4,2,1,15,0,0
5619,209.059,4,2,1,15,1,8
5619,-95.66677349,4,2,1,15,0,0
6455,213.523,4,2,1,15,1,0
6455,-93.66672443,4,2,1,15,0,0
7309,216.606498194946,4,2,1,15,1,8
7309,-92.33333333,4,2,1,15,0,0
7525,246.914,4,2,1,15,1,8
7525,-80.9998623,4,2,1,15,0,0
8019,275.229,4,2,1,15,1,8
8019,-72.66676113,4,2,1,15,0,0
8295,222.222,4,2,1,15,1,0
8295,-90.00009,4,2,1,15,0,0
8517,218.978102189781,4,2,1,15,1,8
8517,-91.33333333,4,2,1,15,0,0
9064,223.880354644691,4,2,1,15,1,0
9064,-89.33343004,4,2,1,15,0,0
9399,284.36,4,2,1,15,1,8
9399,-70.33338022,4,2,1,15,0,0
9968,235.294,4,2,1,15,1,8
9968,-85.0000425,4,2,1,15,0,0
10086,230.769,4,2,1,15,1,8
10086,-86.66675333,4,2,1,15,0,0
10201,219.78,4,2,1,15,1,0
10201,-91.000091,4,2,1,15,0,0
10970,214.286,4,2,1,15,1,0
10970,-93.33320889,4,2,1,15,0,0
11613,221.402556501119,4,2,1,15,1,8
11613,-90.3331936,4,2,1,15,0,0
11834,234.374858276368,4,2,1,15,1,8
11834,-85.33338493,4,2,1,15,0,0
11951,219.779908706683,4,2,1,15,1,0
11951,-91.0001288,4,2,1,15,0,0
12610,217.391,5,2,1,15,1,0
12610,-92.0001288,5,2,1,15,0,0
13589,217.391,4,2,1,15,1,0
13589,-92.0001288,4,2,1,15,0,0
14567,230.769,4,2,1,15,1,8
14567,-86.66675333,4,2,1,15,0,0
14682,262.009,4,2,1,15,1,8
14682,-76.33325573,4,2,1,15,0,0
15337,226.415,4,2,1,15,1,8
15337,-88.33337014,4,2,1,15,0,0
15451,222.222,4,2,1,15,1,8
15451,-90.00009,4,2,1,15,0,0
15562,218.182,4,2,1,15,1,0
15562,-91.66659028,4,2,1,15,0,0
16325,218.182,5,2,1,15,1,0
16325,-91.66659028,5,2,1,15,0,0
17307,218.182,4,2,1,15,1,0
17307,-91.66659028,4,2,1,15,0,0
18071,214.286,4,2,1,15,1,0
18071,-93.33320889,4,2,1,15,0,0
18714,223.881,4,2,1,15,1,8
18714,-89.33317253,4,2,1,15,0,0
18938,232.558,4,2,1,15,1,8
18938,-86.0000516,4,2,1,15,0,0
19054,218.182,4,2,1,15,1,0
19054,-91.66659028,4,2,1,15,0,0
19708,218.182,4,2,1,15,1,0
19708,-91.66659028,4,2,1,15,0,0
20036,214.286,4,2,1,15,1,8
20036,-93.33320889,4,2,1,15,0,0
20250,237.154,4,2,1,15,1,8
20250,-84.33338674,4,2,1,15,0,0
20487,231.66,4,2,1,15,1,8
20487,-86.33341967,4,2,1,15,0,0
20719,230.769,4,2,1,15,1,0
20719,-86.66675333,4,2,1,15,0,0
20834,220.588,4,2,1,15,1,8
20834,-90.66676338,4,2,1,15,0,0
20944,211.267605633803,4,2,1,15,1,8
20944,-94.66666667,4,2,1,15,0,0
21050,206.896551724138,4,2,1,15,1,8
21050,-96.66666667,4,2,1,15,0,0
21154,210.526,4,2,1,15,1,8
21154,-95.0001425,4,2,1,15,0,0
21680,214.286,4,2,1,35,1,0
21680,-93.33320889,4,2,1,35,0,0
22430,214.286,5,2,1,35,1,0
22430,-93.33320889,5,2,1,35,0,0
23394,214.286,4,2,1,35,1,0
23394,-93.33320889,4,2,1,35,0,0
24144,223.881,4,2,1,35,1,0
24144,-89.33317253,4,2,1,35,0,0
24592,234.375,4,2,1,35,1,8
24592,-85.33333333,4,2,1,35,0,0
25061,304.569,4,2,1,35,1,8
25061,-65.66656488,4,2,1,35,0,0
25213,218.181472634716,4,2,1,20,1,0
25213,-91.66681184,4,2,1,20,0,0
25976,218.978487719096,4,2,1,20,1,0
25976,-91.33317253,4,2,1,20,0,0
26304,280.374,4,2,1,20,1,8
26304,-71.33329053,4,2,1,20,0,0
26865,221.402,4,2,1,20,1,8
26865,-90.33342066,4,2,1,20,0,0
27086,215.827,4,2,1,20,1,0
27086,-92.66681184,4,2,1,20,0,0
27842,214.286,4,2,1,20,1,0
27842,-93.33320889,4,2,1,20,0,0
28270,215.827,4,2,1,20,1,8
28270,-92.66681184,4,2,1,20,0,0
28486,228.137,4,2,1,20,1,8
28486,-87.66662137,4,2,1,20,0,0
28714,220.588,4,2,1,20,1,8
28714,-90.66676338,4,2,1,20,0,0
28824,216.606498194946,4,2,1,20,1,0
28824,-92.33333333,4,2,1,20,0,0
29583,218.978,4,2,1,20,1,0
29583,-91.33337596,4,2,1,20,0,0
30130,232.558,4,2,1,20,1,8
30130,-86.0000516,4,2,1,20,0,0
30363,238.095,4,2,1,20,1,8
30363,-84.000084,4,2,1,20,0,0
30601,216.606498194946,4,2,1,20,1,0
30601,-92.33333333,4,2,1,20,0,0
30817,213.523,4,2,1,20,1,8
30817,-93.66672443,4,2,1,20,0,0
31031,210.526,4,2,1,20,1,8
31031,-95.0001425,4,2,1,20,0,0
31347,212.766,4,2,1,20,1,0
31347,-93.9999812,4,2,1,20,0,0
31879,217.391,4,2,1,20,1,8
31879,-92.0001288,4,2,1,20,0,0
32313,218.182,8,2,1,30,1,0
32313,-91.66659028,8,2,1,30,0,0
34059,212.766,4,2,1,30,1,0
34059,-93.9999812,4,2,1,30,0,0
34910,233.463,4,2,1,30,1,8
34910,-85.66667952,4,2,1,30,0,0
35143,333.333,4,2,1,30,1,8
35143,-60.00006,4,2,1,30,0,0
35477,317.46,4,2,1,65,1,8
35477,-63.000063,4,2,1,65,0,0
36112,200.669,10,2,1,65,1,0
36112,-99.66661517,10,2,1,65,0,0
38118,200,4,2,1,65,1,0
38118,-100,4,2,1,65,0,0
63718,200,5,2,1,65,1,0
63718,-100,5,2,1,65,0,0
65518,200,5,2,1,65,1,0
65518,-100,5,2,1,65,0,0
67318,200,5,2,1,65,1,0
67318,-100,5,2,1,65,0,0
68318,200,6,2,1,65,1,0
68318,-100,6,2,1,65,0,0
69518,200,3,2,1,65,1,0
69518,-100,3,2,1,65,0,0
70118,200,4,2,1,20,1,0
70118,-100,4,2,1,20,0,0
80518,-100,4,2,1,65,0,0
81318,200,3,2,1,65,1,0
81318,-100,3,2,1,65,0,0
81918,200,4,2,1,65,1,0
81918,-100,4,2,1,65,0,0
82718,200,3,2,1,65,1,0
82718,-100,3,2,1,65,0,0
83318,200,4,2,1,65,1,0
83318,-100,4,2,1,65,0,0
86518,198.02,4,2,1,65,1,0
86518,-100.999899,4,2,1,65,0,0
87310,200,8,2,1,65,1,0
87310,-100,8,2,1,65,0,0
88910,200,4,2,1,65,1,0
88910,-100,4,2,1,65,0,0
100911,200.669,4,2,1,65,1,0
100911,-99.66661517,4,2,1,65,0,0
101713,200,4,2,1,60,1,0
101713,-100,4,2,1,60,0,0
108113,196.721,4,2,1,60,1,0
108113,-101.6668276,4,2,1,60,0,0
114409,193.548387096774,4,2,1,60,1,0
114409,-103.3333333,4,2,1,60,0,0
117505,194.805,4,2,1,60,1,0
117505,-102.6667693,4,2,1,60,0,0
117895,202.02,4,2,1,60,1,8
117895,-99.000099,4,2,1,60,0,0
118501,202.02,4,2,1,60,1,0
118501,-99.000099,4,2,1,60,0,0
118703,206.896551724138,4,2,1,60,1,8
118703,-96.66666667,4,2,1,60,0,0
118910,209.79,4,2,1,60,1,8
118910,-95.33342867,4,2,1,60,0,0
119120,212.766,4,2,1,60,1,8
119120,-93.9999812,4,2,1,60,0,0
119226,223.048,4,2,1,60,1,8
119226,-89.66679818,4,2,1,60,0,0
119449,243.902,4,2,1,60,1,8
119449,-82.0001476,4,2,1,60,0,0
119571,238.095,4,2,1,55,1,0
119571,-84.000084,4,2,1,55,0,0
120047,226.415,4,2,1,55,1,8
120047,-88.33337014,4,2,1,55,0,0
120274,200,4,2,1,55,1,8
120274,-100,4,2,1,55,0,0
120374,193.548387096774,4,2,1,55,1,8
120374,-103.3333333,4,2,1,55,0,0
120470,203.39,4,2,1,55,1,8
120470,-98.33325139,4,2,1,55,0,0
120674,193.548387096774,4,2,1,55,1,8
120674,-103.3333333,4,2,1,55,0,0
121158,214.286,4,2,1,55,1,0
121158,-93.33320889,4,2,1,55,0,0
121372,247.934,4,2,1,55,1,8
121372,-80.66662902,4,2,1,55,0,0
121620,235.294,4,2,1,55,1,8
121620,-85.0000425,4,2,1,55,0,0
121855,317.46,4,2,1,55,1,8
121855,-63.000063,4,2,1,55,0,0
122966,298.507,5,2,1,55,1,0
122966,-67.00010385,5,2,1,55,0,0
124459,206.896551724138,4,2,1,55,1,8
124459,-96.66666667,4,2,1,55,0,0
124665,206.896551724138,4,2,1,55,1,0
124665,-96.66666667,4,2,1,55,0,0

[HitObjects]
51,192,961,5,0,0:0:0:0:
460,192,1645,1,0,0:0:0:0:
358,192,1676,1,0,0:0:0:0:
153,192,2156,1,0,0:0:0:0:
256,192,2216,1,0,0:0:0:0:
460,192,2256,1,0,0:0:0:0:
358,192,2636,1,0,0:0:0:0:
256,192,2716,1,0,0:0:0:0:
153,192,2796,128,0,4556:0:0:0:0:
51,192,4556,1,0,0:0:0:0:
256,192,4673,1,0,0:0:0:0:
153,192,4791,1,0,0:0:0:0:
51,192,4896,1,0,0:0:0:0:
256,192,5002,1,0,0:0:0:0:
460,192,5002,1,0,0:0:0:0:
256,192,5515,1,0,0:0:0:0:
460,192,5619,1,0,0:0:0:0:
51,192,5723,1,0,0:0:0:0:
358,192,5828,1,0,0:0:0:0:
153,192,5828,1,0,0:0:0:0:
51,192,6455,1,0,0:0:0:0:
153,192,6561,1,0,0:0:0:0:
256,192,6668,1,0,0:0:0:0:
460,192,6668,1,0,0:0:0:0:
256,192,7202,1,0,0:0:0:0:
460,192,7309,1,0,0:0:0:0:
358,192,7417,1,0,0:0:0:0:
51,192,7525,1,0,0:0:0:0:
153,192,7525,1,0,0:0:0:0:
460,192,8019,1,0,0:0:0:0:
358,192,8156,1,0,0:0:0:0:
153,192,8295,1,0,0:0:0:0:
460,192,8406,1,0,0:0:0:0:
358,192,8406,1,0,0:0:0:0:
256,192,8517,1,0,0:0:0:0:
460,192,8626,1,0,0:0:0:0:
153,192,8735,1,0,0:0:0:0:
358,192,8845,1,0,0:0:0:0:
51,192,8954,1,0,0:0:0:0:
460,192,9064,1,0,0:0:0:0:
256,192,9064,1,0,0:0:0:0:
358,192,9287,1,0,0:0:0:0:
51,192,9399,1,0,0:0:0:0:
153,192,9399,1,0,0:0:0:0:
153,192,9612,1,0,0:0:0:0:
256,192,9683,1,0,0:0:0:0:
358,192,9754,1,0,0:0:0:0:
460,192,9968,1,0,0:0:0:0:
358,192,10086,1,0,0:0:0:0:
153,192,10201,1,0,0:0:0:0:
358,192,10310,1,0,0:0:0:0:
460,192,10310,1,0,0:0:0:0:
256,192,10420,1,0,0:0:0:0:
460,192,10530,1,0,0:0:0:0:
153,192,10640,1,0,0:0:0:0:
358,192,10750,1,0,0:0:0:0:
256,192,10860,1,0,0:0:0:0:
51,192,10970,1,0,0:0:0:0:
460,192,10970,1,0,0:0:0:0:
358,192,11184,1,0,0:0:0:0:
153,192,11184,1,0,0:0:0:0:
51,192,11398,1,0,0:0:0:0:
256,192,11398,1,0,0:0:0:0:
256,192,11613,1,0,0:0:0:0:
460,192,11613,1,0,0:0:0:0:
358,192,11834,1,0,0:0:0:0:
256,192,11892,1,0,0:0:0:0:
51,192,11951,1,0,0:0:0:0:
460,192,11951,1,0,0:0:0:0:
153,192,12060,1,0,0:0:0:0:
256,192,12170,1,0,0:0:0:0:
460,192,12280,1,0,0:0:0:0:
256,192,12390,1,0,0:0:0:0:
51,192,12500,1,0,0:0:0:0:
153,192,12610,1,0,0:0:0:0:
358,192,12610,1,0,0:0:0:0:
256,192,12827,1,0,0:0:0:0:
358,192,12936,1,0,0:0:0:0:
51,192,12936,1,0,0:0:0:0:
51,192,13153,1,0,0:0:0:0:
153,192,13262,1,0,0:0:0:0:
256,192,13370,1,0,0:0:0:0:
358,192,13479,1,0,0:0:0:0:
153,192,13589,1,0,0:0:0:0:
460,192,13589,1,0,0:0:0:0:
358,192,13806,1,0,0:0:0:0:
51,192,13915,1,0,0:0:0:0:
256,192,13915,1,0,0:0:0:0:
153,192,14023,1,0,0:0:0:0:
460,192,14132,1,0,0:0:0:0:
51,192,14241,1,0,0:0:0:0:
358,192,14349,1,0,0:0:0:0:
153,192,14458,1,0,0:0:0:0:
256,192,14567,1,0,0:0:0:0:
51,192,14682,1,0,0:0:0:0:
460,192,14682,1,0,0:0:0:0:
460,192,15337,1,0,0:0:0:0:
358,192,15451,1,0,0:0:0:0:
256,192,15562,1,0,0:0:0:0:
460,192,15671,1,0,0:0:0:0:
358,192,15671,1,0,0:0:0:0:
153,192,15780,1,0,0:0:0:0:
460,192,15889,1,0,0:0:0:0:
153,192,15998,1,0,0:0:0:0:
358,192,16107,1,0,0:0:0:0:
51,192,16216,1,0,0:0:0:0:
460,192,16325,1,0,0:0:0:0:
256,192,16325,1,0,0:0:0:0:
358,192,16543,1,0,0:0:0:0:
153,192,16652,1,0,0:0:0:0:
51,192,16652,1,0,0:0:0:0:
256,192,16788,1,0,0:0:0:0:
358,192,16852,1,0,0:0:0:0:
460,192,16917,1,0,0:0:0:0:
51,192,16979,1,0,0:0:0:0:
460,192,17088,1,0,0:0:0:0:
358,192,17197,1,0,0:0:0:0:
256,192,17307,1,0,0:0:0:0:
460,192,17416,1,0,0:0:0:0:
358,192,17416,1,0,0:0:0:0:
153,192,17525,1,0,0:0:0:0:
460,192,17634,1,0,0:0:0:0:
153,192,17743,1,0,0:0:0:0:
358,192,17852,1,0,0:0:0:0:
256,192,17961,1,0,0:0:0:0:
153,192,18071,1,0,0:0:0:0:
51,192,18071,1,0,0:0:0:0:
256,192,18285,1,0,0:0:0:0:
358,192,18285,1,0,0:0:0:0:
153,192,18499,1,0,0:0:0:0:
256,192,18499,1,0,0:0:0:0:
460,192,18714,1,0,0:0:0:0:
358,192,18714,1,0,0:0:0:0:
51,192,18938,1,0,0:0:0:0:
256,192,18996,1,0,0:0:0:0:
460,192,19054,1,0,0:0:0:0:
358,192,19054,1,0,0:0:0:0:
153,192,19163,1,0,0:0:0:0:
256,192,19272,1,0,0:0:0:0:
460,192,19381,1,0,0:0:0:0:
256,192,19490,1,0,0:0:0:0:
51,192,19599,1,0,0:0:0:0:
153,192,19708,1,0,0:0:0:0:
358,192,19708,1,0,0:0:0:0:
256,192,19926,1,0,0:0:0:0:
460,192,20036,1,0,0:0:0:0:
51,192,20036,1,0,0:0:0:0:
153,192,20250,1,0,0:0:0:0:
256,192,20368,1,0,0:0:0:0:
460,192,20487,1,0,0:0:0:0:
358,192,20602,1,0,0:0:0:0:
256,192,20719,1,0,0:0:0:0:
51,192,20719,1,0,0:0:0:0:
358,192,21154,1,0,0:0:0:0:
153,192,21154,1,0,0:0:0:0:
460,192,21364,1,0,0:0:0:0:
256,192,21364,128,0,21680:0:0:0:0:
51,192,21680,1,0,0:0:0:0:
358,192,21680,1,0,0:0:0:0:
51,192,21894,1,0,0:0:0:0:
256,192,21894,1,0,0:0:0:0:
153,192,22108,1,0,0:0:0:0:
358,192,22215,1,0,0:0:0:0:
256,192,22322,1,0,0:0:0:0:
460,192,22430,1,0,0:0:0:0:
153,192,22430,1,0,0:0:0:0:
256,192,22644,1,0,0:0:0:0:
51,192,22751,1,0,0:0:0:0:
358,192,22751,1,0,0:0:0:0:
51,192,22965,1,0,0:0:0:0:
358,192,23072,1,0,0:0:0:0:
153,192,23180,1,0,0:0:0:0:
256,192,23287,1,0,0:0:0:0:
358,192,23394,1,0,0:0:0:0:
460,192,23394,1,0,0:0:0:0:
256,192,23608,1,0,0:0:0:0:
51,192,23715,1,0,0:0:0:0:
153,192,23715,1,0,0:0:0:0:
460,192,23929,1,0,0:0:0:0:
358,192,24036,1,0,0:0:0:0:
51,192,24144,1,0,0:0:0:0:
256,192,24144,1,0,0:0:0:0:
358,192,24367,1,0,0:0:0:0:
153,192,24367,1,0,0:0:0:0:
460,192,24592,1,0,0:0:0:0:
256,192,24592,1,0,0:0:0:0:
51,192,24592,1,0,0:0:0:0:
256,192,24943,1,0,0:0:0:0:
358,192,25061,1,0,0:0:0:0:
153,192,25213,1,0,0:0:0:0:
460,192,25322,1,0,0:0:0:0:
256,192,25431,1,0,0:0:0:0:
51,192,25431,1,0,0:0:0:0:
358,192,25540,1,0,0:0:0:0:
153,192,25649,1,0,0:0:0:0:
256,192,25758,1,0,0:0:0:0:
51,192,25867,1,0,0:0:0:0:
460,192,25976,1,0,0:0:0:0:
256,192,25976,1,0,0:0:0:0:
153,192,26194,1,0,0:0:0:0:
358,192,26304,1,0,0:0:0:0:
51,192,26304,1,0,0:0:0:0:
256,192,26409,1,0,0:0:0:0:
460,192,26496,1,0,0:0:0:0:
358,192,26584,1,0,0:0:0:0:
153,192,26654,1,0,0:0:0:0:
51,192,26742,1,0,0:0:0:0:
256,192,26865,1,0,0:0:0:0:
358,192,26975,1,0,0:0:0:0:
153,192,27086,1,0,0:0:0:0:
460,192,27193,1,0,0:0:0:0:
51,192,27301,1,0,0:0:0:0:
256,192,27301,1,0,0:0:0:0:
358,192,27409,1,0,0:0:0:0:
153,192,27517,1,0,0:0:0:0:
256,192,27625,1,0,0:0:0:0:
460,192,27733,1,0,0:0:0:0:
51,192,27842,1,0,0:0:0:0:
153,192,27842,1,0,0:0:0:0:
358,192,27949,1,0,0:0:0:0:
153,192,28056,1,0,0:0:0:0:
358,192,28163,1,0,0:0:0:0:
256,192,28270,1,0,0:0:0:0:
358,192,28377,1,0,0:0:0:0:
460,192,28486,128,0,28714:0:0:0:0:
358,192,28714,1,0,0:0:0:0:
153,192,28769,1,0,0:0:0:0:
256,192,28824,1,0,0:0:0:0:
460,192,28824,1,0,0:0:0:0:
51,192,28932,1,0,0:0:0:0:
153,192,29040,1,0,0:0:0:0:
358,192,29148,1,0,0:0:0:0:
460,192,29257,1,0,0:0:0:0:
256,192,29365,1,0,0:0:0:0:
51,192,29473,1,0,0:0:0:0:
358,192,29583,128,0,29801:0:0:0:0:
153,192,29801,128,0,29911:0:0:0:0:
460,192,29911,1,0,0:0:0:0:
153,192,30130,1,0,0:0:0:0:
256,192,30217,1,0,0:0:0:0:
358,192,30304,1,0,0:0:0:0:
51,192,30392,1,0,0:0:0:0:
256,192,30482,1,0,0:0:0:0:
460,192,30601,1,0,0:0:0:0:
153,192,30601,1,0,0:0:0:0:
256,192,30709,1,0,0:0:0:0:
358,192,30817,1,0,0:0:0:0:
153,192,30923,1,0,0:0:0:0:
51,192,31031,1,0,0:0:0:0:
256,192,31136,1,0,0:0:0:0:
460,192,31241,1,0,0:0:0:0:
153,192,31347,128,0,31559:0:0:0:0:
358,192,31559,128,0,31666:0:0:0:0:
51,192,31666,1,0,0:0:0:0:
358,192,31879,1,0,0:0:0:0:
153,192,31987,1,0,0:0:0:0:
51,192,32096,1,0,0:0:0:0:
460,192,32205,1,0,0:0:0:0:
358,192,32313,1,0,0:0:0:0:
153,192,32313,1,0,0:0:0:0:
51,192,32435,1,0,0:0:0:0:
256,192,32640,1,0,0:0:0:0:
51,192,32763,1,0,0:0:0:0:
153,192,32967,1,0,0:0:0:0:
358,192,33090,1,0,0:0:0:0:
460,192,33322,1,0,0:0:0:0:
256,192,33444,1,0,0:0:0:0:
153,192,33581,1,0,0:0:0:0:
358,192,33635,1,0,0:0:0:0:
51,192,33694,1,0,0:0:0:0:
153,192,33832,1,0,0:0:0:0:
460,192,33949,1,0,0:0:0:0:
256,192,34059,1,0,0:0:0:0:
358,192,34271,1,0,0:0:0:0:
51,192,34378,1,0,0:0:0:0:
460,192,34484,1,0,0:0:0:0:
153,192,34697,1,0,0:0:0:0:
358,192,34803,1,0,0:0:0:0:
51,192,34910,1,0,0:0:0:0:
460,192,35143,1,0,0:0:0:0:
256,192,35254,1,0,0:0:0:0:
51,192,35365,128,0,36112:0:0:0:0:
460,192,35477,1,0,0:0:0:0:
358,192,35477,1,0,0:0:0:0:
153,192,35794,1,0,0:0:0:0:
460,192,36112,1,0,0:0:0:0:
256,192,36112,1,0,0:0:0:0:
358,192,36245,1,0,0:0:0:0:
153,192,36245,1,0,0:0:0:0:
51,192,36379,1,0,0:0:0:0:
460,192,36379,1,0,0:0:0:0:
153,192,36647,1,0,0:0:0:0:
51,192,36647,1,0,0:0:0:0:
358,192,36780,1,0,0:0:0:0:
256,192,36780,1,0,0:0:0:0:
460,192,36914,1,0,0:0:0:0:
153,192,36914,1,0,0:0:0:0:
358,192,37182,1,0,0:0:0:0:
51,192,37182,1,0,0:0:0:0:
256,192,37316,1,0,0:0:0:0:
153,192,37316,1,0,0:0:0:0:
460,192,37449,1,0,0:0:0:0:
51,192,37449,1,0,0:0:0:0:
358,192,37449,1,0,0:0:0:0:
358,192,37717,128,0,38118:0:0:0:0:
460,192,38118,1,0,0:0:0:0:
51,192,38118,1,0,0:0:0:0:
256,192,38118,1,0,0:0:0:0:
153,192,38218,1,0,0:0:0:0:
358,192,38418,1,0,0:0:0:0:
256,192,38418,1,0,0:0:0:0:
153,192,38518,1,0,0:0:0:0:
358,192,38618,1,0,0:0:0:0:
51,192,38718,1,0,0:0:0:0:
460,192,38818,1,0,0:0:0:0:
256,192,38818,1,0,0:0:0:0:
153,192,39018,1,0,0:0:0:0:
358,192,39118,1,0,0:0:0:0:
460,192,39218,1,0,0:0:0:0:
51,192,39418,1,0,0:0:0:0:
256,192,39518,1,0,0:0:0:0:
460,192,39618,1,0,0:0:0:0:
358,192,39718,1,0,0:0:0:0:
51,192,39718,1,0,0:0:0:0:
153,192,39818,1,0,0:0:0:0:
256,192,40018,1,0,0:0:0:0:
153,192,40018,1,0,0:0:0:0:
51,192,40118,1,0,0:0:0:0:
256,192,40218,1,0,0:0:0:0:
153,192,40318,1,0,0:0:0:0:
358,192,40418,1,0,0:0:0:0:
460,192,40418,1,0,0:0:0:0:
460,192,40618,1,0,0:0:0:0:
358,192,40718,1,0,0:0:0:0:
153,192,40818,1,0,0:0:0:0:
51,192,40818,1,0,0:0:0:0:
256,192,41018,1,0,0:0:0:0:
460,192,41018,1,0,0:0:0:0:
51,192,41251,1,0,0:0:0:0:
358,192,41318,1,0,0:0:0:0:
256,192,41418,1,0,0:0:0:0:
153,192,41418,1,0,0:0:0:0:
51,192,41618,1,0,0:0:0:0:
256,192,41618,1,0,0:0:0:0:
153,192,41718,1,0,0:0:0:0:
358,192,41818,1,0,0:0:0:0:
51,192,41918,1,0,0:0:0:0:
460,192,42018,1,0,0:0:0:0:
256,192,42018,1,0,0:0:0:0:
460,192,42218,1,0,0:0:0:0:
358,192,42318,1,0,0:0:0:0:
256,192,42418,1,0,0:0:0:0:
153,192,42418,1,0,0:0:0:0:
51,192,42518,1,0,0:0:0:0:
256,192,42618,1,0,0:0:0:0:
153,192,42718,1,0,0:0:0:0:
358,192,42818,1,0,0:0:0:0:
51,192,42918,1,0,0:0:0:0:
460,192,42918,1,0,0:0:0:0:
153,192,43018,1,0,0:0:0:0:
358,192,43218,1,0,0:0:0:0:
460,192,43218,1,0,0:0:0:0:
256,192,43318,1,0,0:0:0:0:
153,192,43418,1,0,0:0:0:0:
51,192,43518,1,0,0:0:0:0:
358,192,43518,1,0,0:0:0:0:
460,192,43618,1,0,0:0:0:0:
358,192,43818,1,0,0:0:0:0:
256,192,43918,1,0,0:0:0:0:
51,192,44018,1,0,0:0:0:0:
460,192,44118,1,0,0:0:0:0:
256,192,44218,1,0,0:0:0:0:
358,192,44318,1,0,0:0:0:0:
153,192,44418,1,0,0:0:0:0:
51,192,44518,1,0,0:0:0:0:
460,192,44518,1,0,0:0:0:0:
358,192,44618,1,0,0:0:0:0:
51,192,44718,1,0,0:0:0:0:
153,192,44918,1,0,0:0:0:0:
358,192,45018,1,0,0:0:0:0:
153,192,45118,1,0,0:0:0:0:
51,192,45318,1,0,0:0:0:0:
358,192,45418,1,0,0:0:0:0:
51,192,45518,1,0,0:0:0:0:
153,192,45618,1,0,0:0:0:0:
460,192,45618,128,0,46018:0:0:0:0:
460,192,46118,1,0,0:0:0:0:
51,192,46118,1,0,0:0:0:0:
153,192,46218,1,0,0:0:0:0:
460,192,46318,1,0,0:0:0:0:
358,192,46518,1,0,0:0:0:0:
153,192,46618,1,0,0:0:0:0:
358,192,46718,1,0,0:0:0:0:
460,192,46918,1,0,0:0:0:0:
153,192,47018,1,0,0:0:0:0:
460,192,47118,1,0,0:0:0:0:
358,192,47230,1,0,0:0:0:0:
256,192,47230,1,0,0:0:0:0:
51,192,47230,128,0,47618:0:0:0:0:
51,192,47718,1,0,0:0:0:0:
460,192,47718,1,0,0:0:0:0:
358,192,47818,1,0,0:0:0:0:
51,192,47918,1,0,0:0:0:0:
153,192,48118,1,0,0:0:0:0:
358,192,48218,1,0,0:0:0:0:
153,192,48318,1,0,0:0:0:0:
51,192,48518,1,0,0:0:0:0:
358,192,48618,1,0,0:0:0:0:
51,192,48718,1,0,0:0:0:0:
153,192,48818,1,0,0:0:0:0:
460,192,48818,128,0,49218:0:0:0:0:
460,192,49318,1,0,0:0:0:0:
51,192,49318,1,0,0:0:0:0:
358,192,49518,1,0,0:0:0:0:
153,192,49618,1,0,0:0:0:0:
51,192,49718,1,0,0:0:0:0:
256,192,49780,1,0,0:0:0:0:
358,192,49834,1,0,0:0:0:0:
460,192,49918,1,0,0:0:0:0:
256,192,50018,1,0,0:0:0:0:
51,192,50018,1,0,0:0:0:0:
460,192,50318,1,0,0:0:0:0:
153,192,50318,1,0,0:0:0:0:
358,192,50318,1,0,0:0:0:0:
460,192,50718,1,0,0:0:0:0:
358,192,50818,1,0,0:0:0:0:
256,192,50918,1,0,0:0:0:0:
51,192,50918,1,0,0:0:0:0:
460,192,51018,1,0,0:0:0:0:
153,192,51118,1,0,0:0:0:0:
358,192,51218,1,0,0:0:0:0:
51,192,51318,1,0,0:0:0:0:
256,192,51418,1,0,0:0:0:0:
153,192,51518,1,0,0:0:0:0:
358,192,51618,128,0,51918:0:0:0:0:
256,192,51918,1,0,0:0:0:0:
460,192,52018,1,0,0:0:0:0:
51,192,52018,1,0,0:0:0:0:
153,192,52018,1,0,0:0:0:0:
358,192,52318,1,0,0:0:0:0:
256,192,52418,1,0,0:0:0:0:
153,192,52518,1,0,0:0:0:0:
460,192,52618,1,0,0:0:0:0:
51,192,52718,1,0,0:0:0:0:
256,192,52718,1,0,0:0:0:0:
358,192,52818,1,0,0:0:0:0:
51,192,52918,1,0,0:0:0:0:
153,192,53018,1,0,0:0:0:0:
256,192,53118,1,0,0:0:0:0:
460,192,53218,1,0,0:0:0:0:
153,192,53318,1,0,0:0:0:0:
358,192,53418,1,0,0:0:0:0:
51,192,53518,1,0,0:0:0:0:
153,192,53518,1,0,0:0:0:0:
256,192,53618,1,0,0:0:0:0:
358,192,53718,1,0,0:0:0:0:
460,192,53818,1,0,0:0:0:0:
153,192,53818,1,0,0:0:0:0:
358,192,54018,1,0,0:0:0:0:
256,192,54068,1,0,0:0:0:0:
460,192,54118,1,0,0:0:0:0:
51,192,54118,1,0,0:0:0:0:
153,192,54318,1,0,0:0:0:0:
358,192,54418,1,0,0:0:0:0:
460,192,54418,1,0,0:0:0:0:
256,192,54618,1,0,0:0:0:0:
153,192,54718,1,0,0:0:0:0:
51,192,54718,1,0,0:0:0:0:
358,192,54818,1,0,0:0:0:0:
460,192,54918,1,0,0:0:0:0:
153,192,55018,1,0,0:0:0:0:
256,192,55118,1,0,0:0:0:0:
460,192,55218,1,0,0:0:0:0:
358,192,55318,1,0,0:0:0:0:
256,192,55418,1,0,0:0:0:0:
153,192,55518,1,0,0:0:0:0:
460,192,55618,1,0,0:0:0:0:
51,192,55618,1,0,0:0:0:0:
256,192,55818,1,0,0:0:0:0:
153,192,55918,1,0,0:0:0:0:
51,192,55918,1,0,0:0:0:0:
460,192,56118,1,0,0:0:0:0:
358,192,56118,1,0,0:0:0:0:
153,192,56318,1,0,0:0:0:0:
51,192,56318,1,0,0:0:0:0:
256,192,56518,1,0,0:0:0:0:
51,192,56618,1,0,0:0:0:0:
460,192,56618,1,0,0:0:0:0:
358,192,56618,1,0,0:0:0:0:
153,192,56818,1,0,0:0:0:0:
256,192,56918,1,0,0:0:0:0:
51,192,56918,1,0,0:0:0:0:
358,192,57018,1,0,0:0:0:0:
460,192,57118,1,0,0:0:0:0:
51,192,57218,1,0,0:0:0:0:
256,192,57218,1,0,0:0:0:0:
153,192,57218,1,0,0:0:0:0:
358,192,57418,1,0,0:0:0:0:
256,192,57518,1,0,0:0:0:0:
51,192,57618,1,0,0:0:0:0:
460,192,57718,1,0,0:0:0:0:
153,192,57718,1,0,0:0:0:0:
358,192,57818,1,0,0:0:0:0:
256,192,57918,1,0,0:0:0:0:
153,192,58018,1,0,0:0:0:0:
51,192,58018,1,0,0:0:0:0:
460,192,58218,1,0,0:0:0:0:
256,192,58218,1,0,0:0:0:0:
358,192,58418,1,0,0:0:0:0:
153,192,58418,1,0,0:0:0:0:
51,192,58418,1,0,0:0:0:0:
358,192,58718,1,0,0:0:0:0:
256,192,58818,1,0,0:0:0:0:
153,192,58918,1,0,0:0:0:0:
460,192,59018,1,0,0:0:0:0:
256,192,59118,1,0,0:0:0:0:
51,192,59118,1,0,0:0:0:0:
358,192,59218,1,0,0:0:0:0:
153,192,59318,1,0,0:0:0:0:
256,192,59418,1,0,0:0:0:0:
51,192,59518,1,0,0:0:0:0:
358,192,59618,1,0,0:0:0:0:
153,192,59718,1,0,0:0:0:0:
256,192,59818,1,0,0:0:0:0:
460,192,59818,1,0,0:0:0:0:
51,192,59918,1,0,0:0:0:0:
153,192,60018,1,0,0:0:0:0:
358,192,60018,1,0,0:0:0:0:
256,192,60118,1,0,0:0:0:0:
460,192,60218,1,0,0:0:0:0:
51,192,60218,1,0,0:0:0:0:
153,192,60318,1,0,0:0:0:0:
358,192,60418,1,0,0:0:0:0:
256,192,60618,1,0,0:0:0:0:
460,192,60718,1,0,0:0:0:0:
153,192,60818,1,0,0:0:0:0:
51,192,60818,1,0,0:0:0:0:
358,192,60918,1,0,0:0:0:0:
51,192,61018,1,0,0:0:0:0:
256,192,61118,1,0,0:0:0:0:
460,192,61118,1,0,0:0:0:0:
153,192,61118,1,0,0:0:0:0:
460,192,61418,1,0,0:0:0:0:
358,192,61418,1,0,0:0:0:0:
358,192,61618,1,0,0:0:0:0:
153,192,61718,1,0,0:0:0:0:
256,192,61818,1,0,0:0:0:0:
51,192,61918,1,0,0:0:0:0:
153,192,62018,1,0,0:0:0:0:
358,192,62018,1,0,0:0:0:0:
460,192,62018,1,0,0:0:0:0:
358,192,62218,1,0,0:0:0:0:
256,192,62218,1,0,0:0:0:0:
153,192,62418,1,0,0:0:0:0:
51,192,62418,1,0,0:0:0:0:
153,192,62618,1,0,0:0:0:0:
460,192,62618,1,0,0:0:0:0:
460,192,62818,1,0,0:0:0:0:
358,192,62868,1,0,0:0:0:0:
51,192,62918,1,0,0:0:0:0:
256,192,62918,1,0,0:0:0:0:
358,192,63118,1,0,0:0:0:0:
256,192,63218,1,0,0:0:0:0:
153,192,63318,1,0,0:0:0:0:
460,192,63518,1,0,0:0:0:0:
358,192,63618,1,0,0:0:0:0:
256,192,63718,1,0,0:0:0:0:
358,192,63918,1,0,0:0:0:0:
256,192,64018,1,0,0:0:0:0:
51,192,64018,1,0,0:0:0:0:
153,192,64118,1,0,0:0:0:0:
358,192,64218,1,0,0:0:0:0:
256,192,64318,1,0,0:0:0:0:
153,192,64418,1,0,0:0:0:0:
51,192,64518,1,0,0:0:0:0:
256,192,64618,1,0,0:0:0:0:
358,192,64718,1,0,0:0:0:0:
460,192,64718,1,0,0:0:0:0:
153,192,64918,1,0,0:0:0:0:
460,192,65018,1,0,0:0:0:0:
256,192,65018,1,0,0:0:0:0:
358,192,65118,1,0,0:0:0:0:
51,192,65318,1,0,0:0:0:0:
153,192,65418,1,0,0:0:0:0:
256,192,65518,1,0,0:0:0:0:
153,192,65718,1,0,0:0:0:0:
358,192,65818,1,0,0:0:0:0:
256,192,65818,1,0,0:0:0:0:
51,192,65918,1,0,0:0:0:0:
153,192,66018,1,0,0:0:0:0:
256,192,66118,1,0,0:0:0:0:
460,192,66218,1,0,0:0:0:0:
358,192,66218,1,0,0:0:0:0:
153,192,66318,1,0,0:0:0:0:
51,192,66318,1,0,0:0:0:0:
256,192,66518,1,0,0:0:0:0:
358,192,66718,1,0,0:0:0:0:
256,192,66818,1,0,0:0:0:0:
153,192,66918,1,0,0:0:0:0:
460,192,66918,1,0,0:0:0:0:
256,192,67118,1,0,0:0:0:0:
153,192,67218,1,0,0:0:0:0:
51,192,67318,1,0,0:0:0:0:
358,192,67518,1,0,0:0:0:0:
256,192,67618,1,0,0:0:0:0:
153,192,67718,1,0,0:0:0:0:
256,192,67818,1,0,0:0:0:0:
51,192,67918,1,0,0:0:0:0:
358,192,68018,1,0,0:0:0:0:
460,192,68018,1,0,0:0:0:0:
153,192,68118,1,0,0:0:0:0:
256,192,68218,1,0,0:0:0:0:
358,192,68318,1,0,0:0:0:0:
153,192,68418,1,0,0:0:0:0:
51,192,68418,1,0,0:0:0:0:
256,192,68518,1,0,0:0:0:0:
460,192,68518,1,0,0:0:0:0:
51,192,68618,1,0,0:0:0:0:
358,192,68718,1,0,0:0:0:0:
153,192,68818,1,0,0:0:0:0:
256,192,68918,1,0,0:0:0:0:
460,192,69018,5,0,0:0:0:0:
153,192,69118,1,0,0:0:0:0:
358,192,69218,1,0,0:0:0:0:
51,192,69318,1,0,0:0:0:0:
256,192,69418,1,0,0:0:0:0:
358,192,69518,128,0,69718:0:0:0:0:
460,192,69518,128,0,69718:0:0:0:0:
256,192,69718,1,0,0:0:0:0:
51,192,69818,128,0,70018:0:0:0:0:
153,192,69818,128,0,70018:0:0:0:0:
51,192,70118,1,0,0:0:0:0:
460,192,70118,1,0,0:0:0:0:
256,192,70118,1,0,0:0:0:0:
460,192,70384,1,0,0:0:0:0:
256,192,70518,1,0,0:0:0:0:
153,192,70518,1,0,0:0:0:0:
358,192,70651,1,0,0:0:0:0:
153,192,70918,1,0,0:0:0:0:
51,192,70918,1,0,0:0:0:0:
153,192,71184,1,0,0:0:0:0:
460,192,71318,1,0,0:0:0:0:
256,192,71318,1,0,0:0:0:0:
51,192,71451,1,0,0:0:0:0:
358,192,71718,1,0,0:0:0:0:
153,192,71718,1,0,0:0:0:0:
358,192,71984,1,0,0:0:0:0:
51,192,72118,1,0,0:0:0:0:
256,192,72118,1,0,0:0:0:0:
153,192,72251,1,0,0:0:0:0:
460,192,72518,1,0,0:0:0:0:
358,192,72518,1,0,0:0:0:0:
460,192,72784,1,0,0:0:0:0:
256,192,72918,1,0,0:0:0:0:
358,192,72918,1,0,0:0:0:0:
153,192,73051,1,0,0:0:0:0:
51,192,73318,1,0,0:0:0:0:
358,192,73318,1,0,0:0:0:0:
51,192,73584,1,0,0:0:0:0:
460,192,73718,1,0,0:0:0:0:
153,192,73718,1,0,0:0:0:0:
358,192,73851,1,0,0:0:0:0:
256,192,74118,1,0,0:0:0:0:
51,192,74118,1,0,0:0:0:0:
51,192,74384,1,0,0:0:0:0:
256,192,74518,1,0,0:0:0:0:
460,192,74518,1,0,0:0:0:0:
153,192,74651,1,0,0:0:0:0:
358,192,74918,1,0,0:0:0:0:
460,192,74918,1,0,0:0:0:0:
358,192,75184,1,0,0:0:0:0:
51,192,75318,1,0,0:0:0:0:
153,192,75318,1,0,0:0:0:0:
460,192,75451,1,0,0:0:0:0:
358,192,75718,1,0,0:0:0:0:
256,192,75718,1,0,0:0:0:0:
256,192,75984,1,0,0:0:0:0:
51,192,76118,1,0,0:0:0:0:
153,192,76118,1,0,0:0:0:0:
358,192,76251,1,0,0:0:0:0:
256,192,76518,1,0,0:0:0:0:
51,192,76518,1,0,0:0:0:0:
256,192,76784,1,0,0:0:0:0:
358,192,76918,1,0,0:0:0:0:
153,192,76918,1,0,0:0:0:0:
51,192,77051,1,0,0:0:0:0:
153,192,77318,1,0,0:0:0:0:
460,192,77318,1,0,0:0:0:0:
153,192,77584,1,0,0:0:0:0:
460,192,77718,1,0,0:0:0:0:
358,192,77718,1,0,0:0:0:0:
256,192,77851,1,0,0:0:0:0:
153,192,78118,1,0,0:0:0:0:
358,192,78118,1,0,0:0:0:0:
358,192,78384,1,0,0:0:0:0:
460,192,78518,1,0,0:0:0:0:
256,192,78518,1,0,0:0:0:0:
51,192,78651,1,0,0:0:0:0:
358,192,78918,1,0,0:0:0:0:
153,192,78918,1,0,0:0:0:0:
358,192,79184,1,0,0:0:0:0:
153,192,79318,1,0,0:0:0:0:
256,192,79318,1,0,0:0:0:0:
51,192,79451,1,0,0:0:0:0:
153,192,79718,1,0,0:0:0:0:
460,192,79718,1,0,0:0:0:0:
358,192,79851,1,0,0:0:0:0:
51,192,79984,1,0,0:0:0:0:
256,192,80118,1,0,0:0:0:0:
153,192,80251,1,0,0:0:0:0:
358,192,80384,1,0,0:0:0:0:
460,192,80518,128,0,81318:0:0:0:0:
51,192,80651,1,0,0:0:0:0:
153,192,80784,1,0,0:0:0:0:
256,192,80918,1,0,0:0:0:0:
153,192,81051,1,0,0:0:0:0:
256,192,81184,1,0,0:0:0:0:
358,192,81318,1,0,0:0:0:0:
51,192,81318,1,0,0:0:0:0:
256,192,81505,1,0,0:0:0:0:
153,192,81618,1,0,0:0:0:0:
51,192,81618,1,0,0:0:0:0:
460,192,81618,1,0,0:0:0:0:
358,192,81918,1,0,0:0:0:0:
153,192,81918,1,0,0:0:0:0:
51,192,82105,1,0,0:0:0:0:
256,192,82218,1,0,0:0:0:0:
460,192,82218,1,0,0:0:0:0:
153,192,82418,1,0,0:0:0:0:
256,192,82501,1,0,0:0:0:0:
51,192,82618,1,0,0:0:0:0:
358,192,82718,1,0,0:0:0:0:
460,192,82718,1,0,0:0:0:0:
153,192,82905,1,0,0:0:0:0:
256,192,83018,1,0,0:0:0:0:
460,192,83018,1,0,0:0:0:0:
51,192,83018,1,0,0:0:0:0:
51,192,83318,1,0,0:0:0:0:
358,192,83318,1,0,0:0:0:0:
256,192,83505,1,0,0:0:0:0:
460,192,83618,1,0,0:0:0:0:
153,192,83618,1,0,0:0:0:0:
460,192,83975,1,0,0:0:0:0:
358,192,84038,1,0,0:0:0:0:
256,192,84078,1,0,0:0:0:0:
153,192,84118,128,0,84718:0:0:0:0:
51,192,84118,1,0,0:0:0:0:
51,192,84718,1,0,0:0:0:0:
256,192,84818,1,0,0:0:0:0:
358,192,84918,128,0,85518:0:0:0:0:
256,192,85218,1,0,0:0:0:0:
460,192,85218,1,0,0:0:0:0:
153,192,85518,1,0,0:0:0:0:
256,192,85618,1,0,0:0:0:0:
460,192,85718,128,0,86318:0:0:0:0:
358,192,86318,1,0,0:0:0:0:
51,192,86418,128,0,87310:0:0:0:0:
153,192,86905,1,0,0:0:0:0:
256,192,87013,1,0,0:0:0:0:
358,192,87103,1,0,0:0:0:0:
460,192,87211,1,0,0:0:0:0:
256,192,87443,1,0,0:0:0:0:
153,192,87443,1,0,0:0:0:0:
153,192,87576,1,0,0:0:0:0:
256,192,87576,1,0,0:0:0:0:
256,192,87843,1,0,0:0:0:0:
460,192,87843,1,0,0:0:0:0:
256,192,87976,1,0,0:0:0:0:
460,192,87976,1,0,0:0:0:0:
153,192,88110,1,0,0:0:0:0:
51,192,88110,1,0,0:0:0:0:
460,192,88222,1,0,0:0:0:0:
358,192,88222,1,0,0:0:0:0:
51,192,88426,1,0,0:0:0:0:
256,192,88426,1,0,0:0:0:0:
460,192,88426,1,0,0:0:0:0:
153,192,88710,1,0,0:0:0:0:
256,192,88810,1,0,0:0:0:0:
460,192,88910,1,0,0:0:0:0:
51,192,88910,1,0,0:0:0:0:
358,192,88910,1,0,0:0:0:0:
153,192,89026,1,0,0:0:0:0:
460,192,89226,1,0,0:0:0:0:
256,192,89226,1,0,0:0:0:0:
51,192,89426,1,0,0:0:0:0:
358,192,89426,1,0,0:0:0:0:
460,192,89510,1,0,0:0:0:0:
256,192,89626,1,0,0:0:0:0:
153,192,89626,1,0,0:0:0:0:
51,192,89910,1,0,0:0:0:0:
460,192,90026,1,0,0:0:0:0:
153,192,90026,1,0,0:0:0:0:
256,192,90310,1,0,0:0:0:0:
460,192,90310,1,0,0:0:0:0:
358,192,90410,1,0,0:0:0:0:
153,192,90510,1,0,0:0:0:0:
51,192,90510,1,0,0:0:0:0:
460,192,90626,1,0,0:0:0:0:
256,192,90826,1,0,0:0:0:0:
358,192,90910,1,0,0:0:0:0:
460,192,90910,1,0,0:0:0:0:
153,192,91010,1,0,0:0:0:0:
460,192,91110,1,0,0:0:0:0:
256,192,91226,1,0,0:0:0:0:
51,192,91226,1,0,0:0:0:0:
153,192,91426,1,0,0:0:0:0:
256,192,91510,1,0,0:0:0:0:
460,192,91510,1,0,0:0:0:0:
358,192,91710,1,0,0:0:0:0:
460,192,91910,1,0,0:0:0:0:
153,192,91910,1,0,0:0:0:0:
256,192,92010,1,0,0:0:0:0:
358,192,92110,1,0,0:0:0:0:
460,192,92110,1,0,0:0:0:0:
51,192,92210,1,0,0:0:0:0:
358,192,92310,1,0,0:0:0:0:
153,192,92426,1,0,0:0:0:0:
51,192,92426,1,0,0:0:0:0:
256,192,92626,1,0,0:0:0:0:
460,192,92826,1,0,0:0:0:0:
153,192,92826,1,0,0:0:0:0:
358,192,93026,1,0,0:0:0:0:
51,192,93110,1,0,0:0:0:0:
153,192,93110,1,0,0:0:0:0:
358,192,93310,1,0,0:0:0:0:
153,192,93310,1,0,0:0:0:0:
256,192,93426,1,0,0:0:0:0:
460,192,93426,1,0,0:0:0:0:
358,192,93626,1,0,0:0:0:0:
51,192,93626,1,0,0:0:0:0:
153,192,93626,1,0,0:0:0:0:
358,192,93910,1,0,0:0:0:0:
256,192,93910,1,0,0:0:0:0:
460,192,94110,1,0,0:0:0:0:
153,192,94110,1,0,0:0:0:0:
51,192,94310,1,0,0:0:0:0:
358,192,94310,1,0,0:0:0:0:
358,192,94510,1,0,0:0:0:0:
460,192,94510,1,0,0:0:0:0:
153,192,94626,1,0,0:0:0:0:
256,192,94626,1,0,0:0:0:0:
358,192,94822,1,0,0:0:0:0:
256,192,94822,1,0,0:0:0:0:
51,192,94822,1,0,0:0:0:0:
460,192,95026,1,0,0:0:0:0:
153,192,95026,1,0,0:0:0:0:
51,192,95226,1,0,0:0:0:0:
460,192,95226,1,0,0:0:0:0:
256,192,95226,1,0,0:0:0:0:
460,192,95426,1,0,0:0:0:0:
358,192,95426,1,0,0:0:0:0:
256,192,95626,1,0,0:0:0:0:
358,192,95626,1,0,0:0:0:0:
153,192,95826,1,0,0:0:0:0:
51,192,95826,1,0,0:0:0:0:
460,192,95910,1,0,0:0:0:0:
256,192,96026,1,0,0:0:0:0:
153,192,96026,1,0,0:0:0:0:
51,192,96226,1,0,0:0:0:0:
358,192,96226,1,0,0:0:0:0:
256,192,96310,1,0,0:0:0:0:
460,192,96426,1,0,0:0:0:0:
153,192,96426,1,0,0:0:0:0:
51,192,96426,1,0,0:0:0:0:
153,192,96710,1,0,0:0:0:0:
460,192,96710,1,0,0:0:0:0:
256,192,96810,1,0,0:0:0:0:
51,192,96910,1,0,0:0:0:0:
358,192,96910,1,0,0:0:0:0:
460,192,97026,1,0,0:0:0:0:
256,192,97226,1,0,0:0:0:0:
51,192,97310,1,0,0:0:0:0:
153,192,97310,1,0,0:0:0:0:
358,192,97410,1,0,0:0:0:0:
153,192,97510,1,0,0:0:0:0:
256,192,97626,1,0,0:0:0:0:
460,192,97626,1,0,0:0:0:0:
358,192,97826,1,0,0:0:0:0:
460,192,97910,1,0,0:0:0:0:
153,192,97910,1,0,0:0:0:0:
256,192,98110,1,0,0:0:0:0:
153,192,98310,1,0,0:0:0:0:
51,192,98310,1,0,0:0:0:0:
358,192,98410,1,0,0:0:0:0:
460,192,98510,1,0,0:0:0:0:
51,192,98510,1,0,0:0:0:0:
256,192,98610,1,0,0:0:0:0:
153,192,98710,1,0,0:0:0:0:
460,192,98826,1,0,0:0:0:0:
358,192,98826,1,0,0:0:0:0:
256,192,99026,1,0,0:0:0:0:
358,192,99226,1,0,0:0:0:0:
51,192,99226,1,0,0:0:0:0:
153,192,99426,1,0,0:0:0:0:
358,192,99510,1,0,0:0:0:0:
460,192,99510,1,0,0:0:0:0:
256,192,99710,1,0,0:0:0:0:
51,192,99710,1,0,0:0:0:0:
153,192,99826,1,0,0:0:0:0:
358,192,99826,1,0,0:0:0:0:
460,192,100026,1,0,0:0:0:0:
256,192,100026,1,0,0:0:0:0:
153,192,100026,1,0,0:0:0:0:
358,192,100310,1,0,0:0:0:0:
51,192,100310,1,0,0:0:0:0:
460,192,100310,1,0,0:0:0:0:
153,192,100510,1,0,0:0:0:0:
51,192,100510,1,0,0:0:0:0:
460,192,100710,5,0,0:0:0:0:
256,192,100710,1,0,0:0:0:0:
460,192,100911,5,0,0:0:0:0:
153,192,100911,1,0,0:0:0:0:
51,192,101044,1,0,0:0:0:0:
358,192,101044,1,0,0:0:0:0:
256,192,101178,1,0,0:0:0:0:
51,192,101312,1,0,0:0:0:0:
460,192,101312,1,0,0:0:0:0:
358,192,101446,1,0,0:0:0:0:
153,192,101446,1,0,0:0:0:0:
256,192,101579,1,0,0:0:0:0:
153,192,101713,1,0,0:0:0:0:
460,192,101713,1,0,0:0:0:0:
51,192,101713,1,0,0:0:0:0:
51,192,101913,1,0,0:0:0:0:
153,192,102013,1,0,0:0:0:0:
256,192,102113,1,0,0:0:0:0:
460,192,102313,1,0,0:0:0:0:
358,192,102413,1,0,0:0:0:0:
256,192,102513,1,0,0:0:0:0:
51,192,102713,1,0,0:0:0:0:
256,192,102813,1,0,0:0:0:0:
460,192,102913,1,0,0:0:0:0:
358,192,103113,1,0,0:0:0:0:
256,192,103213,1,0,0:0:0:0:
153,192,103313,1,0,0:0:0:0:
460,192,103413,1,0,0:0:0:0:
358,192,103513,1,0,0:0:0:0:
256,192,103513,1,0,0:0:0:0:
51,192,103713,1,0,0:0:0:0:
153,192,103913,1,0,0:0:0:0:
460,192,104013,1,0,0:0:0:0:
256,192,104113,1,0,0:0:0:0:
358,192,104313,1,0,0:0:0:0:
256,192,104413,1,0,0:0:0:0:
153,192,104513,1,0,0:0:0:0:
51,192,104613,1,0,0:0:0:0:
358,192,104613,1,0,0:0:0:0:
460,192,104713,1,0,0:0:0:0:
256,192,104813,1,0,0:0:0:0:
51,192,104913,1,0,0:0:0:0:
153,192,105013,1,0,0:0:0:0:
358,192,105013,1,0,0:0:0:0:
153,192,105313,1,0,0:0:0:0:
51,192,105313,1,0,0:0:0:0:
256,192,105513,1,0,0:0:0:0:
358,192,105613,1,0,0:0:0:0:
460,192,105713,1,0,0:0:0:0:
358,192,105913,1,0,0:0:0:0:
256,192,106013,1,0,0:0:0:0:
153,192,106113,1,0,0:0:0:0:
51,192,106113,1,0,0:0:0:0:
358,192,106225,1,0,0:0:0:0:
256,192,106313,1,0,0:0:0:0:
460,192,106379,1,0,0:0:0:0:
51,192,106438,1,0,0:0:0:0:
153,192,106513,1,0,0:0:0:0:
358,192,106613,1,0,0:0:0:0:
460,192,106613,1,0,0:0:0:0:
256,192,106813,1,0,0:0:0:0:
358,192,106813,1,0,0:0:0:0:
51,192,107013,1,0,0:0:0:0:
153,192,107100,1,0,0:0:0:0:
256,192,107100,1,0,0:0:0:0:
153,192,107313,1,0,0:0:0:0:
51,192,107313,1,0,0:0:0:0:
460,192,107313,1,0,0:0:0:0:
358,192,107413,1,0,0:0:0:0:
256,192,107513,1,0,0:0:0:0:
153,192,107613,1,0,0:0:0:0:
358,192,107713,1,0,0:0:0:0:
256,192,107813,1,0,0:0:0:0:
153,192,107913,1,0,0:0:0:0:
256,192,108013,1,0,0:0:0:0:
460,192,108113,1,0,0:0:0:0:
51,192,108113,1,0,0:0:0:0:
358,192,108113,1,0,0:0:0:0:
460,192,108309,1,0,0:0:0:0:
153,192,108309,1,0,0:0:0:0:
256,192,108408,1,0,0:0:0:0:
460,192,108637,1,0,0:0:0:0:
358,192,108768,1,0,0:0:0:0:
256,192,108899,1,0,0:0:0:0:
51,192,108899,1,0,0:0:0:0:
358,192,109096,1,0,0:0:0:0:
460,192,109096,1,0,0:0:0:0:
153,192,109194,1,0,0:0:0:0:
358,192,109424,1,0,0:0:0:0:
256,192,109555,1,0,0:0:0:0:
460,192,109686,1,0,0:0:0:0:
153,192,109686,1,0,0:0:0:0:
358,192,109883,1,0,0:0:0:0:
256,192,109883,1,0,0:0:0:0:
153,192,109998,1,0,0:0:0:0:
51,192,109998,1,0,0:0:0:0:
460,192,110276,1,0,0:0:0:0:
153,192,110276,1,0,0:0:0:0:
358,192,110473,1,0,0:0:0:0:
51,192,110473,1,0,0:0:0:0:
256,192,110670,1,0,0:0:0:0:
460,192,110670,1,0,0:0:0:0:
153,192,110768,1,0,0:0:0:0:
358,192,110867,1,0,0:0:0:0:
256,192,111063,1,0,0:0:0:0:
51,192,111063,1,0,0:0:0:0:
153,192,111260,1,0,0:0:0:0:
51,192,111457,1,0,0:0:0:0:
256,192,111457,1,0,0:0:0:0:
460,192,111457,1,0,0:0:0:0:
358,192,111555,1,0,0:0:0:0:
153,192,111785,1,0,0:0:0:0:
256,192,111916,1,0,0:0:0:0:
358,192,112047,1,0,0:0:0:0:
256,192,112244,1,0,0:0:0:0:
153,192,112244,1,0,0:0:0:0:
460,192,112244,1,0,0:0:0:0:
51,192,112342,1,0,0:0:0:0:
256,192,112572,1,0,0:0:0:0:
358,192,112703,1,0,0:0:0:0:
256,192,112834,1,0,0:0:0:0:
51,192,112834,1,0,0:0:0:0:
460,192,112834,1,0,0:0:0:0:
358,192,113140,1,0,0:0:0:0:
153,192,113140,1,0,0:0:0:0:
460,192,113424,1,0,0:0:0:0:
256,192,113424,1,0,0:0:0:0:
153,192,113621,1,0,0:0:0:0:
51,192,113621,1,0,0:0:0:0:
358,192,113621,1,0,0:0:0:0:
51,192,113927,5,0,0:0:0:0:
256,192,113927,1,0,0:0:0:0:
358,192,114211,1,0,0:0:0:0:
153,192,114211,1,0,0:0:0:0:
256,192,114211,128,0,114409:0:0:0:0:
460,192,114409,5,0,0:0:0:0:
51,192,114409,1,0,0:0:0:0:
358,192,114505,1,0,0:0:0:0:
256,192,114602,1,0,0:0:0:0:
153,192,114699,1,0,0:0:0:0:
460,192,114796,1,0,0:0:0:0:
358,192,114892,1,0,0:0:0:0:
256,192,114989,1,0,0:0:0:0:
153,192,115086,1,0,0:0:0:0:
51,192,115183,1,0,0:0:0:0:
460,192,115231,1,0,0:0:0:0:
256,192,115279,1,0,0:0:0:0:
358,192,115376,1,0,0:0:0:0:
51,192,115480,1,0,0:0:0:0:
153,192,115480,1,0,0:0:0:0:
460,192,115480,128,0,115860:0:0:0:0:
460,192,115957,1,0,0:0:0:0:
51,192,115957,1,0,0:0:0:0:
153,192,116054,1,0,0:0:0:0:
256,192,116150,1,0,0:0:0:0:
358,192,116247,1,0,0:0:0:0:
51,192,116344,1,0,0:0:0:0:
153,192,116441,1,0,0:0:0:0:
256,192,116538,1,0,0:0:0:0:
358,192,116634,1,0,0:0:0:0:
51,192,116731,1,0,0:0:0:0:
460,192,116731,1,0,0:0:0:0:
256,192,116828,1,0,0:0:0:0:
153,192,116925,1,0,0:0:0:0:
51,192,117021,128,0,117409:0:0:0:0:
460,192,117021,1,0,0:0:0:0:
358,192,117021,1,0,0:0:0:0:
51,192,117505,1,0,0:0:0:0:
460,192,117505,1,0,0:0:0:0:
153,192,117505,1,0,0:0:0:0:
51,192,117699,1,0,0:0:0:0:
358,192,117797,1,0,0:0:0:0:
153,192,117895,1,0,0:0:0:0:
358,192,117996,1,0,0:0:0:0:
256,192,118097,1,0,0:0:0:0:
358,192,118198,1,0,0:0:0:0:
153,192,118400,1,0,0:0:0:0:
51,192,118501,1,0,0:0:0:0:
460,192,118501,1,0,0:0:0:0:
358,192,118501,1,0,0:0:0:0:
153,192,118703,1,0,0:0:0:0:
256,192,118806,1,0,0:0:0:0:
153,192,118910,1,0,0:0:0:0:
358,192,119014,1,0,0:0:0:0:
153,192,119120,1,0,0:0:0:0:
460,192,119226,1,0,0:0:0:0:
256,192,119449,1,0,0:0:0:0:
358,192,119571,1,0,0:0:0:0:
460,192,119571,1,0,0:0:0:0:
51,192,119571,128,0,122966:0:0:0:0:
358,192,120674,1,0,0:0:0:0:
256,192,120846,1,0,0:0:0:0:
358,192,120964,1,0,0:0:0:0:
460,192,121158,1,0,0:0:0:0:
256,192,121372,1,0,0:0:0:0:
153,192,121604,1,0,0:0:0:0:
358,192,121835,1,0,0:0:0:0:
460,192,121855,1,0,0:0:0:0:
153,192,122390,1,0,0:0:0:0:
358,192,122444,1,0,0:0:0:0:
256,192,122553,1,0,0:0:0:0:
153,192,122966,1,0,0:0:0:0:
460,192,122966,1,0,0:0:0:0:
358,192,122966,1,0,0:0:0:0:
256,192,123364,1,0,0:0:0:0:
460,192,123364,1,0,0:0:0:0:
358,192,123364,1,0,0:0:0:0:
460,192,123762,128,0,124459:0:0:0:0:
358,192,123762,128,0,124459:0:0:0:0:
153,192,124459,1,0,0:0:0:0:
358,192,124562,1,0,0:0:0:0:
51,192,124665,128,0,124975:0:0:0:0:
153,192,124665,1,0,0:0:0:0:
256,192,124665,1,0,0:0:0:0:
