osu file format v14

[General]
AudioFilename: ivy of rutiles.ogg
AudioLeadIn: 1500
PreviewTime: 88660
Countdown: 0
SampleSet: Soft
StackLeniency: 0.7
Mode: 3
LetterboxInBreaks: 0
SpecialStyle: 0
WidescreenStoryboard: 0

[Editor]
Bookmarks: 2156,5619,8019,8295,9968,10086,11613,13589,15451,17307,18071,18714,18938,20036,20719,21050,21154,24592,25061,26865,27842,28486,29583,30363,31031,31347,31879,34059,35477,36112,100911,114409,117895,118910,119120,119571,120274,120674,121158,121620,124459
DistanceSpacing: 0.8
BeatDivisor: 4
GridSize: 16
TimelineZoom: 3.099999

[Metadata]
Title:ivy of rutiles
TitleUnicode:ivy of rutiles
Artist:Kaminose Tsukasa
ArtistUnicode:上ノ瀬つかさ
Creator:MJH
Version:Hyper
Source:ノスタルジア Op.2
Tags:Video Game Instrumental Jazz Classical uptempo piano accordion soundtrack arcade story unlocks 小さな家 (left) 9th KONAMI Arcade Championship BEMANI LC2446 NOSTALGIA Music Collection ~Op.1 & Op.2~ ~Op.1 & Op.2~ DISC 5 コナステ Op.3 kaminosetsukasa Xnery Roasted Chicken UnluckyCroco Rio1- MJHs
BeatmapID:3314116
BeatmapSetID:1576010

[Difficulty]
HPDrainRate:7.5
CircleSize:5
OverallDifficulty:7.5
ApproachRate:9
SliderMultiplier:1.4
SliderTickRate:1

[Events]
//Background and Video events
0,0,"bg.jpg",0,0
//Break Periods
//Storyboard Layer 0 (Background)
//Storyboard Layer 1 (Fail)
//Storyboard Layer 2 (Pass)
//Storyboard Layer 3 (Foreground)
//Storyboard Layer 4 (Overlay)
//Storyboard Sound Samples

[TimingPoints]
961,228.137,4,2,1,15,1,0
961,-87.66662137,4,2,1,15,0,0
1645,255.319,4,2,1,15,1,8
1645,-78.33337903,4,2,1,15,0,0
2156,240,10,2,1,15,1,8
2156,-83.33333333,10,2,1,15,0,0
4556,235.294,4,2,1,15,1,8
4556,-85.0000425,4,2,1,15,0,0
4791,211.267605633803,4,2,1,15,1,0
4791,-94.66666667,4,2,1,15,0,0
5002,205.479452054795,4,2,1,15,1,8
5002,-97.33333333,4,2,1,15,0,0
5619,209.059,4,2,1,15,1,8
5619,-95.66677349,4,2,1,15,0,0
6455,213.523,4,2,1,15,1,0
6455,-93.66672443,4,2,1,15,0,0
7309,216.606498194946,4,2,1,15,1,8
7309,-92.33333333,4,2,1,15,0,0
7525,246.914,4,2,1,15,1,8
7525,-80.9998623,4,2,1,15,0,0
8019,275.229,4,2,1,15,1,8
8019,-72.66676113,4,2,1,15,0,0
8295,222.222,4,2,1,15,1,0
8295,-90.00009,4,2,1,15,0,0
8517,218.978102189781,4,2,1,15,1,8
8517,-91.33333333,4,2,1,15,0,0
9064,223.880354644691,4,2,1,15,1,0
9064,-89.33343004,4,2,1,15,0,0
9399,284.36,4,2,1,15,1,8
9399,-70.33338022,4,2,1,15,0,0
9968,235.294,4,2,1,15,1,8
9968,-85.0000425,4,2,1,15,0,0
10086,230.769,4,2,1,15,1,8
10086,-86.66675333,4,2,1,15,0,0
10201,219.78,4,2,1,15,1,0
10201,-91.000091,4,2,1,15,0,0
10970,214.286,4,2,1,15,1,0
10970,-93.33320889,4,2,1,15,0,0
11613,221.402556501119,4,2,1,15,1,8
11613,-90.3331936,4,2,1,15,0,0
11834,234.374858276368,4,2,1,15,1,8
11834,-85.33338493,4,2,1,15,0,0
11951,219.779908706683,4,2,1,15,1,0
11951,-91.0001288,4,2,1,15,0,0
12610,217.391,5,2,1,15,1,0
12610,-92.0001288,5,2,1,15,0,0
13589,217.391,4,2,1,15,1,0
13589,-92.0001288,4,2,1,15,0,0
14567,230.769,4,2,1,15,1,8
14567,-86.66675333,4,2,1,15,0,0
14682,262.009,4,2,1,15,1,8
14682,-76.33325573,4,2,1,15,0,0
15337,226.415,4,2,1,15,1,8
15337,-88.33337014,4,2,1,15,0,0
15451,222.222,4,2,1,15,1,8
15451,-90.00009,4,2,1,15,0,0
15562,218.182,4,2,1,15,1,0
15562,-91.66659028,4,2,1,15,0,0
16325,218.182,5,2,1,15,1,0
16325,-91.66659028,5,2,1,15,0,0
17307,218.182,4,2,1,15,1,0
17307,-91.66659028,4,2,1,15,0,0
18071,214.286,4,2,1,15,1,0
18071,-93.33320889,4,2,1,15,0,0
18714,223.881,4,2,1,15,1,8
18714,-89.33317253,4,2,1,15,0,0
18938,232.558,4,2,1,15,1,8
18938,-86.0000516,4,2,1,15,0,0
19054,218.182,4,2,1,15,1,0
19054,-91.66659028,4,2,1,15,0,0
19708,218.182,4,2,1,15,1,0
19708,-91.66659028,4,2,1,15,0,0
20036,214.286,4,2,1,15,1,8
20036,-93.33320889,4,2,1,15,0,0
20250,237.154,4,2,1,15,1,8
20250,-84.33338674,4,2,1,15,0,0
20487,231.66,4,2,1,15,1,8
20487,-86.33341967,4,2,1,15,0,0
20719,230.769,4,2,1,15,1,0
20719,-86.66675333,4,2,1,15,0,0
20834,220.588,4,2,1,15,1,8
20834,-90.66676338,4,2,1,15,0,0
20944,211.267605633803,4,2,1,15,1,8
20944,-94.66666667,4,2,1,15,0,0
21050,206.896551724138,4,2,1,15,1,8
21050,-96.66666667,4,2,1,15,0,0
21154,210.526,4,2,1,15,1,8
21154,-95.0001425,4,2,1,15,0,0
21680,214.286,4,2,1,35,1,0
21680,-93.33320889,4,2,1,35,0,0
22430,214.286,5,2,1,35,1,0
22430,-93.33320889,5,2,1,35,0,0
23394,214.286,4,2,1,35,1,0
23394,-93.33320889,4,2,1,35,0,0
24144,223.881,4,2,1,35,1,0
24144,-89.33317253,4,2,1,35,0,0
24592,234.375,4,2,1,35,1,8
24592,-85.33333333,4,2,1,35,0,0
25061,304.569,4,2,1,35,1,8
25061,-65.66656488,4,2,1,35,0,0
25213,218.181472634716,4,2,1,20,1,0
25213,-91.66681184,4,2,1,20,0,0
25976,218.978487719096,4,2,1,20,1,0
25976,-91.33317253,4,2,1,20,0,0
26304,280.374,4,2,1,20,1,8
26304,-71.33329053,4,2,1,20,0,0
26865,221.402,4,2,1,20,1,8
26865,-90.33342066,4,2,1,20,0,0
27086,215.827,4,2,1,20,1,0
27086,-92.66681184,4,2,1,20,0,0
27842,214.286,4,2,1,20,1,0
27842,-93.33320889,4,2,1,20,0,0
28270,215.827,4,2,1,20,1,8
28270,-92.66681184,4,2,1,20,0,0
28486,228.137,4,2,1,20,1,8
28486,-87.66662137,4,2,1,20,0,0
28714,220.588,4,2,1,20,1,8
28714,-90.66676338,4,2,1,20,0,0
28824,216.606498194946,4,2,1,20,1,0
28824,-92.33333333,4,2,1,20,0,0
29583,218.978,4,2,1,20,1,0
29583,-91.33337596,4,2,1,20,0,0
30130,232.558,4,2,1,20,1,8
30130,-86.0000516,4,2,1,20,0,0
30363,238.095,4,2,1,20,1,8
30363,-84.000084,4,2,1,20,0,0
30601,216.606498194946,4,2,1,20,1,0
30601,-92.33333333,4,2,1,20,0,0
30817,213.523,4,2,1,20,1,8
30817,-93.66672443,4,2,1,20,0,0
31031,210.526,4,2,1,20,1,8
31031,-95.0001425,4,2,1,20,0,0
31347,212.766,4,2,1,20,1,0
31347,-93.9999812,4,2,1,20,0,0
31879,217.391,4,2,1,20,1,8
31879,-92.0001288,4,2,1,20,0,0
32313,218.182,8,2,1,30,1,0
32313,-91.66659028,8,2,1,30,0,0
34059,212.766,4,2,1,30,1,0
34059,-93.9999812,4,2,1,30,0,0
34910,233.463,4,2,1,30,1,8
34910,-85.66667952,4,2,1,30,0,0
35143,333.333,4,2,1,30,1,8
35143,-60.00006,4,2,1,30,0,0
35477,317.46,4,2,1,55,1,8
35477,-63.000063,4,2,1,55,0,0
36112,200.669,10,2,1,55,1,0
36112,-99.66661517,10,2,1,55,0,0
38118,200,4,2,1,55,1,0
38118,-100,4,2,1,55,0,0
63718,200,5,2,1,55,1,0
63718,-100,5,2,1,55,0,0
65518,200,5,2,1,55,1,0
65518,-100,5,2,1,55,0,0
67318,200,5,2,1,55,1,0
67318,-100,5,2,1,55,0,0
68318,200,6,2,1,55,1,0
68318,-100,6,2,1,55,0,0
69518,200,3,2,1,55,1,0
69518,-100,3,2,1,55,0,0
70118,200,4,2,1,20,1,0
70118,-100,4,2,1,20,0,0
80518,-100,4,2,1,50,0,0
81318,200,3,2,1,50,1,0
81318,-100,3,2,1,50,0,0
81918,200,4,2,1,50,1,0
81918,-100,4,2,1,50,0,0
82718,200,3,2,1,50,1,0
82718,-100,3,2,1,50,0,0
83318,200,4,2,1,50,1,0
83318,-100,4,2,1,50,0,0
86518,198.02,4,2,1,50,1,0
86518,-100.999899,4,2,1,50,0,0
87310,200,8,2,1,60,1,0
87310,-100,8,2,1,60,0,0
88910,200,4,2,1,60,1,0
88910,-100,4,2,1,60,0,0
100911,200.669,4,2,1,60,1,0
100911,-99.66661517,4,2,1,60,0,0
101713,200,4,2,1,60,1,0
101713,-100,4,2,1,60,0,0
108113,196.721,4,2,1,60,1,0
108113,-101.6668276,4,2,1,60,0,0
114409,193.548387096774,4,2,1,60,1,0
114409,-103.3333333,4,2,1,60,0,0
117505,194.805,4,2,1,60,1,0
117505,-102.6667693,4,2,1,60,0,0
117895,202.02,4,2,1,60,1,8
117895,-99.000099,4,2,1,60,0,0
118501,202.02,4,2,1,60,1,0
118501,-99.000099,4,2,1,60,0,0
118703,206.896551724138,4,2,1,60,1,8
118703,-96.66666667,4,2,1,60,0,0
118910,209.79,4,2,1,60,1,8
118910,-95.33342867,4,2,1,60,0,0
119120,212.766,4,2,1,60,1,8
119120,-93.9999812,4,2,1,60,0,0
119226,223.048,4,2,1,60,1,8
119226,-89.66679818,4,2,1,60,0,0
119449,243.902,4,2,1,60,1,8
119449,-82.0001476,4,2,1,60,0,0
119571,238.095,4,2,1,55,1,0
119571,-84.000084,4,2,1,55,0,0
120047,226.415,4,2,1,55,1,8
120047,-88.33337014,4,2,1,55,0,0
120274,200,4,2,1,55,1,8
120274,-100,4,2,1,55,0,0
120374,193.548387096774,4,2,1,55,1,8
120374,-103.3333333,4,2,1,55,0,0
120470,203.39,4,2,1,55,1,8
120470,-98.33325139,4,2,1,55,0,0
120674,193.548387096774,4,2,1,55,1,8
120674,-103.3333333,4,2,1,55,0,0
121158,214.286,4,2,1,55,1,0
121158,-93.33320889,4,2,1,55,0,0
121372,247.934,4,2,1,55,1,8
121372,-80.66662902,4,2,1,55,0,0
121620,235.294,4,2,1,55,1,8
121620,-85.0000425,4,2,1,55,0,0
121855,317.46,4,2,1,55,1,8
121855,-63.000063,4,2,1,55,0,0
122966,298.507,5,2,1,55,1,0
122966,-67.00010385,5,2,1,55,0,0
124459,206.896551724138,4,2,1,55,1,8
124459,-96.66666667,4,2,1,55,0,0
124665,206.896551724138,4,2,1,55,1,0
124665,-96.66666667,4,2,1,55,0,0

[HitObjects]
51,0,961,5,0,0:0:0:0:
460,0,1645,1,0,0:0:0:0:
358,0,1676,1,0,0:0:0:0:
153,0,2156,1,0,0:0:0:0:
256,0,2216,1,0,0:0:0:0:
358,0,2256,1,0,0:0:0:0:
256,0,2636,1,0,0:0:0:0:
153,0,2716,1,0,0:0:0:0:
51,0,2796,128,0,4791:0:0:0:0:
460,0,4556,1,0,0:0:0:0:
358,0,4673,1,0,0:0:0:0:
256,0,4791,1,0,0:0:0:0:
358,0,4896,1,0,0:0:0:0:
153,0,5002,1,0,0:0:0:0:
460,0,5002,1,0,0:0:0:0:
51,0,5515,1,0,0:0:0:0:
153,0,5619,1,0,0:0:0:0:
358,0,5723,1,0,0:0:0:0:
256,0,5828,1,0,0:0:0:0:
460,0,5828,1,0,0:0:0:0:
256,0,6455,1,0,0:0:0:0:
358,0,6561,1,0,0:0:0:0:
153,0,6668,1,0,0:0:0:0:
460,0,6668,1,0,0:0:0:0:
51,0,7202,1,0,0:0:0:0:
153,0,7309,1,0,0:0:0:0:
358,0,7417,1,0,0:0:0:0:
51,0,7525,1,0,0:0:0:0:
460,0,7525,1,0,0:0:0:0:
460,0,8019,1,0,0:0:0:0:
358,0,8156,1,0,0:0:0:0:
256,0,8295,1,0,0:0:0:0:
460,0,8295,1,0,0:0:0:0:
51,0,8406,1,0,0:0:0:0:
358,0,8517,1,0,0:0:0:0:
153,0,8626,1,0,0:0:0:0:
460,0,8735,1,0,0:0:0:0:
256,0,8845,1,0,0:0:0:0:
358,0,8954,1,0,0:0:0:0:
153,0,9064,1,0,0:0:0:0:
256,0,9064,1,0,0:0:0:0:
460,0,9175,1,0,0:0:0:0:
358,0,9287,1,0,0:0:0:0:
51,0,9399,1,0,0:0:0:0:
153,0,9399,1,0,0:0:0:0:
256,0,9612,1,0,0:0:0:0:
358,0,9683,1,0,0:0:0:0:
460,0,9754,1,0,0:0:0:0:
51,0,9968,1,0,0:0:0:0:
153,0,10086,1,0,0:0:0:0:
51,0,10201,1,0,0:0:0:0:
256,0,10201,1,0,0:0:0:0:
460,0,10310,1,0,0:0:0:0:
153,0,10420,1,0,0:0:0:0:
358,0,10530,1,0,0:0:0:0:
51,0,10640,1,0,0:0:0:0:
256,0,10750,1,0,0:0:0:0:
153,0,10860,1,0,0:0:0:0:
51,0,10970,1,0,0:0:0:0:
460,0,10970,1,0,0:0:0:0:
358,0,11077,1,0,0:0:0:0:
256,0,11184,1,0,0:0:0:0:
460,0,11184,1,0,0:0:0:0:
51,0,11291,1,0,0:0:0:0:
153,0,11398,1,0,0:0:0:0:
358,0,11398,1,0,0:0:0:0:
153,0,11613,1,0,0:0:0:0:
460,0,11613,1,0,0:0:0:0:
358,0,11834,1,0,0:0:0:0:
256,0,11892,1,0,0:0:0:0:
153,0,11951,1,0,0:0:0:0:
460,192,11951,1,0,0:0:0:0:
51,0,12060,1,0,0:0:0:0:
358,0,12170,1,0,0:0:0:0:
153,0,12280,1,0,0:0:0:0:
256,0,12390,1,0,0:0:0:0:
51,0,12500,1,0,0:0:0:0:
358,0,12610,1,0,0:0:0:0:
153,0,12610,128,0,12827:0:0:0:0:
256,0,12827,1,0,0:0:0:0:
51,0,12936,1,0,0:0:0:0:
358,0,12936,1,0,0:0:0:0:
153,0,13153,1,0,0:0:0:0:
256,0,13262,1,0,0:0:0:0:
358,0,13370,1,0,0:0:0:0:
460,0,13479,1,0,0:0:0:0:
51,0,13589,1,0,0:0:0:0:
256,0,13589,1,0,0:0:0:0:
256,0,13806,1,0,0:0:0:0:
153,0,13915,1,0,0:0:0:0:
460,0,13915,1,0,0:0:0:0:
358,0,14023,1,0,0:0:0:0:
51,0,14132,1,0,0:0:0:0:
256,0,14132,1,0,0:0:0:0:
153,0,14241,1,0,0:0:0:0:
358,0,14349,1,0,0:0:0:0:
460,0,14349,1,0,0:0:0:0:
51,0,14567,1,0,0:0:0:0:
153,0,14682,1,0,0:0:0:0:
256,0,14682,1,0,0:0:0:0:
460,0,14682,1,0,0:0:0:0:
51,0,15337,1,0,0:0:0:0:
153,0,15451,1,0,0:0:0:0:
51,0,15562,1,0,0:0:0:0:
256,0,15562,1,0,0:0:0:0:
460,0,15671,1,0,0:0:0:0:
153,0,15780,1,0,0:0:0:0:
358,0,15889,1,0,0:0:0:0:
51,0,15998,1,0,0:0:0:0:
256,0,16107,1,0,0:0:0:0:
153,0,16216,1,0,0:0:0:0:
256,0,16325,1,0,0:0:0:0:
358,0,16325,1,0,0:0:0:0:
51,0,16434,1,0,0:0:0:0:
153,0,16543,1,0,0:0:0:0:
358,0,16652,1,0,0:0:0:0:
460,0,16652,1,0,0:0:0:0:
256,0,16788,1,0,0:0:0:0:
153,0,16852,1,0,0:0:0:0:
51,0,16917,1,0,0:0:0:0:
256,0,16979,1,0,0:0:0:0:
460,0,17088,1,0,0:0:0:0:
358,0,17197,1,0,0:0:0:0:
256,0,17307,1,0,0:0:0:0:
460,0,17307,1,0,0:0:0:0:
51,0,17416,1,0,0:0:0:0:
358,0,17525,1,0,0:0:0:0:
153,0,17634,1,0,0:0:0:0:
460,0,17743,1,0,0:0:0:0:
256,0,17852,1,0,0:0:0:0:
358,0,17961,1,0,0:0:0:0:
460,0,18071,1,0,0:0:0:0:
51,0,18071,1,0,0:0:0:0:
153,0,18178,1,0,0:0:0:0:
51,0,18285,1,0,0:0:0:0:
256,0,18285,1,0,0:0:0:0:
460,0,18392,1,0,0:0:0:0:
153,0,18499,1,0,0:0:0:0:
358,0,18499,1,0,0:0:0:0:
51,0,18714,1,0,0:0:0:0:
358,0,18714,1,0,0:0:0:0:
153,0,18938,1,0,0:0:0:0:
256,0,18996,1,0,0:0:0:0:
358,0,19054,1,0,0:0:0:0:
51,192,19054,1,0,0:0:0:0:
460,0,19163,1,0,0:0:0:0:
153,0,19272,1,0,0:0:0:0:
358,0,19381,1,0,0:0:0:0:
256,0,19490,1,0,0:0:0:0:
460,0,19599,1,0,0:0:0:0:
153,0,19708,1,0,0:0:0:0:
358,0,19708,128,0,19926:0:0:0:0:
256,0,19926,1,0,0:0:0:0:
153,0,20036,1,0,0:0:0:0:
460,0,20036,1,0,0:0:0:0:
51,0,20250,1,0,0:0:0:0:
153,0,20368,1,0,0:0:0:0:
256,0,20487,1,0,0:0:0:0:
358,0,20602,1,0,0:0:0:0:
460,0,20719,1,0,0:0:0:0:
51,0,20719,1,0,0:0:0:0:
256,0,20834,1,0,0:0:0:0:
358,0,20944,1,0,0:0:0:0:
153,0,21050,1,0,0:0:0:0:
51,0,21154,1,0,0:0:0:0:
358,0,21154,1,0,0:0:0:0:
460,0,21154,1,0,0:0:0:0:
51,0,21364,1,0,0:0:0:0:
460,0,21364,1,0,0:0:0:0:
153,0,21364,128,0,21680:0:0:0:0:
256,0,21680,1,0,0:0:0:0:
358,0,21680,1,0,0:0:0:0:
51,0,21787,1,0,0:0:0:0:
358,0,21894,1,0,0:0:0:0:
256,0,22001,1,0,0:0:0:0:
460,0,22001,1,0,0:0:0:0:
51,0,22108,1,0,0:0:0:0:
153,0,22215,1,0,0:0:0:0:
358,0,22322,1,0,0:0:0:0:
51,0,22430,1,0,0:0:0:0:
256,0,22430,1,0,0:0:0:0:
460,0,22430,1,0,0:0:0:0:
153,0,22644,1,0,0:0:0:0:
51,0,22751,1,0,0:0:0:0:
256,192,22858,1,0,0:0:0:0:
358,0,22965,1,0,0:0:0:0:
460,0,22965,1,0,0:0:0:0:
153,0,23072,1,0,0:0:0:0:
256,0,23180,1,0,0:0:0:0:
358,0,23287,1,0,0:0:0:0:
51,0,23394,1,0,0:0:0:0:
153,0,23394,1,0,0:0:0:0:
460,0,23501,1,0,0:0:0:0:
256,0,23608,1,0,0:0:0:0:
153,0,23715,1,0,0:0:0:0:
358,0,23715,1,0,0:0:0:0:
51,0,23822,1,0,0:0:0:0:
256,0,23929,1,0,0:0:0:0:
358,0,24036,1,0,0:0:0:0:
51,0,24144,1,0,0:0:0:0:
153,0,24144,1,0,0:0:0:0:
460,0,24144,1,0,0:0:0:0:
358,0,24367,1,0,0:0:0:0:
153,0,24479,1,0,0:0:0:0:
51,0,24592,1,0,0:0:0:0:
256,0,24592,1,0,0:0:0:0:
460,0,24592,1,0,0:0:0:0:
256,0,24943,1,0,0:0:0:0:
358,0,25061,1,0,0:0:0:0:
256,0,25213,1,0,0:0:0:0:
460,0,25213,1,0,0:0:0:0:
51,0,25322,1,0,0:0:0:0:
358,0,25431,1,0,0:0:0:0:
153,0,25540,1,0,0:0:0:0:
460,0,25649,1,0,0:0:0:0:
51,0,25649,1,0,0:0:0:0:
256,0,25758,1,0,0:0:0:0:
358,0,25867,1,0,0:0:0:0:
256,0,25976,1,0,0:0:0:0:
153,0,25976,1,0,0:0:0:0:
460,0,26085,1,0,0:0:0:0:
358,0,26194,1,0,0:0:0:0:
51,0,26304,1,0,0:0:0:0:
153,0,26304,1,0,0:0:0:0:
256,0,26409,1,0,0:0:0:0:
358,0,26496,1,0,0:0:0:0:
460,0,26584,1,0,0:0:0:0:
153,0,26654,1,0,0:0:0:0:
358,0,26742,1,0,0:0:0:0:
256,0,26865,1,0,0:0:0:0:
153,0,26975,1,0,0:0:0:0:
51,0,27086,1,0,0:0:0:0:
256,0,27086,1,0,0:0:0:0:
460,0,27193,1,0,0:0:0:0:
153,0,27301,1,0,0:0:0:0:
358,0,27409,1,0,0:0:0:0:
51,0,27517,1,0,0:0:0:0:
460,0,27517,1,0,0:0:0:0:
256,0,27625,1,0,0:0:0:0:
153,0,27733,1,0,0:0:0:0:
51,0,27842,1,0,0:0:0:0:
358,0,27842,1,0,0:0:0:0:
256,0,27949,1,0,0:0:0:0:
153,0,28056,1,0,0:0:0:0:
358,0,28056,1,0,0:0:0:0:
460,0,28163,1,0,0:0:0:0:
51,0,28270,1,0,0:0:0:0:
256,0,28270,1,0,0:0:0:0:
460,0,28486,1,0,0:0:0:0:
256,0,28524,1,0,0:0:0:0:
358,0,28714,1,0,0:0:0:0:
256,0,28769,1,0,0:0:0:0:
153,0,28824,1,0,0:0:0:0:
460,192,28824,1,0,0:0:0:0:
51,0,28932,1,0,0:0:0:0:
358,0,29040,1,0,0:0:0:0:
153,0,29148,1,0,0:0:0:0:
256,0,29257,1,0,0:0:0:0:
51,0,29365,1,0,0:0:0:0:
358,0,29473,1,0,0:0:0:0:
153,0,29583,1,0,0:0:0:0:
460,0,29583,1,0,0:0:0:0:
256,0,29801,1,0,0:0:0:0:
460,0,29801,1,0,0:0:0:0:
51,0,29911,1,0,0:0:0:0:
358,0,30130,1,0,0:0:0:0:
153,0,30217,1,0,0:0:0:0:
51,0,30304,1,0,0:0:0:0:
256,0,30392,1,0,0:0:0:0:
460,0,30482,1,0,0:0:0:0:
256,0,30601,1,0,0:0:0:0:
358,0,30601,1,0,0:0:0:0:
460,0,30709,1,0,0:0:0:0:
153,0,30817,1,0,0:0:0:0:
358,0,30923,1,0,0:0:0:0:
256,0,31031,1,0,0:0:0:0:
460,0,31136,1,0,0:0:0:0:
153,0,31241,1,0,0:0:0:0:
51,0,31347,1,0,0:0:0:0:
358,0,31347,1,0,0:0:0:0:
51,0,31559,1,0,0:0:0:0:
256,0,31559,1,0,0:0:0:0:
460,0,31666,1,0,0:0:0:0:
153,0,31879,1,0,0:0:0:0:
256,192,31879,1,0,0:0:0:0:
358,0,31987,1,0,0:0:0:0:
51,0,32096,1,0,0:0:0:0:
460,0,32096,1,0,0:0:0:0:
256,0,32205,1,0,0:0:0:0:
153,0,32313,1,0,0:0:0:0:
358,0,32313,1,0,0:0:0:0:
51,0,32435,1,0,0:0:0:0:
256,0,32640,1,0,0:0:0:0:
153,0,32763,1,0,0:0:0:0:
358,0,32967,1,0,0:0:0:0:
256,0,33090,1,0,0:0:0:0:
460,0,33322,1,0,0:0:0:0:
358,0,33444,1,0,0:0:0:0:
460,0,33581,1,0,0:0:0:0:
256,0,33635,1,0,0:0:0:0:
51,0,33694,1,0,0:0:0:0:
153,0,33832,1,0,0:0:0:0:
256,0,33949,1,0,0:0:0:0:
358,0,34059,1,0,0:0:0:0:
460,0,34059,1,0,0:0:0:0:
51,0,34271,1,0,0:0:0:0:
256,0,34378,1,0,0:0:0:0:
51,0,34484,1,0,0:0:0:0:
358,0,34697,1,0,0:0:0:0:
153,0,34803,1,0,0:0:0:0:
358,0,34910,1,0,0:0:0:0:
256,0,35143,1,0,0:0:0:0:
460,0,35254,1,0,0:0:0:0:
256,0,35365,1,0,0:0:0:0:
51,0,35477,1,0,0:0:0:0:
358,0,35477,1,0,0:0:0:0:
153,0,35582,1,0,0:0:0:0:
460,0,35688,1,0,0:0:0:0:
358,0,35794,1,0,0:0:0:0:
256,0,35900,1,0,0:0:0:0:
153,0,36006,1,0,0:0:0:0:
358,0,36112,1,0,0:0:0:0:
460,0,36112,1,0,0:0:0:0:
51,0,36245,1,0,0:0:0:0:
256,0,36245,1,0,0:0:0:0:
358,0,36379,1,0,0:0:0:0:
460,0,36379,1,0,0:0:0:0:
51,0,36647,1,0,0:0:0:0:
153,0,36647,1,0,0:0:0:0:
256,0,36780,1,0,0:0:0:0:
460,0,36780,1,0,0:0:0:0:
51,0,36914,1,0,0:0:0:0:
153,0,36914,1,0,0:0:0:0:
358,0,37182,1,0,0:0:0:0:
460,0,37182,1,0,0:0:0:0:
51,0,37316,1,0,0:0:0:0:
256,0,37316,1,0,0:0:0:0:
153,0,37449,1,0,0:0:0:0:
358,0,37449,1,0,0:0:0:0:
460,0,37449,1,0,0:0:0:0:
256,0,37717,128,0,38118:0:0:0:0:
51,0,38118,1,0,0:0:0:0:
153,0,38118,1,0,0:0:0:0:
460,0,38118,1,0,0:0:0:0:
358,0,38218,1,0,0:0:0:0:
51,0,38418,1,0,0:0:0:0:
153,0,38468,1,0,0:0:0:0:
460,0,38518,1,0,0:0:0:0:
358,0,38618,1,0,0:0:0:0:
256,0,38718,1,0,0:0:0:0:
153,0,38818,1,0,0:0:0:0:
51,0,39018,1,0,0:0:0:0:
256,0,39118,1,0,0:0:0:0:
358,0,39218,1,0,0:0:0:0:
460,0,39218,1,0,0:0:0:0:
153,0,39518,1,0,0:0:0:0:
256,0,39618,1,0,0:0:0:0:
358,0,39618,1,0,0:0:0:0:
51,0,39718,1,0,0:0:0:0:
460,0,39718,1,0,0:0:0:0:
153,0,39818,1,0,0:0:0:0:
460,0,40018,1,0,0:0:0:0:
358,0,40068,1,0,0:0:0:0:
51,0,40118,1,0,0:0:0:0:
153,0,40218,1,0,0:0:0:0:
256,0,40318,1,0,0:0:0:0:
358,0,40418,1,0,0:0:0:0:
460,0,40618,1,0,0:0:0:0:
358,0,40718,1,0,0:0:0:0:
51,0,40818,1,0,0:0:0:0:
256,0,40818,1,0,0:0:0:0:
358,0,41018,1,0,0:0:0:0:
460,0,41018,1,0,0:0:0:0:
153,0,41118,1,0,0:0:0:0:
51,0,41318,1,0,0:0:0:0:
256,0,41318,1,0,0:0:0:0:
358,0,41418,1,0,0:0:0:0:
460,0,41418,1,0,0:0:0:0:
51,0,41618,1,0,0:0:0:0:
153,0,41668,1,0,0:0:0:0:
358,0,41718,1,0,0:0:0:0:
460,0,41818,1,0,0:0:0:0:
256,0,41918,1,0,0:0:0:0:
51,0,42018,1,0,0:0:0:0:
358,0,42218,1,0,0:0:0:0:
256,0,42318,1,0,0:0:0:0:
153,0,42418,1,0,0:0:0:0:
256,0,42518,1,0,0:0:0:0:
51,0,42618,1,0,0:0:0:0:
460,0,42618,1,0,0:0:0:0:
153,0,42718,1,0,0:0:0:0:
358,0,42818,1,0,0:0:0:0:
51,0,42918,1,0,0:0:0:0:
153,0,42918,1,0,0:0:0:0:
460,0,42918,1,0,0:0:0:0:
256,0,43018,1,0,0:0:0:0:
460,0,43218,1,0,0:0:0:0:
358,0,43268,1,0,0:0:0:0:
153,0,43318,1,0,0:0:0:0:
51,0,43418,1,0,0:0:0:0:
256,0,43518,1,0,0:0:0:0:
358,0,43518,1,0,0:0:0:0:
460,0,43618,1,0,0:0:0:0:
358,0,43818,1,0,0:0:0:0:
256,0,43918,1,0,0:0:0:0:
51,0,44018,1,0,0:0:0:0:
153,0,44118,1,0,0:0:0:0:
460,0,44118,1,0,0:0:0:0:
358,0,44218,1,0,0:0:0:0:
256,0,44318,1,0,0:0:0:0:
153,0,44418,1,0,0:0:0:0:
51,0,44518,1,0,0:0:0:0:
358,0,44518,1,0,0:0:0:0:
460,0,44618,1,0,0:0:0:0:
51,0,44718,1,0,0:0:0:0:
460,0,44818,1,0,0:0:0:0:
51,0,44918,1,0,0:0:0:0:
153,0,44918,1,0,0:0:0:0:
460,0,45018,1,0,0:0:0:0:
51,0,45118,1,0,0:0:0:0:
460,0,45218,1,0,0:0:0:0:
153,0,45318,1,0,0:0:0:0:
256,0,45318,1,0,0:0:0:0:
358,0,45418,1,0,0:0:0:0:
256,0,45518,1,0,0:0:0:0:
153,0,45618,1,0,0:0:0:0:
460,0,45618,1,0,0:0:0:0:
51,0,45618,128,0,46018:0:0:0:0:
153,0,46118,1,0,0:0:0:0:
460,0,46118,1,0,0:0:0:0:
51,0,46218,1,0,0:0:0:0:
460,0,46318,1,0,0:0:0:0:
51,0,46418,1,0,0:0:0:0:
358,0,46518,1,0,0:0:0:0:
460,0,46518,1,0,0:0:0:0:
51,0,46618,1,0,0:0:0:0:
153,0,46618,1,0,0:0:0:0:
460,0,46718,1,0,0:0:0:0:
51,0,46818,1,0,0:0:0:0:
256,0,46918,1,0,0:0:0:0:
358,0,46918,1,0,0:0:0:0:
153,0,47018,1,0,0:0:0:0:
256,0,47118,1,0,0:0:0:0:
51,0,47230,1,0,0:0:0:0:
358,0,47230,1,0,0:0:0:0:
460,0,47230,128,0,47618:0:0:0:0:
51,0,47718,1,0,0:0:0:0:
358,0,47718,1,0,0:0:0:0:
460,0,47818,1,0,0:0:0:0:
51,0,47918,1,0,0:0:0:0:
460,0,48018,1,0,0:0:0:0:
51,0,48118,1,0,0:0:0:0:
153,0,48118,1,0,0:0:0:0:
460,0,48218,1,0,0:0:0:0:
51,0,48318,1,0,0:0:0:0:
460,0,48418,1,0,0:0:0:0:
153,0,48518,1,0,0:0:0:0:
256,0,48518,1,0,0:0:0:0:
358,0,48618,1,0,0:0:0:0:
256,0,48718,1,0,0:0:0:0:
153,0,48818,1,0,0:0:0:0:
460,0,48818,1,0,0:0:0:0:
51,0,48818,128,0,49218:0:0:0:0:
153,0,49318,1,0,0:0:0:0:
460,0,49318,1,0,0:0:0:0:
51,0,49418,1,0,0:0:0:0:
460,0,49518,1,0,0:0:0:0:
51,0,49618,1,0,0:0:0:0:
460,0,49718,1,0,0:0:0:0:
153,0,49780,1,0,0:0:0:0:
256,0,49834,1,0,0:0:0:0:
358,0,49918,1,0,0:0:0:0:
51,0,50018,1,0,0:0:0:0:
153,0,50018,1,0,0:0:0:0:
460,0,50018,1,0,0:0:0:0:
256,0,50318,1,0,0:0:0:0:
358,0,50318,1,0,0:0:0:0:
460,0,50318,1,0,0:0:0:0:
51,0,50718,1,0,0:0:0:0:
153,0,50818,1,0,0:0:0:0:
51,0,50918,1,0,0:0:0:0:
256,0,50918,1,0,0:0:0:0:
460,0,51018,1,0,0:0:0:0:
153,0,51118,1,0,0:0:0:0:
358,0,51218,1,0,0:0:0:0:
51,0,51318,1,0,0:0:0:0:
460,192,51318,1,0,0:0:0:0:
256,0,51418,1,0,0:0:0:0:
153,0,51518,1,0,0:0:0:0:
256,0,51618,1,0,0:0:0:0:
358,0,51618,1,0,0:0:0:0:
51,0,51718,1,0,0:0:0:0:
153,0,51818,1,0,0:0:0:0:
358,0,51918,1,0,0:0:0:0:
51,0,52018,1,0,0:0:0:0:
256,0,52018,1,0,0:0:0:0:
460,0,52018,1,0,0:0:0:0:
460,0,52318,1,0,0:0:0:0:
358,0,52418,1,0,0:0:0:0:
256,0,52518,1,0,0:0:0:0:
460,0,52518,1,0,0:0:0:0:
51,0,52618,1,0,0:0:0:0:
358,0,52718,1,0,0:0:0:0:
153,0,52818,1,0,0:0:0:0:
460,0,52918,1,0,0:0:0:0:
51,192,52918,1,0,0:0:0:0:
256,0,53018,1,0,0:0:0:0:
358,0,53118,1,0,0:0:0:0:
51,0,53218,1,0,0:0:0:0:
460,0,53218,1,0,0:0:0:0:
153,0,53318,1,0,0:0:0:0:
51,0,53418,1,0,0:0:0:0:
256,0,53418,1,0,0:0:0:0:
460,0,53518,1,0,0:0:0:0:
153,0,53618,1,0,0:0:0:0:
358,0,53618,1,0,0:0:0:0:
51,0,53818,1,0,0:0:0:0:
358,0,53818,1,0,0:0:0:0:
153,0,54018,1,0,0:0:0:0:
51,0,54068,1,0,0:0:0:0:
256,0,54118,1,0,0:0:0:0:
358,0,54118,1,0,0:0:0:0:
460,0,54218,1,0,0:0:0:0:
153,0,54318,1,0,0:0:0:0:
358,0,54418,1,0,0:0:0:0:
256,0,54518,1,0,0:0:0:0:
460,0,54618,1,0,0:0:0:0:
51,0,54718,1,0,0:0:0:0:
153,0,54718,1,0,0:0:0:0:
256,0,54718,1,0,0:0:0:0:
358,0,54818,1,0,0:0:0:0:
460,0,54918,1,0,0:0:0:0:
153,0,55018,1,0,0:0:0:0:
358,0,55118,1,0,0:0:0:0:
51,0,55218,1,0,0:0:0:0:
460,0,55218,1,0,0:0:0:0:
256,0,55318,1,0,0:0:0:0:
153,0,55418,1,0,0:0:0:0:
51,0,55518,1,0,0:0:0:0:
256,0,55618,1,0,0:0:0:0:
460,0,55618,1,0,0:0:0:0:
256,0,55818,1,0,0:0:0:0:
51,0,55918,1,0,0:0:0:0:
358,0,55918,1,0,0:0:0:0:
153,0,56018,1,0,0:0:0:0:
256,0,56118,1,0,0:0:0:0:
460,0,56118,1,0,0:0:0:0:
358,0,56218,1,0,0:0:0:0:
51,0,56318,1,0,0:0:0:0:
153,0,56318,1,0,0:0:0:0:
460,0,56518,1,0,0:0:0:0:
51,0,56618,1,0,0:0:0:0:
256,0,56618,1,0,0:0:0:0:
358,0,56618,1,0,0:0:0:0:
256,0,56818,1,0,0:0:0:0:
460,192,56818,1,0,0:0:0:0:
153,0,56905,1,0,0:0:0:0:
51,192,56905,1,0,0:0:0:0:
460,0,57018,1,0,0:0:0:0:
358,0,57105,1,0,0:0:0:0:
153,0,57218,1,0,0:0:0:0:
256,0,57218,1,0,0:0:0:0:
460,0,57218,1,0,0:0:0:0:
51,0,57418,1,0,0:0:0:0:
358,0,57418,1,0,0:0:0:0:
256,0,57518,1,0,0:0:0:0:
153,0,57618,1,0,0:0:0:0:
256,0,57718,1,0,0:0:0:0:
358,0,57718,1,0,0:0:0:0:
460,0,57718,1,0,0:0:0:0:
51,0,57818,1,0,0:0:0:0:
153,0,57918,1,0,0:0:0:0:
358,0,58018,1,0,0:0:0:0:
460,0,58018,1,0,0:0:0:0:
256,0,58118,1,0,0:0:0:0:
153,0,58218,1,0,0:0:0:0:
358,0,58218,1,0,0:0:0:0:
51,0,58418,1,0,0:0:0:0:
256,0,58418,1,0,0:0:0:0:
460,0,58418,1,0,0:0:0:0:
51,0,58718,1,0,0:0:0:0:
153,0,58818,1,0,0:0:0:0:
51,0,58918,1,0,0:0:0:0:
256,0,59018,1,0,0:0:0:0:
358,0,59018,1,0,0:0:0:0:
153,0,59118,1,0,0:0:0:0:
460,0,59118,1,0,0:0:0:0:
358,0,59218,1,0,0:0:0:0:
51,0,59318,1,0,0:0:0:0:
153,192,59318,1,0,0:0:0:0:
256,0,59418,1,0,0:0:0:0:
358,0,59518,1,0,0:0:0:0:
51,0,59618,1,0,0:0:0:0:
460,0,59618,1,0,0:0:0:0:
358,0,59718,1,0,0:0:0:0:
256,0,59818,1,0,0:0:0:0:
460,0,59818,1,0,0:0:0:0:
51,0,59918,1,0,0:0:0:0:
153,0,60018,1,0,0:0:0:0:
358,0,60018,1,0,0:0:0:0:
153,0,60218,1,0,0:0:0:0:
460,0,60218,1,0,0:0:0:0:
51,0,60318,1,0,0:0:0:0:
256,0,60418,1,0,0:0:0:0:
358,0,60418,1,0,0:0:0:0:
460,0,60418,1,0,0:0:0:0:
153,0,60618,1,0,0:0:0:0:
256,0,60718,1,0,0:0:0:0:
51,0,60818,1,0,0:0:0:0:
358,0,60818,1,0,0:0:0:0:
460,0,60918,1,0,0:0:0:0:
358,0,61018,1,0,0:0:0:0:
51,0,61118,1,0,0:0:0:0:
153,0,61118,1,0,0:0:0:0:
256,0,61118,1,0,0:0:0:0:
358,0,61318,1,0,0:0:0:0:
153,0,61418,1,0,0:0:0:0:
460,0,61418,1,0,0:0:0:0:
51,0,61618,1,0,0:0:0:0:
153,0,61718,1,0,0:0:0:0:
256,0,61818,1,0,0:0:0:0:
358,0,61918,1,0,0:0:0:0:
51,0,62018,1,0,0:0:0:0:
153,0,62018,1,0,0:0:0:0:
460,0,62018,1,0,0:0:0:0:
256,0,62218,1,0,0:0:0:0:
460,0,62218,1,0,0:0:0:0:
153,0,62318,1,0,0:0:0:0:
51,0,62418,1,0,0:0:0:0:
358,0,62418,1,0,0:0:0:0:
256,0,62518,1,0,0:0:0:0:
153,0,62618,1,0,0:0:0:0:
358,0,62618,1,0,0:0:0:0:
460,0,62818,1,0,0:0:0:0:
256,0,62868,1,0,0:0:0:0:
51,0,62918,1,0,0:0:0:0:
153,0,62918,1,0,0:0:0:0:
460,0,63018,1,0,0:0:0:0:
358,0,63118,1,0,0:0:0:0:
256,0,63218,1,0,0:0:0:0:
358,0,63318,1,0,0:0:0:0:
256,0,63418,1,0,0:0:0:0:
153,0,63518,1,0,0:0:0:0:
256,0,63618,1,0,0:0:0:0:
460,0,63618,1,0,0:0:0:0:
51,0,63718,1,0,0:0:0:0:
153,0,63818,1,0,0:0:0:0:
358,0,63918,1,0,0:0:0:0:
51,0,64018,1,0,0:0:0:0:
256,0,64018,1,0,0:0:0:0:
153,0,64118,1,0,0:0:0:0:
256,0,64218,1,0,0:0:0:0:
358,0,64318,1,0,0:0:0:0:
256,0,64418,1,0,0:0:0:0:
358,0,64518,1,0,0:0:0:0:
460,0,64618,1,0,0:0:0:0:
153,0,64718,1,0,0:0:0:0:
256,0,64718,1,0,0:0:0:0:
460,0,64818,1,0,0:0:0:0:
358,0,64918,1,0,0:0:0:0:
51,0,65018,1,0,0:0:0:0:
256,0,65018,1,0,0:0:0:0:
358,0,65118,1,0,0:0:0:0:
256,0,65218,1,0,0:0:0:0:
153,0,65318,1,0,0:0:0:0:
256,0,65418,1,0,0:0:0:0:
460,0,65418,1,0,0:0:0:0:
51,0,65518,1,0,0:0:0:0:
153,0,65618,1,0,0:0:0:0:
256,0,65718,1,0,0:0:0:0:
51,0,65818,1,0,0:0:0:0:
153,0,65818,1,0,0:0:0:0:
358,0,65918,1,0,0:0:0:0:
256,0,66018,1,0,0:0:0:0:
153,0,66118,1,0,0:0:0:0:
460,0,66218,1,0,0:0:0:0:
51,0,66318,1,0,0:0:0:0:
358,0,66318,1,0,0:0:0:0:
256,0,66418,1,0,0:0:0:0:
358,0,66518,1,0,0:0:0:0:
460,0,66518,1,0,0:0:0:0:
51,0,66618,1,0,0:0:0:0:
153,0,66718,1,0,0:0:0:0:
256,0,66818,1,0,0:0:0:0:
153,0,66918,1,0,0:0:0:0:
460,0,66918,1,0,0:0:0:0:
256,0,67018,1,0,0:0:0:0:
358,0,67118,1,0,0:0:0:0:
51,0,67218,1,0,0:0:0:0:
256,0,67218,1,0,0:0:0:0:
460,0,67318,1,0,0:0:0:0:
358,0,67418,1,0,0:0:0:0:
153,0,67518,1,0,0:0:0:0:
256,0,67618,1,0,0:0:0:0:
358,0,67718,1,0,0:0:0:0:
256,0,67818,1,0,0:0:0:0:
460,0,67818,1,0,0:0:0:0:
153,0,67918,1,0,0:0:0:0:
256,0,68018,1,0,0:0:0:0:
358,0,68018,1,0,0:0:0:0:
153,0,68118,1,0,0:0:0:0:
51,0,68218,1,0,0:0:0:0:
256,0,68318,1,0,0:0:0:0:
460,0,68318,1,0,0:0:0:0:
51,0,68418,1,0,0:0:0:0:
153,0,68501,1,0,0:0:0:0:
358,0,68501,1,0,0:0:0:0:
460,0,68618,1,0,0:0:0:0:
256,0,68701,1,0,0:0:0:0:
358,0,68818,1,0,0:0:0:0:
153,0,68901,1,0,0:0:0:0:
256,0,69018,1,0,0:0:0:0:
51,0,69105,1,0,0:0:0:0:
153,0,69218,1,0,0:0:0:0:
51,0,69305,1,0,0:0:0:0:
256,0,69418,1,0,0:0:0:0:
153,0,69518,1,0,0:0:0:0:
358,0,69518,1,0,0:0:0:0:
460,0,69518,1,0,0:0:0:0:
51,0,69818,1,0,0:0:0:0:
358,0,69818,1,0,0:0:0:0:
460,0,69818,1,0,0:0:0:0:
51,0,70118,1,0,0:0:0:0:
153,0,70118,1,0,0:0:0:0:
256,0,70118,1,0,0:0:0:0:
358,0,70251,1,0,0:0:0:0:
256,0,70384,1,0,0:0:0:0:
51,0,70518,1,0,0:0:0:0:
153,0,70651,1,0,0:0:0:0:
256,0,70784,1,0,0:0:0:0:
358,0,70918,1,0,0:0:0:0:
460,0,70918,1,0,0:0:0:0:
51,0,71051,1,0,0:0:0:0:
358,0,71184,1,0,0:0:0:0:
153,0,71318,1,0,0:0:0:0:
256,0,71451,1,0,0:0:0:0:
358,0,71584,1,0,0:0:0:0:
51,0,71718,1,0,0:0:0:0:
153,0,71851,1,0,0:0:0:0:
51,0,71984,1,0,0:0:0:0:
256,0,72118,1,0,0:0:0:0:
358,0,72251,1,0,0:0:0:0:
460,0,72384,1,0,0:0:0:0:
256,0,72518,1,0,0:0:0:0:
358,0,72518,1,0,0:0:0:0:
51,0,72651,1,0,0:0:0:0:
256,0,72784,1,0,0:0:0:0:
153,0,72918,1,0,0:0:0:0:
256,0,73051,1,0,0:0:0:0:
358,0,73184,1,0,0:0:0:0:
153,0,73318,1,0,0:0:0:0:
460,0,73451,1,0,0:0:0:0:
153,0,73584,1,0,0:0:0:0:
51,0,73718,1,0,0:0:0:0:
153,0,73851,1,0,0:0:0:0:
256,0,73984,1,0,0:0:0:0:
51,0,74118,1,0,0:0:0:0:
460,0,74118,1,0,0:0:0:0:
358,0,74251,1,0,0:0:0:0:
460,0,74384,1,0,0:0:0:0:
256,0,74518,1,0,0:0:0:0:
153,0,74651,1,0,0:0:0:0:
51,0,74784,1,0,0:0:0:0:
256,0,74918,1,0,0:0:0:0:
460,0,75051,1,0,0:0:0:0:
256,0,75184,1,0,0:0:0:0:
358,0,75318,1,0,0:0:0:0:
256,0,75451,1,0,0:0:0:0:
153,0,75584,1,0,0:0:0:0:
51,0,75718,1,0,0:0:0:0:
358,0,75718,1,0,0:0:0:0:
256,0,75851,1,0,0:0:0:0:
51,0,75984,1,0,0:0:0:0:
460,0,76118,1,0,0:0:0:0:
358,0,76251,1,0,0:0:0:0:
256,0,76384,1,0,0:0:0:0:
358,0,76518,1,0,0:0:0:0:
51,0,76651,1,0,0:0:0:0:
358,0,76784,1,0,0:0:0:0:
153,0,76918,1,0,0:0:0:0:
256,0,77051,1,0,0:0:0:0:
358,0,77184,1,0,0:0:0:0:
51,0,77318,1,0,0:0:0:0:
153,0,77318,1,0,0:0:0:0:
460,0,77451,1,0,0:0:0:0:
51,0,77584,1,0,0:0:0:0:
256,0,77718,1,0,0:0:0:0:
358,0,77851,1,0,0:0:0:0:
460,0,77984,1,0,0:0:0:0:
153,0,78118,1,0,0:0:0:0:
358,0,78251,1,0,0:0:0:0:
153,0,78384,1,0,0:0:0:0:
256,0,78518,1,0,0:0:0:0:
153,0,78651,1,0,0:0:0:0:
51,0,78784,1,0,0:0:0:0:
358,0,78918,1,0,0:0:0:0:
460,0,78918,1,0,0:0:0:0:
153,0,79051,1,0,0:0:0:0:
460,0,79184,1,0,0:0:0:0:
358,0,79318,1,0,0:0:0:0:
256,0,79451,1,0,0:0:0:0:
153,0,79584,1,0,0:0:0:0:
358,0,79718,1,0,0:0:0:0:
51,0,79851,1,0,0:0:0:0:
358,0,79984,1,0,0:0:0:0:
153,0,80118,1,0,0:0:0:0:
256,0,80251,1,0,0:0:0:0:
358,0,80384,1,0,0:0:0:0:
51,0,80518,1,0,0:0:0:0:
460,0,80518,1,0,0:0:0:0:
153,0,80651,1,0,0:0:0:0:
256,0,80784,1,0,0:0:0:0:
153,0,80918,1,0,0:0:0:0:
358,0,80918,1,0,0:0:0:0:
256,0,81051,1,0,0:0:0:0:
358,0,81184,1,0,0:0:0:0:
153,0,81318,1,0,0:0:0:0:
256,0,81318,1,0,0:0:0:0:
460,0,81318,1,0,0:0:0:0:
358,0,81505,1,0,0:0:0:0:
51,0,81618,1,0,0:0:0:0:
153,0,81618,1,0,0:0:0:0:
256,0,81618,1,0,0:0:0:0:
256,0,81918,1,0,0:0:0:0:
358,0,81918,1,0,0:0:0:0:
153,0,82105,1,0,0:0:0:0:
256,0,82218,1,0,0:0:0:0:
358,0,82218,1,0,0:0:0:0:
460,0,82218,1,0,0:0:0:0:
51,0,82418,1,0,0:0:0:0:
460,0,82501,1,0,0:0:0:0:
153,0,82618,1,0,0:0:0:0:
51,0,82718,1,0,0:0:0:0:
256,0,82718,1,0,0:0:0:0:
358,0,82718,1,0,0:0:0:0:
460,0,82905,1,0,0:0:0:0:
51,0,83018,1,0,0:0:0:0:
153,0,83018,1,0,0:0:0:0:
256,0,83018,1,0,0:0:0:0:
256,0,83318,1,0,0:0:0:0:
460,0,83318,1,0,0:0:0:0:
51,0,83505,1,0,0:0:0:0:
256,0,83618,1,0,0:0:0:0:
358,0,83618,1,0,0:0:0:0:
460,0,83618,1,0,0:0:0:0:
51,0,83775,1,0,0:0:0:0:
153,0,83843,1,0,0:0:0:0:
256,0,83905,1,0,0:0:0:0:
460,0,83975,1,0,0:0:0:0:
358,0,84038,1,0,0:0:0:0:
256,0,84078,1,0,0:0:0:0:
51,0,84118,1,0,0:0:0:0:
153,0,84118,128,0,84718:0:0:0:0:
460,0,84768,1,0,0:0:0:0:
51,0,84768,1,0,0:0:0:0:
153,0,84851,1,0,0:0:0:0:
256,0,84918,128,0,85518:0:0:0:0:
460,0,84918,1,0,0:0:0:0:
51,0,85218,1,0,0:0:0:0:
358,0,85218,1,0,0:0:0:0:
153,0,85584,1,0,0:0:0:0:
256,0,85651,1,0,0:0:0:0:
358,0,85718,128,0,86318:0:0:0:0:
51,192,85718,1,0,0:0:0:0:
256,192,86018,1,0,0:0:0:0:
153,192,86318,1,0,0:0:0:0:
256,0,86368,1,0,0:0:0:0:
460,0,86443,128,0,87310:0:0:0:0:
51,192,86617,1,0,0:0:0:0:
51,0,86905,1,0,0:0:0:0:
358,0,86905,1,0,0:0:0:0:
153,0,87013,1,0,0:0:0:0:
256,0,87103,1,0,0:0:0:0:
358,0,87103,1,0,0:0:0:0:
51,0,87211,1,0,0:0:0:0:
51,0,87443,1,0,0:0:0:0:
256,0,87443,1,0,0:0:0:0:
358,0,87443,1,0,0:0:0:0:
256,0,87576,1,0,0:0:0:0:
358,0,87576,1,0,0:0:0:0:
153,0,87843,1,0,0:0:0:0:
460,0,87843,1,0,0:0:0:0:
153,0,87976,1,0,0:0:0:0:
460,0,87976,1,0,0:0:0:0:
256,0,88110,1,0,0:0:0:0:
358,0,88110,1,0,0:0:0:0:
51,0,88222,1,0,0:0:0:0:
460,0,88222,1,0,0:0:0:0:
51,0,88426,1,0,0:0:0:0:
153,0,88426,1,0,0:0:0:0:
358,0,88426,1,0,0:0:0:0:
256,0,88710,1,0,0:0:0:0:
460,0,88822,1,0,0:0:0:0:
51,0,88910,1,0,0:0:0:0:
256,0,88910,1,0,0:0:0:0:
358,0,88910,1,0,0:0:0:0:
153,0,89026,1,0,0:0:0:0:
51,0,89110,1,0,0:0:0:0:
256,0,89226,1,0,0:0:0:0:
460,0,89226,1,0,0:0:0:0:
153,0,89310,1,0,0:0:0:0:
460,0,89426,1,0,0:0:0:0:
51,0,89510,1,0,0:0:0:0:
256,0,89510,1,0,0:0:0:0:
153,0,89626,1,0,0:0:0:0:
358,0,89626,1,0,0:0:0:0:
460,192,89710,1,0,0:0:0:0:
51,0,89910,1,0,0:0:0:0:
153,0,90026,1,0,0:0:0:0:
256,0,90026,1,0,0:0:0:0:
460,0,90026,1,0,0:0:0:0:
358,0,90226,1,0,0:0:0:0:
51,0,90310,1,0,0:0:0:0:
256,0,90310,1,0,0:0:0:0:
153,0,90426,1,0,0:0:0:0:
358,0,90510,1,0,0:0:0:0:
460,0,90510,1,0,0:0:0:0:
51,0,90626,1,0,0:0:0:0:
153,0,90710,1,0,0:0:0:0:
460,0,90826,1,0,0:0:0:0:
256,0,90910,1,0,0:0:0:0:
358,0,90910,1,0,0:0:0:0:
51,0,91026,1,0,0:0:0:0:
153,0,91110,1,0,0:0:0:0:
358,0,91110,1,0,0:0:0:0:
256,0,91226,1,0,0:0:0:0:
460,0,91226,1,0,0:0:0:0:
358,0,91426,1,0,0:0:0:0:
153,0,91510,1,0,0:0:0:0:
358,0,91510,1,0,0:0:0:0:
51,0,91626,1,0,0:0:0:0:
256,0,91710,1,0,0:0:0:0:
460,0,91826,1,0,0:0:0:0:
153,0,91910,1,0,0:0:0:0:
256,0,91910,1,0,0:0:0:0:
358,0,92026,1,0,0:0:0:0:
153,0,92110,1,0,0:0:0:0:
460,0,92110,1,0,0:0:0:0:
358,0,92226,1,0,0:0:0:0:
51,0,92310,1,0,0:0:0:0:
256,0,92310,1,0,0:0:0:0:
153,0,92426,1,0,0:0:0:0:
256,0,92626,1,0,0:0:0:0:
460,0,92626,1,0,0:0:0:0:
51,0,92710,1,0,0:0:0:0:
256,0,92826,1,0,0:0:0:0:
460,0,92826,1,0,0:0:0:0:
358,0,93026,1,0,0:0:0:0:
51,0,93110,1,0,0:0:0:0:
153,0,93110,1,0,0:0:0:0:
460,0,93226,1,0,0:0:0:0:
256,0,93310,1,0,0:0:0:0:
153,0,93426,1,0,0:0:0:0:
358,0,93426,1,0,0:0:0:0:
256,0,93626,1,0,0:0:0:0:
358,0,93626,1,0,0:0:0:0:
460,0,93626,1,0,0:0:0:0:
153,0,93910,1,0,0:0:0:0:
256,0,93910,1,0,0:0:0:0:
358,0,93910,1,0,0:0:0:0:
51,0,94110,1,0,0:0:0:0:
153,0,94110,1,0,0:0:0:0:
256,0,94110,1,0,0:0:0:0:
153,0,94310,1,0,0:0:0:0:
256,0,94310,1,0,0:0:0:0:
358,0,94310,1,0,0:0:0:0:
460,0,94422,1,0,0:0:0:0:
51,0,94510,1,0,0:0:0:0:
358,0,94510,1,0,0:0:0:0:
153,0,94626,1,0,0:0:0:0:
256,0,94626,1,0,0:0:0:0:
460,0,94710,1,0,0:0:0:0:
51,0,94822,1,0,0:0:0:0:
358,0,94822,1,0,0:0:0:0:
153,0,95026,1,0,0:0:0:0:
256,0,95026,1,0,0:0:0:0:
460,0,95026,1,0,0:0:0:0:
51,0,95226,1,0,0:0:0:0:
256,0,95226,1,0,0:0:0:0:
358,0,95226,1,0,0:0:0:0:
153,0,95426,1,0,0:0:0:0:
358,0,95426,1,0,0:0:0:0:
460,0,95510,1,0,0:0:0:0:
51,0,95626,1,0,0:0:0:0:
256,0,95626,1,0,0:0:0:0:
358,0,95710,1,0,0:0:0:0:
51,0,95826,1,0,0:0:0:0:
256,0,95910,1,0,0:0:0:0:
460,0,95910,1,0,0:0:0:0:
153,0,96026,1,0,0:0:0:0:
358,0,96026,1,0,0:0:0:0:
51,0,96226,1,0,0:0:0:0:
153,0,96226,1,0,0:0:0:0:
256,0,96226,1,0,0:0:0:0:
256,0,96426,1,0,0:0:0:0:
358,0,96426,1,0,0:0:0:0:
460,0,96426,1,0,0:0:0:0:
153,0,96626,1,0,0:0:0:0:
256,0,96710,1,0,0:0:0:0:
460,0,96710,1,0,0:0:0:0:
358,0,96826,1,0,0:0:0:0:
51,0,96910,1,0,0:0:0:0:
153,0,96910,1,0,0:0:0:0:
460,0,97026,1,0,0:0:0:0:
358,0,97110,1,0,0:0:0:0:
51,0,97226,1,0,0:0:0:0:
153,0,97310,1,0,0:0:0:0:
256,0,97310,1,0,0:0:0:0:
460,0,97426,1,0,0:0:0:0:
153,0,97510,1,0,0:0:0:0:
358,0,97510,1,0,0:0:0:0:
51,0,97626,1,0,0:0:0:0:
256,0,97626,1,0,0:0:0:0:
153,0,97826,1,0,0:0:0:0:
153,0,97910,1,0,0:0:0:0:
358,0,97910,1,0,0:0:0:0:
460,0,98026,1,0,0:0:0:0:
256,0,98110,1,0,0:0:0:0:
51,0,98226,1,0,0:0:0:0:
256,0,98310,1,0,0:0:0:0:
358,0,98310,1,0,0:0:0:0:
153,0,98426,1,0,0:0:0:0:
51,0,98510,1,0,0:0:0:0:
358,0,98510,1,0,0:0:0:0:
153,0,98626,1,0,0:0:0:0:
256,0,98710,1,0,0:0:0:0:
460,0,98710,1,0,0:0:0:0:
358,0,98826,1,0,0:0:0:0:
51,0,99026,1,0,0:0:0:0:
256,0,99026,1,0,0:0:0:0:
460,0,99110,1,0,0:0:0:0:
51,0,99226,1,0,0:0:0:0:
256,0,99226,1,0,0:0:0:0:
153,0,99426,1,0,0:0:0:0:
358,0,99510,1,0,0:0:0:0:
460,0,99510,1,0,0:0:0:0:
51,0,99626,1,0,0:0:0:0:
256,0,99710,1,0,0:0:0:0:
153,0,99826,1,0,0:0:0:0:
358,0,99826,1,0,0:0:0:0:
51,0,100026,1,0,0:0:0:0:
153,0,100026,1,0,0:0:0:0:
256,0,100026,1,0,0:0:0:0:
153,0,100310,1,0,0:0:0:0:
256,0,100310,1,0,0:0:0:0:
358,0,100310,1,0,0:0:0:0:
256,0,100510,1,0,0:0:0:0:
358,0,100510,1,0,0:0:0:0:
460,0,100510,1,0,0:0:0:0:
51,0,100622,1,0,0:0:0:0:
153,0,100710,1,0,0:0:0:0:
256,0,100710,1,0,0:0:0:0:
358,0,100710,1,0,0:0:0:0:
51,0,100911,1,0,0:0:0:0:
460,0,100911,1,0,0:0:0:0:
358,0,101044,1,0,0:0:0:0:
153,192,101044,1,0,0:0:0:0:
256,0,101178,1,0,0:0:0:0:
51,192,101178,1,0,0:0:0:0:
51,0,101312,1,0,0:0:0:0:
358,0,101312,1,0,0:0:0:0:
153,0,101446,1,0,0:0:0:0:
460,192,101446,1,0,0:0:0:0:
256,0,101579,1,0,0:0:0:0:
358,192,101579,1,0,0:0:0:0:
51,0,101713,1,0,0:0:0:0:
153,0,101713,1,0,0:0:0:0:
460,0,101713,1,0,0:0:0:0:
256,0,101913,1,0,0:0:0:0:
358,0,102013,1,0,0:0:0:0:
153,0,102113,1,0,0:0:0:0:
460,0,102113,1,0,0:0:0:0:
460,0,102313,1,0,0:0:0:0:
256,0,102413,1,0,0:0:0:0:
51,0,102513,1,0,0:0:0:0:
358,0,102513,1,0,0:0:0:0:
256,0,102713,1,0,0:0:0:0:
153,0,102813,1,0,0:0:0:0:
51,0,102913,1,0,0:0:0:0:
460,0,102913,1,0,0:0:0:0:
51,0,103113,1,0,0:0:0:0:
256,0,103213,1,0,0:0:0:0:
358,0,103313,1,0,0:0:0:0:
460,0,103313,1,0,0:0:0:0:
51,0,103513,1,0,0:0:0:0:
153,0,103513,1,0,0:0:0:0:
256,0,103513,1,0,0:0:0:0:
358,0,103613,1,0,0:0:0:0:
460,0,103713,1,0,0:0:0:0:
460,0,103913,1,0,0:0:0:0:
256,0,104013,1,0,0:0:0:0:
51,0,104113,1,0,0:0:0:0:
256,0,104213,1,0,0:0:0:0:
358,0,104313,1,0,0:0:0:0:
153,0,104413,1,0,0:0:0:0:
51,0,104513,1,0,0:0:0:0:
256,0,104513,1,0,0:0:0:0:
358,0,104613,1,0,0:0:0:0:
460,0,104613,1,0,0:0:0:0:
256,0,104705,1,0,0:0:0:0:
153,0,104813,1,0,0:0:0:0:
51,0,104913,1,0,0:0:0:0:
153,0,105013,1,0,0:0:0:0:
256,0,105013,1,0,0:0:0:0:
358,0,105013,1,0,0:0:0:0:
460,192,105213,1,0,0:0:0:0:
51,0,105313,1,0,0:0:0:0:
358,0,105313,1,0,0:0:0:0:
51,0,105513,1,0,0:0:0:0:
256,0,105613,1,0,0:0:0:0:
153,0,105713,1,0,0:0:0:0:
460,0,105713,1,0,0:0:0:0:
256,0,105913,1,0,0:0:0:0:
358,0,106013,1,0,0:0:0:0:
51,0,106113,1,0,0:0:0:0:
460,0,106113,1,0,0:0:0:0:
153,0,106225,1,0,0:0:0:0:
358,0,106225,1,0,0:0:0:0:
256,0,106313,1,0,0:0:0:0:
460,0,106379,1,0,0:0:0:0:
153,0,106438,1,0,0:0:0:0:
256,0,106513,1,0,0:0:0:0:
51,0,106613,1,0,0:0:0:0:
460,0,106613,1,0,0:0:0:0:
51,0,106813,1,0,0:0:0:0:
358,0,106813,1,0,0:0:0:0:
256,0,107013,1,0,0:0:0:0:
153,0,107100,1,0,0:0:0:0:
460,0,107100,1,0,0:0:0:0:
256,0,107313,1,0,0:0:0:0:
358,0,107313,1,0,0:0:0:0:
51,0,107379,1,0,0:0:0:0:
153,0,107446,1,0,0:0:0:0:
460,0,107513,1,0,0:0:0:0:
358,0,107579,1,0,0:0:0:0:
51,0,107646,1,0,0:0:0:0:
153,0,107713,1,0,0:0:0:0:
460,0,107779,1,0,0:0:0:0:
256,0,107846,1,0,0:0:0:0:
51,0,107913,1,0,0:0:0:0:
358,0,108029,1,0,0:0:0:0:
153,0,108113,1,0,0:0:0:0:
256,0,108113,1,0,0:0:0:0:
460,0,108113,1,0,0:0:0:0:
51,0,108309,1,0,0:0:0:0:
358,0,108309,1,0,0:0:0:0:
256,0,108408,1,0,0:0:0:0:
153,0,108637,1,0,0:0:0:0:
460,0,108703,1,0,0:0:0:0:
256,0,108768,1,0,0:0:0:0:
153,0,108899,1,0,0:0:0:0:
358,0,108899,1,0,0:0:0:0:
51,0,109096,1,0,0:0:0:0:
256,0,109096,1,0,0:0:0:0:
460,0,109194,1,0,0:0:0:0:
256,0,109424,1,0,0:0:0:0:
51,0,109490,1,0,0:0:0:0:
358,0,109555,1,0,0:0:0:0:
256,0,109686,1,0,0:0:0:0:
460,0,109686,1,0,0:0:0:0:
51,0,109883,1,0,0:0:0:0:
358,0,109883,1,0,0:0:0:0:
153,0,109998,1,0,0:0:0:0:
256,0,109998,1,0,0:0:0:0:
51,0,110178,1,0,0:0:0:0:
358,0,110276,1,0,0:0:0:0:
460,0,110276,1,0,0:0:0:0:
51,0,110473,1,0,0:0:0:0:
256,0,110473,1,0,0:0:0:0:
358,0,110572,1,0,0:0:0:0:
153,0,110670,1,0,0:0:0:0:
460,0,110670,1,0,0:0:0:0:
256,0,110867,1,0,0:0:0:0:
358,0,110867,1,0,0:0:0:0:
153,0,110965,1,0,0:0:0:0:
51,0,111063,1,0,0:0:0:0:
358,0,111162,1,0,0:0:0:0:
153,0,111260,1,0,0:0:0:0:
256,0,111260,1,0,0:0:0:0:
51,0,111457,1,0,0:0:0:0:
153,0,111457,1,0,0:0:0:0:
460,0,111457,1,0,0:0:0:0:
256,0,111555,1,0,0:0:0:0:
358,0,111785,1,0,0:0:0:0:
51,0,111850,1,0,0:0:0:0:
256,0,111916,1,0,0:0:0:0:
153,0,112047,1,0,0:0:0:0:
358,0,112047,1,0,0:0:0:0:
256,0,112244,1,0,0:0:0:0:
358,0,112244,1,0,0:0:0:0:
460,0,112244,1,0,0:0:0:0:
51,0,112342,1,0,0:0:0:0:
256,0,112572,1,0,0:0:0:0:
460,0,112637,1,0,0:0:0:0:
153,0,112703,1,0,0:0:0:0:
51,0,112834,1,0,0:0:0:0:
256,0,112834,1,0,0:0:0:0:
358,0,112834,1,0,0:0:0:0:
153,0,113140,1,0,0:0:0:0:
256,0,113140,1,0,0:0:0:0:
460,0,113140,1,0,0:0:0:0:
51,0,113424,1,0,0:0:0:0:
358,0,113424,1,0,0:0:0:0:
460,0,113424,1,0,0:0:0:0:
153,0,113621,1,0,0:0:0:0:
256,0,113621,1,0,0:0:0:0:
460,0,113719,1,0,0:0:0:0:
358,0,113817,1,0,0:0:0:0:
460,0,113927,1,0,0:0:0:0:
153,0,113927,1,0,0:0:0:0:
256,0,113990,1,0,0:0:0:0:
153,0,114112,1,0,0:0:0:0:
51,0,114211,1,0,0:0:0:0:
256,0,114211,1,0,0:0:0:0:
460,0,114211,1,0,0:0:0:0:
51,0,114409,1,0,0:0:0:0:
358,0,114409,1,0,0:0:0:0:
460,0,114505,1,0,0:0:0:0:
51,0,114602,1,0,0:0:0:0:
460,0,114699,1,0,0:0:0:0:
51,0,114796,1,0,0:0:0:0:
460,0,114892,1,0,0:0:0:0:
51,0,114989,1,0,0:0:0:0:
460,0,115086,1,0,0:0:0:0:
256,0,115183,1,0,0:0:0:0:
153,0,115231,1,0,0:0:0:0:
358,0,115279,1,0,0:0:0:0:
256,0,115376,1,0,0:0:0:0:
51,0,115480,128,0,115860:0:0:0:0:
153,0,115480,1,0,0:0:0:0:
460,0,115480,1,0,0:0:0:0:
153,0,115957,1,0,0:0:0:0:
460,0,115957,1,0,0:0:0:0:
51,0,116054,1,0,0:0:0:0:
460,0,116150,1,0,0:0:0:0:
51,0,116247,1,0,0:0:0:0:
460,0,116344,1,0,0:0:0:0:
51,0,116441,1,0,0:0:0:0:
460,0,116538,1,0,0:0:0:0:
51,0,116634,1,0,0:0:0:0:
256,0,116731,1,0,0:0:0:0:
358,0,116731,1,0,0:0:0:0:
153,0,116828,1,0,0:0:0:0:
256,0,116925,1,0,0:0:0:0:
51,0,117021,1,0,0:0:0:0:
358,0,117021,1,0,0:0:0:0:
460,0,117021,128,0,117409:0:0:0:0:
51,0,117505,1,0,0:0:0:0:
153,0,117505,1,0,0:0:0:0:
358,0,117505,1,0,0:0:0:0:
460,0,117602,1,0,0:0:0:0:
256,0,117699,1,0,0:0:0:0:
460,0,117797,1,0,0:0:0:0:
153,0,117895,1,0,0:0:0:0:
460,0,117996,1,0,0:0:0:0:
51,0,118097,1,0,0:0:0:0:
460,0,118198,1,0,0:0:0:0:
256,0,118400,1,0,0:0:0:0:
51,0,118501,1,0,0:0:0:0:
153,0,118501,1,0,0:0:0:0:
460,0,118501,1,0,0:0:0:0:
358,0,118602,1,0,0:0:0:0:
256,0,118703,1,0,0:0:0:0:
358,0,118806,1,0,0:0:0:0:
153,0,118910,1,0,0:0:0:0:
358,0,119014,1,0,0:0:0:0:
51,0,119120,1,0,0:0:0:0:
358,0,119226,1,0,0:0:0:0:
256,0,119449,1,0,0:0:0:0:
51,0,119571,128,0,122390:0:0:0:0:
153,0,119571,1,0,0:0:0:0:
460,0,119571,1,0,0:0:0:0:
358,0,120274,1,0,0:0:0:0:
153,0,120374,1,0,0:0:0:0:
358,0,120470,1,0,0:0:0:0:
460,0,120674,1,0,0:0:0:0:
256,0,120846,1,0,0:0:0:0:
358,0,120964,1,0,0:0:0:0:
153,0,121158,1,0,0:0:0:0:
256,0,121372,1,0,0:0:0:0:
153,0,121604,1,0,0:0:0:0:
358,0,121835,1,0,0:0:0:0:
460,0,121855,1,0,0:0:0:0:
256,0,122390,1,0,0:0:0:0:
153,0,122390,1,0,0:0:0:0:
358,0,122444,1,0,0:0:0:0:
256,0,122553,1,0,0:0:0:0:
153,0,122966,1,0,0:0:0:0:
358,0,122966,1,0,0:0:0:0:
460,0,123015,1,0,0:0:0:0:
256,0,123364,1,0,0:0:0:0:
460,0,123364,1,0,0:0:0:0:
51,0,123413,1,0,0:0:0:0:
51,0,123762,1,0,0:0:0:0:
153,0,123762,1,0,0:0:0:0:
358,0,123811,128,0,124459:0:0:0:0:
256,0,124459,1,0,0:0:0:0:
153,0,124562,1,0,0:0:0:0:
51,0,124665,1,0,0:0:0:0:
256,0,124665,128,0,124975:0:0:0:0:
460,0,124665,1,0,0:0:0:0:
