osu file format v14

[General]
AudioFilename: 1.mp3
AudioLeadIn: 0
PreviewTime: 47519
Countdown: 0
SampleSet: Soft
StackLeniency: 0.7
Mode: 0
LetterboxInBreaks: 0
WidescreenStoryboard: 1

[Editor]
DistanceSpacing: 1.2
BeatDivisor: 4
GridSize: 16
TimelineZoom: 1

[Metadata]
Title:One for All (TV Size)
TitleUnicode:One for All (TV Size)
Artist:Kaminoki Koukou Cheerleading-bu
ArtistUnicode:神ノ木高校チアリーディング部
Creator:lililing
Version:Normal
Source:Anima Yell!
Tags:Ending アニマエール! 尾崎由香 山田唯菜 井澤美香子 楠木ともり 白石晴香
BeatmapID:1808060
BeatmapSetID:864173

[Difficulty]
HPDrainRate:3
CircleSize:3.5
OverallDifficulty:3
ApproachRate:4
SliderMultiplier:1.2
SliderTickRate:1

[Events]
//Background and Video events
0,0,"1.jpg",0,0
Video,0,"1.mp4"
//Break Periods
//Storyboard Layer 0 (Background)
//Storyboard Layer 1 (Fail)
//Storyboard Layer 2 (Pass)
//Storyboard Layer 3 (Foreground)
//Storyboard Sound Samples

[TimingPoints]
140,413.793103448276,4,2,2,80,1,0
6760,-100,4,2,2,70,0,0
20002,-100,4,2,2,60,0,0
46484,-100,4,2,2,70,0,0
48140,-100,4,2,2,80,0,1
72967,-100,4,2,2,70,0,0
74622,-100,4,2,2,60,0,0

[HitObjects]
36,51,140,6,0,P|99:70|172:42,1,120,2|8,0:0|0:0,0:0:0:0:
252,22,967,1,2,0:0:0:0:
352,61,1381,2,0,L|417:13,1,60,8|2,0:0|0:0,0:0:0:0:
454,119,2002,2,0,L|502:83,2,60,2|8|2,0:0|0:0|0:0,0:0:0:0:
411,151,2622,2,0,B|438:201|438:201|438:272,1,120,2|8,0:0|0:0,0:0:0:0:
369,347,3450,6,0,B|341:296|341:296|341:233,1,120,2|8,0:0|0:0,0:0:0:0:
296,135,4277,1,2,0:0:0:0:
230,220,4691,2,0,L|171:211,1,60,8|2,0:0|0:0,0:0:0:0:
158,318,5312,2,0,L|217:327,2,60,2|8|2,0:0|0:0|0:0,0:0:0:0:
104,308,5933,1,2,0:0:0:0:
53,212,6346,1,12,0:0:0:0:
105,118,6760,5,2,0:0:0:0:
49,25,7174,2,0,P|113:9|170:33,1,120,8|2,0:0|0:0,0:0:0:0:
213,121,8002,1,8,0:0:0:0:
283,38,8415,2,0,L|344:31,1,60,2|0,0:0|0:0,0:0:0:0:
391,55,8829,2,0,L|452:62,1,60,8|0,0:0|0:0,0:0:0:0:
492,96,9243,2,0,B|480:147|480:147|480:223,2,120,2|8|2,0:0|0:0|0:0,0:0:0:0:
402,156,10484,5,8,0:0:0:0:
401,263,10898,2,0,B|378:325|378:325|311:365,1,120,2|8,0:0|0:0,0:0:0:0:
240,294,11726,2,0,B|193:321|193:321|170:383,2,120,2|8|2,0:0|0:0|0:0,0:0:0:0:
297,202,12967,2,0,P|271:192|220:192,1,60,8|0,0:0|0:0,0:0:0:0:
186,201,13381,5,2,0:0:0:0:
94,257,13795,2,0,B|94:193|94:193|57:126,1,120,8|2,0:0|0:0,0:0:0:0:
15,48,14622,1,8,0:0:0:0:
122,40,15036,2,0,L|183:47,1,60,2|0,0:0|0:0,0:0:0:0:
235,55,15450,2,0,L|296:48,1,60,8|0,0:0|0:0,0:0:0:0:
348,41,15864,2,0,P|412:49|492:32,2,120,2|8|2,0:0|0:0|0:0,0:0:0:0:
299,137,17105,5,8,0:0:0:0:
406,140,17519,2,0,P|414:204|397:284,1,120,2|8,0:0|0:0,0:0:0:0:
315,318,18346,2,0,L|259:357,1,60,2|0,0:0|0:0,0:0:0:0:
221,384,18760,2,0,L|165:344,1,60,8|0,0:0|0:0,0:0:0:0:
129,316,19174,2,0,L|150:251,1,60,2|0,0:0|0:0,0:0:0:0:
165,208,19588,2,0,L|233:208,1,60,8|0,0:0|0:0,0:0:0:0:
279,208,20002,5,2,0:0:0:0:
243,106,20415,2,0,P|310:102|368:146,1,120,8|2,0:0|0:0,0:0:0:0:
386,231,21243,1,8,0:0:0:0:
421,332,21657,2,0,B|388:338|388:338|341:329,1,60,2|2,0:0|0:0,0:0:0:0:
309,319,22071,1,8,0:0:0:0:
206,286,22484,2,0,B|180:281|180:281|147:287,1,60,2|2,0:0|0:0,0:0:0:0:
93,295,22898,1,8,0:0:0:0:
24,211,23312,5,2,0:0:0:0:
63,110,23726,2,0,P|33:109|5:99,2,60,8|2|2,0:0|0:0|0:0,0:0:0:0:
147,43,24553,2,0,P|176:43|204:53,1,60,8|2,0:0|0:0,0:0:0:0:
254,75,24967,1,2,0:0:0:0:
359,52,25381,2,0,B|391:52|391:52|437:69,1,60,8|2,0:0|0:0,0:0:0:0:
468,80,25795,2,0,L|486:22,2,60,2|2|8,0:0|0:0|0:0,0:0:0:0:
440,184,26622,6,0,P|469:235|448:298,1,120,2|8,0:0|0:0,0:0:0:0:
391,379,27450,2,0,L|304:361,1,60,2|0,0:0|0:0,0:0:0:0:
281,346,27864,2,0,L|194:364,1,60,8|0,0:0|0:0,0:0:0:0:
168,367,28277,1,2,0:0:0:0:
60,378,28691,2,0,P|59:338|46:296,1,60,8|0,0:0|0:0,0:0:0:0:
49,264,29105,2,0,P|43:234|43:204,1,60,2|0,0:0|0:0,0:0:0:0:
48,150,29519,1,8,0:0:0:0:
77,46,29933,5,2,0:0:0:0:
184,36,30346,2,0,L|242:14,2,60,8|2|2,0:0|0:0|0:0,0:0:0:0:
157,140,31174,2,0,P|224:145|289:134,1,120,8|2,0:0|0:0,0:0:0:0:
379,105,32002,2,0,L|391:165,1,60,8|2,0:0|0:0,0:0:0:0:
480,223,32622,2,0,L|492:283,1,60,2|8,0:0|0:0,0:0:0:0:
432,372,33243,5,2,0:0:0:0:
329,339,33657,2,0,B|305:380|305:380|211:380,2,120,8|2|8,0:0|0:0|0:0,0:0:0:0:
390,250,34898,1,2,0:0:0:0:
282,237,35312,1,8,0:0:0:0:
229,249,35519,2,0,L|170:262,2,60,2|2|0,0:0|0:0|0:0,0:0:0:0:
151,173,36346,6,0,P|89:173|40:143,1,120,2|2,0:0|0:0,0:0:0:0:
105,57,37174,2,0,L|141:7,1,60,2|2,0:0|0:0,0:0:0:0:
248,6,37795,2,0,L|284:56,1,60,8|2,0:0|0:0,0:0:0:0:
318,95,38208,2,0,P|374:66|436:66,1,120,2|8,0:0|0:0,0:0:0:0:
481,82,38829,2,0,L|489:21,2,60,2|2|0,0:0|0:0|0:0,0:0:0:0:
475,135,39450,1,8,0:0:0:0:
455,241,39864,6,0,P|404:209|372:159,1,120,2|8,0:0|0:0,0:0:0:0:
265,167,40691,2,0,L|290:230,1,60,2|2,0:0|0:0,0:0:0:0:
312,270,41105,1,8,0:0:0:0:
358,367,41519,2,0,P|297:376|231:361,1,120,2|8,0:0|0:0,0:0:0:0:
139,324,42346,2,0,P|161:294|181:265,1,60,2|0,0:0|0:0,0:0:0:0:
205,231,42760,1,8,0:0:0:0:
97,222,43174,5,2,0:0:0:0:
30,137,43588,2,0,P|10:116|-2:73,2,60,8|2|2,0:0|0:0|0:0,0:0:0:0:
117,73,44415,2,0,P|137:93|149:136,2,60,8|2|2,0:0|0:0|0:0,0:0:0:0:
211,19,45243,1,8,0:0:0:0:
256,192,45657,12,0,47312,0:0:0:0:
303,346,48140,6,0,P|229:348|182:332,1,120,2|8,0:0|0:0,0:0:0:0:
132,239,48967,1,2,0:0:0:0:
184,144,49381,1,8,0:0:0:0:
135,47,49795,2,0,P|75:42|17:59,2,120,2|8|2,0:0|0:0|0:0,0:0:0:0:
242,56,51036,1,8,0:0:0:0:
349,62,51450,6,0,P|408:66|466:49,2,120,2|8|2,0:0|0:0|0:0,0:0:0:0:
289,152,52691,2,0,B|267:175|267:175|260:215,1,60,8|2,0:0|0:0,0:0:0:0:
251,257,53105,1,2,0:0:0:0:
357,239,53519,2,0,P|424:239|480:272,1,120,8|2,0:0|0:0,0:0:0:0:
507,364,54346,2,0,P|478:367|447:361,1,60,8|2,0:0|0:0,0:0:0:0:
395,346,54760,6,0,P|330:339|260:346,1,120,2|8,0:0|0:0,0:0:0:0:
167,345,55588,1,2,0:0:0:0:
66,306,56002,2,0,P|35:246|33:161,1,120,8|2,0:0|0:0,0:0:0:0:
60,150,56622,2,0,L|5:73,2,60,2|8|2,0:0|0:0|0:0,0:0:0:0:
95,190,57243,1,2,0:0:0:0:
183,253,57657,1,8,0:0:0:0:
186,134,58071,6,0,L|106:6,1,120,2|8,0:0|0:0,0:0:0:0:
228,13,58898,2,0,P|285:28|355:8,2,120,2|8|2,0:0|0:0|0:0,0:0:0:0:
283,105,60140,2,0,L|343:106,1,60,8|2,0:0|0:0,0:0:0:0:
407,193,60760,2,0,L|467:194,2,60,2|8|2,0:0|0:0|0:0,0:0:0:0:
352,193,61381,1,2,0:0:0:0:
268,266,61795,1,8,0:0:0:0:
183,198,62208,1,2,0:0:0:0:
100,268,62622,2,0,P|74:329|21:375,1,120,8|2,0:0|0:0,0:0:0:0:
9,261,63450,6,0,P|23:203|15:144,1,120,8|2,0:0|0:0,0:0:0:0:
36,38,64277,1,8,0:0:0:0:
143,36,64691,2,0,P|201:46|271:46,1,120,2|8,0:0|0:0,0:0:0:0:
369,37,65519,1,2,0:0:0:0:
467,80,65933,2,0,L|494:18,2,60,8|2|2,0:0|0:0|0:0,0:0:0:0:
380,144,66760,6,0,P|425:183|436:254,1,120,8|2,0:0|0:0,0:0:0:0:
330,237,67588,1,8,0:0:0:0:
222,231,68002,2,0,P|210:289|154:334,1,120,2|8,0:0|0:0,0:0:0:0:
123,230,68829,1,2,0:0:0:0:
126,121,69243,2,0,P|81:82|69:11,1,120,8|2,0:0|0:0,0:0:0:0:
175,26,70071,2,0,L|262:5,2,60,8|2|2,0:0|0:0|0:0,0:0:0:0:
231,118,70898,1,8,0:0:0:0:
329,74,71312,6,0,P|380:30|434:18,1,120,2|8,0:0|0:0,0:0:0:0:
422,125,72140,2,0,P|378:165|320:180,1,120,2|8,0:0|0:0,0:0:0:0:
44,81,74622,6,0,P|109:94|150:141,1,120,2|8,0:0|0:0,0:0:0:0:
53,187,75450,1,2,0:0:0:0:
149,235,75864,2,0,B|139:266|139:266|139:298,1,60,8|2,0:0|0:0,0:0:0:0:
140,347,76277,1,2,0:0:0:0:
238,302,76691,2,0,B|277:302|277:302|318:318,1,60,8|2,0:0|0:0,0:0:0:0:
347,326,77105,2,0,B|379:267|379:267|379:193,1,120,2|8,0:0|0:0,0:0:0:0:
271,208,77933,6,0,B|271:155|271:155|303:96,1,120,2|8,0:0|0:0,0:0:0:0:
360,4,78760,1,2,0:0:0:0:
251,4,79174,2,0,L|182:4,1,60,8|2,0:0|0:0,0:0:0:0:
137,7,79588,1,2,0:0:0:0:
31,30,80002,2,0,B|60:60|60:60|60:95,1,60,8|2,0:0|0:0,0:0:0:0:
58,132,80415,2,0,P|119:118|181:131,1,120,2|8,0:0|0:0,0:0:0:0:
119,221,81243,6,0,P|105:282|118:344,1,120,2|8,0:0|0:0,0:0:0:0:
207,280,82071,1,2,0:0:0:0:
295,341,82484,2,0,L|360:343,1,60,8|2,0:0|0:0,0:0:0:0:
402,317,82898,1,2,0:0:0:0:
505,347,83312,2,0,L|507:282,1,60,8|2,0:0|0:0,0:0:0:0:
506,232,83726,2,0,P|491:162|509:94,1,120,2|8,0:0|0:0,0:0:0:0:
436,27,84553,6,0,P|366:42|298:24,1,120,2|8,0:0|0:0,0:0:0:0:
212,15,85381,1,2,0:0:0:0:
111,55,85795,2,0,P|78:54|31:72,1,60,8|2,0:0|0:0,0:0:0:0:
2,81,86208,1,2,0:0:0:0:
74,160,86622,2,0,P|107:160|154:142,1,60,8|2,0:0|0:0,0:0:0:0:
184,137,87036,2,0,P|243:129|310:137,1,120,2|8,0:0|0:0,0:0:0:0:
256,192,87864,12,0,89312,0:0:0:0:
