osu file format v14

[General]
AudioFilename: 1.mp3
AudioLeadIn: 0
PreviewTime: 47519
Countdown: 0
SampleSet: Soft
StackLeniency: 0.7
Mode: 0
LetterboxInBreaks: 0
WidescreenStoryboard: 0

[Editor]
DistanceSpacing: 1.2
BeatDivisor: 4
GridSize: 16
TimelineZoom: 2

[Metadata]
Title:One for All (TV Size)
TitleUnicode:One for All (TV Size)
Artist:Kaminoki Koukou Cheerleading-bu
ArtistUnicode:神ノ木高校チアリーディング部
Creator:lililing
Version:Hard
Source:Anima Yell!
Tags:Ending アニマエール! 尾崎由香 山田唯菜 井澤美香子 楠木ともり 白石晴香
BeatmapID:1807463
BeatmapSetID:864173

[Difficulty]
HPDrainRate:5
CircleSize:4
OverallDifficulty:5
ApproachRate:6
SliderMultiplier:1.4
SliderTickRate:1

[Events]
//Background and Video events
0,0,"1.jpg",0,0
Video,0,"1.mp4"
//Break Periods
//Storyboard Layer 0 (Background)
//Storyboard Layer 1 (Fail)
//Storyboard Layer 2 (Pass)
//Storyboard Layer 3 (Foreground)
//Storyboard Sound Samples

[TimingPoints]
140,413.793103448276,4,2,2,80,1,0
6760,-100,4,2,2,70,0,0
20002,-100,4,2,2,60,0,0
46484,-100,4,2,2,70,0,0
48140,-100,4,2,2,80,0,1
72967,-100,4,2,2,70,0,0
74622,-100,4,2,2,60,0,0

[HitObjects]
144,32,140,5,2,0:0:0:0:
288,112,553,1,8,0:0:0:0:
144,192,967,1,2,0:0:0:0:
288,272,1381,2,0,P|326:279|360:271,1,70,8|2,0:0|0:0,0:0:0:0:
320,192,1795,1,2,0:0:0:0:
288,112,2002,2,0,P|326:105|358:112,2,70,2|8|2,0:0|0:0|0:0,0:0:0:0:
205,95,2622,2,0,P|167:102|135:95,1,70,2|0,0:0|0:0,0:0:0:0:
54,116,3036,1,8,0:0:0:0:
51,279,3450,5,2,0:0:0:0:
183,382,3864,1,8,0:0:0:0:
317,281,4277,1,2,0:0:0:0:
188,172,4691,2,0,L|188:248,1,70,8|2,0:0|0:0,0:0:0:0:
184,326,5105,1,2,0:0:0:0:
264,348,5312,2,0,P|297:363|329:348,2,70,2|8|2,0:0|0:0|0:0,0:0:0:0:
317,281,5933,2,0,L|401:219,1,70,2|0,0:0|0:0,0:0:0:0:
439,186,6346,1,12,0:0:0:0:
305,83,6760,6,0,L|362:126,1,70,2|0,0:0|0:0,0:0:0:0:
437,89,7174,2,0,L|381:46,1,70,8|0,0:0|0:0,0:0:0:0:
306,7,7588,2,0,B|271:-2|271:-2|233:9,1,70,2|0,0:0|0:0,0:0:0:0:
161,43,8002,1,8,0:0:0:0:
84,76,8208,1,2,0:0:0:0:
0,64,8415,2,0,P|10:26|40:3,2,70,2|0|8,0:0|0:0|0:0,0:0:0:0:
30,142,9036,1,0,0:0:0:0:
59,220,9243,2,0,P|49:258|19:281,2,70,2|0|8,0:0|0:0|0:0,0:0:0:0:
194,119,10071,5,2,0:0:0:0:
118,155,10277,1,2,0:0:0:0:
185,205,10484,2,0,P|195:242|180:277,1,70,8|0,0:0|0:0,0:0:0:0:
116,318,10898,2,0,P|106:351|116:384,2,70,2|0|8,0:0|0:0|0:0,0:0:0:0:
193,350,11519,1,0,0:0:0:0:
262,305,11726,2,0,L|325:268,1,70,2|0,0:0|0:0,0:0:0:0:
394,225,12140,2,0,L|394:298,1,70,8|0,0:0|0:0,0:0:0:0:
395,379,12553,2,0,L|331:342,2,70,2|0|8,0:0|0:0|0:0,0:0:0:0:
468,337,13174,1,0,0:0:0:0:
468,252,13381,6,0,L|467:178,1,70,2|0,0:0|0:0,0:0:0:0:
432,105,13795,2,0,P|467:99|504:107,1,70,8|0,0:0|0:0,0:0:0:0:
498,21,14208,2,0,P|463:14|429:20,1,70,2|0,0:0|0:0,0:0:0:0:
355,61,14622,1,8,0:0:0:0:
192,21,15036,1,2,0:0:0:0:
131,79,15243,1,0,0:0:0:0:
212,99,15450,2,0,P|246:105|280:99,1,70,8|0,0:0|0:0,0:0:0:0:
352,143,15864,2,0,P|358:177|351:211,2,70,2|0|8,0:0|0:0|0:0,0:0:0:0:
185,165,16691,6,0,P|150:158|116:164,1,70,2|0,0:0|0:0,0:0:0:0:
156,238,17105,2,0,P|167:270|189:297,1,70,8|0,0:0|0:0,0:0:0:0:
232,234,17519,2,0,P|254:207|266:174,2,70,2|0|8,0:0|0:0|0:0,0:0:0:0:
400,235,18346,1,6,0:0:0:0:
479,261,18553,1,2,0:0:0:0:
479,345,18760,1,8,0:0:0:0:
400,370,18967,1,2,0:0:0:0:
350,303,19174,2,0,L|293:303,8,35,2|0|0|0|8|0|0|0|2,0:0|0:0|0:0|0:0|0:0|0:0|0:0|0:0|0:0,0:0:0:0:
265,303,20208,5,2,0:0:0:0:
206,363,20415,2,0,P|171:373|139:362,2,70,8|2|2,0:0|0:0|0:0,0:0:0:0:
37,363,21243,2,0,B|8:297,1,70,8|2,0:0|0:0,0:0:0:0:
10,220,21657,2,0,B|10:186|10:186|37:161,1,70,2|2,0:0|0:0,0:0:0:0:
99,104,22071,2,0,B|128:120|128:120|136:156,1,70,8|2,0:0|0:0,0:0:0:0:
154,237,22484,2,0,B|124:254|124:254|90:243,2,70,2|2|8,0:0|0:0|0:0,0:0:0:0:
260,107,23312,5,2,0:0:0:0:
246,23,23519,2,0,B|216:13|216:13|176:13,2,70,0|8|2,0:0|0:0|0:0,0:0:0:0:
324,52,24140,2,0,B|361:63|361:63|396:63,1,70,2|2,0:0|0:0,0:0:0:0:
471,91,24553,2,0,B|485:61|469:23,2,70,8|0|2,0:0|0:0|0:0,0:0:0:0:
440,169,25174,2,0,B|475:183|511:169,2,70,2|8|2,0:0|0:0|0:0,0:0:0:0:
362,136,25795,2,0,B|348:171|362:207,1,70,2|2,0:0|0:0,0:0:0:0:
414,269,26208,1,8,0:0:0:0:
462,337,26415,2,0,P|427:351|392:351,1,70,0|2,0:0|0:0,0:0:0:0:
333,294,26829,6,0,L|295:363,2,70,2|8|2,0:0|0:0|0:0,0:0:0:0:
280,228,27450,2,0,P|245:229|213:242,1,70,2|2,0:0|0:0,0:0:0:0:
132,267,27864,2,0,P|99:280|65:281,2,70,8|2|2,0:0|0:0|0:0,0:0:0:0:
151,185,28484,1,2,0:0:0:0:
74,149,28691,2,0,P|60:116|59:82,1,70,8|2,0:0|0:0,0:0:0:0:
142,98,29105,2,0,P|176:102|207:118,2,70,2|2|8,0:0|0:0|0:0,0:0:0:0:
304,55,29933,5,2,0:0:0:0:
384,32,30140,2,0,B|421:23|421:23|460:32,1,70,2|8,0:0|0:0,0:0:0:0:
491,104,30553,2,0,B|454:113|454:113|415:103,2,70,2|2|2,0:0|0:0|0:0,0:0:0:0:
484,187,31174,2,0,L|473:278,1,70,8|2,0:0|0:0,0:0:0:0:
465,340,31588,2,0,B|428:331|428:331|389:340,1,70,2|0,0:0|0:0,0:0:0:0:
336,279,32002,2,0,L|405:262,2,70,8|2|2,0:0|0:0|0:0,0:0:0:0:
254,300,32622,2,0,L|182:315,1,70,2|8,0:0|0:0,0:0:0:0:
18,339,33243,6,0,P|66:285|66:206,1,140,2|8,0:0|0:0,0:0:0:0:
33,144,33864,2,0,P|70:136|122:157,1,70,0|2,0:0|0:0,0:0:0:0:
269,143,34484,2,0,B|277:106|277:106|271:66,1,70,8|0,0:0|0:0,0:0:0:0:
345,32,34898,2,0,B|359:111|359:111|341:192,1,140,2|8,0:0|0:0,0:0:0:0:
359,252,35519,1,0,0:0:0:0:
285,227,35726,2,0,P|250:226|217:214,1,70,2|2,0:0|0:0,0:0:0:0:
423,322,36347,6,0,P|459:322|495:337,2,70,2|2|0,0:0|0:0|0:0,0:0:0:0:
338,319,36968,2,0,L|244:319,1,70,8|2,0:0|0:0,0:0:0:0:
189,349,37381,2,0,L|107:302,1,70,2|2,0:0|0:0,0:0:0:0:
47,292,37795,2,0,L|0:210,1,70,8|2,0:0|0:0,0:0:0:0:
62,163,38209,2,0,B|131:163|131:163|204:136,1,140,2|0,0:0|0:0,0:0:0:0:
286,104,38830,2,0,B|316:95|316:95|353:105,1,70,2|2,0:0|0:0,0:0:0:0:
432,134,39244,1,2,0:0:0:0:
460,213,39450,1,8,0:0:0:0:
376,200,39657,6,0,B|345:208|345:208|308:198,1,70,2|2,0:0|0:0,0:0:0:0:
257,264,40071,2,0,L|326:283,2,70,2|8|2,0:0|0:0|0:0,0:0:0:0:
224,183,40692,2,0,L|156:164,1,70,2|0,0:0|0:0,0:0:0:0:
111,93,41106,1,8,0:0:0:0:
64,163,41312,2,0,P|56:201|65:240,1,70,2|2,0:0|0:0,0:0:0:0:
139,263,41726,2,0,P|151:299|178:329,1,70,2|8,0:0|0:0,0:0:0:0:
252,347,42140,2,0,P|280:372|319:384,2,70,2|2|0,0:0|0:0|0:0,0:0:0:0:
257,264,42761,5,8,0:0:0:0:
260,179,42968,2,0,P|288:153|327:141,2,70,2|2|0,0:0|0:0|0:0,0:0:0:0:
331,223,43588,2,0,P|339:260|330:300,2,70,8|2|2,0:0|0:0|0:0,0:0:0:0:
257,264,44209,2,0,P|220:251|190:224,2,70,2|8|0,0:0|0:0|0:0,0:0:0:0:
253,348,44830,2,0,P|184:325|129:282,1,140,2|8,0:0|0:0,0:0:0:0:
87,212,45450,1,2,0:0:0:0:
89,127,45657,2,0,P|125:139|155:166,2,70,2|0|8,0:0|0:0|0:0,0:0:0:0:
256,192,46278,12,0,47106,0:0:0:0:
378,72,47519,5,2,0:0:0:0:
294,71,47726,1,8,0:0:0:0:
331,146,47933,1,0,0:0:0:0:
246,146,48140,2,0,P|208:153|161:143,1,70,2|0,0:0|0:0,0:0:0:0:
126,216,48554,2,0,P|149:242|162:274,1,70,8|0,0:0|0:0,0:0:0:0:
247,277,48968,2,0,P|258:243|278:215,1,70,2|0,0:0|0:0,0:0:0:0:
330,282,49381,2,0,P|318:315|298:343,2,70,8|2|2,0:0|0:0|0:0,0:0:0:0:
385,218,50002,2,0,B|423:227|423:227|463:218,1,70,2|8,0:0|0:0,0:0:0:0:
463,52,50623,1,2,0:0:0:0:
294,71,51037,5,8,0:0:0:0:
222,26,51244,2,0,P|190:38|154:24,1,70,2|2,0:0|0:0,0:0:0:0:
17,119,51864,2,0,P|49:107|85:121,1,70,8|2,0:0|0:0,0:0:0:0:
147,171,52278,2,0,B|158:135|158:135|187:119,2,70,2|0|8,0:0|0:0|0:0,0:0:0:0:
229,188,52899,2,0,B|254:215|254:215|254:248,2,70,2|2|2,0:0|0:0|0:0,0:0:0:0:
172,249,53519,2,0,B|135:257|135:257|106:240,2,70,8|2|2,0:0|0:0|0:0,0:0:0:0:
317,151,54347,2,0,P|352:129|373:98,1,70,8|2,0:0|0:0,0:0:0:0:
293,68,54761,6,0,P|259:75|225:65,1,70,2|2,0:0|0:0,0:0:0:0:
80,149,55381,2,0,P|113:158|147:151,1,70,2|2,0:0|0:0,0:0:0:0:
295,232,56002,2,0,P|261:239|227:229,1,70,8|2,0:0|0:0,0:0:0:0:
157,275,56416,1,2,0:0:0:0:
85,318,56623,2,0,P|51:325|17:315,2,70,2|8|2,0:0|0:0|0:0,0:0:0:0:
157,360,57244,2,0,P|230:337|293:364,1,140,2|8,0:0|0:0,0:0:0:0:
364,326,57864,6,0,P|397:333|431:323,1,70,2|2,0:0|0:0,0:0:0:0:
387,160,58485,2,0,L|430:106,1,70,8|0,0:0|0:0,0:0:0:0:
473,177,58899,2,0,L|498:241,1,70,2|0,0:0|0:0,0:0:0:0:
414,247,59312,2,0,L|345:236,1,70,8|2,0:0|0:0,0:0:0:0:
300,165,59726,1,2,0:0:0:0:
253,95,59933,2,0,L|184:84,2,70,2|8|2,0:0|0:0|0:0,0:0:0:0:
300,165,60554,1,2,0:0:0:0:
339,90,60761,2,0,L|349:21,2,70,2|8|2,0:0|0:0|0:0,0:0:0:0:
300,165,61381,5,2,0:0:0:0:
133,144,61795,2,0,L|64:133,2,70,8|0|2,0:0|0:0|0:0,0:0:0:0:
267,245,62623,2,0,P|305:251|341:241,1,70,8|2,0:0|0:0,0:0:0:0:
409,204,63037,1,2,0:0:0:0:
482,163,63244,2,0,L|484:89,1,70,2|8,0:0|0:0,0:0:0:0:
479,261,63864,1,2,0:0:0:0:
324,327,64278,5,8,0:0:0:0:
240,326,64485,2,0,P|206:331|170:323,1,70,2|2,0:0|0:0,0:0:0:0:
7,283,65106,2,0,B|47:234|47:234|47:148,1,140,8|2,0:0|0:0,0:0:0:0:
129,10,65933,2,0,L|203:23,1,70,8|2,0:0|0:0,0:0:0:0:
269,66,66347,1,0,0:0:0:0:
339,111,66554,2,0,L|413:124,2,70,2|8|2,0:0|0:0|0:0,0:0:0:0:
266,153,67175,1,0,0:0:0:0:
111,87,67588,2,0,L|179:99,1,70,8|0,0:0|0:0,0:0:0:0:
182,183,68002,6,0,P|149:194|114:181,1,70,2|2,0:0|0:0,0:0:0:0:
266,261,68623,2,0,P|233:272|198:259,1,70,2|2,0:0|0:0,0:0:0:0:
350,337,69244,2,0,P|317:348|282:335,1,70,8|2,0:0|0:0,0:0:0:0:
201,346,69657,1,2,0:0:0:0:
118,330,69864,2,0,P|128:297|117:264,1,70,2|8,0:0|0:0,0:0:0:0:
33,259,70278,2,0,P|21:226|32:193,1,70,2|2,0:0|0:0,0:0:0:0:
39,25,70899,1,8,0:0:0:0:
37,109,71106,6,0,P|78:99|103:79,1,70,2|2,0:0|0:0,0:0:0:0:
265,56,71726,1,8,0:0:0:0:
432,56,72140,2,0,P|460:36|494:29,1,70,2|0,0:0|0:0,0:0:0:0:
495,114,72554,2,0,P|497:148|486:181,1,70,8|2,0:0|0:0,0:0:0:0:
413,138,72968,1,2,0:0:0:0:
415,222,73175,2,0,P|403:254|406:289,2,70,2|8|2,0:0|0:0|0:0,0:0:0:0:
287,332,74002,2,0,P|319:343|354:340,2,70,2|8|2,0:0|0:0|0:0,0:0:0:0:
211,295,74623,6,0,P|178:283|143:286,1,70,2|0,0:0|0:0,0:0:0:0:
62,309,75037,2,0,P|59:274|71:241,1,70,8|0,0:0|0:0,0:0:0:0:
147,200,75450,1,2,0:0:0:0:
99,38,75864,2,0,P|64:40|31:28,1,70,8|2,0:0|0:0,0:0:0:0:
49,111,76278,1,2,0:0:0:0:
132,117,76485,2,0,P|166:114|199:126,2,70,2|8|2,0:0|0:0|0:0,0:0:0:0:
147,200,77106,2,0,P|179:211|214:209,1,70,2|0,0:0|0:0,0:0:0:0:
278,154,77519,1,8,0:0:0:0:
403,43,77933,6,0,B|411:80|411:80|400:114,1,70,2|0,0:0|0:0,0:0:0:0:
378,192,78347,2,0,B|370:229|370:229|381:263,1,70,8|0,0:0|0:0,0:0:0:0:
413,336,78761,1,2,0:0:0:0:
251,289,79175,2,0,P|253:323|241:356,1,70,8|2,0:0|0:0,0:0:0:0:
159,339,79588,1,2,0:0:0:0:
77,320,79795,2,0,L|9:304,2,70,2|8|2,0:0|0:0|0:0,0:0:0:0:
63,236,80416,2,0,L|133:253,1,70,2|0,0:0|0:0,0:0:0:0:
197,199,80830,1,8,0:0:0:0:
66,92,81244,6,0,B|34:78|34:78|10:51,1,70,2|0,0:0|0:0,0:0:0:0:
80,5,81657,2,0,B|111:18|111:18|135:45,1,70,8|0,0:0|0:0,0:0:0:0:
148,128,82071,1,2,0:0:0:0:
295,48,82485,2,0,L|378:48,1,70,8|2,0:0|0:0,0:0:0:0:
433,96,82899,1,2,0:0:0:0:
502,142,83106,2,0,L|502:225,2,70,2|8|2,0:0|0:0|0:0,0:0:0:0:
424,175,83726,2,0,P|390:163|352:174,1,70,2|0,0:0|0:0,0:0:0:0:
278,198,84140,1,8,0:0:0:0:
433,260,84554,6,0,P|456:285|462:319,1,70,2|0,0:0|0:0,0:0:0:0:
377,321,84968,2,0,B|341:321|341:321|309:337,1,70,8|0,0:0|0:0,0:0:0:0:
226,333,85381,1,2,0:0:0:0:
76,256,85795,2,0,P|76:220|92:188,1,70,8|0,0:0|0:0,0:0:0:0:
150,130,86209,1,2,0:0:0:0:
203,65,86416,2,0,P|217:33|217:-1,2,70,2|8|2,0:0|0:0|0:0,0:0:0:0:
242,139,87037,2,0,P|273:153|308:153,1,70,2|0,0:0|0:0,0:0:0:0:
390,133,87450,1,8,0:0:0:0:
256,192,87864,12,0,89312,0:0:0:0:
