osu file format v14

[General]
AudioFilename: audio.mp3
AudioLeadIn: 0
PreviewTime: 54648
Countdown: 0
SampleSet: Soft
StackLeniency: 0.7
Mode: 3
LetterboxInBreaks: 0
SpecialStyle: 0
WidescreenStoryboard: 1

[Editor]
DistanceSpacing: 1.2
BeatDivisor: 6
GridSize: 32
TimelineZoom: 2.3

[Metadata]
Title:Jump Up Yell!! (TV Size)
TitleUnicode:ジャンプアップ↑エール!! (TV Size)
Artist:Kaminoki Koukou Cheerleading-bu
ArtistUnicode:神ノ木高校チアリーディング部
Creator:Nabi-
Version:Hard
Source:アニマエール!
Tags:Anima yell! OP Anime Opening jpop j-pop Japanese 鳩谷こはね Hatoya Kohane 尾崎由香 Ozaki Yuka 舘島虎徹 Tatejima Kotetsu 楠木ともり Kusunoki Tomori 牛久花和 Ushiku Kana 白石晴香 Shiraishi haruka 有馬ひづめ Arima Hizume 山田唯菜 Yamada Yuina 猿渡宇希 Sawatari Uki 井澤美香子 Izawa Mikako Pin_Point Paran high school cheerleading club pop
BeatmapID:2378544
BeatmapSetID:1138636

[Difficulty]
HPDrainRate:7.5
CircleSize:4
OverallDifficulty:7.5
ApproachRate:5
SliderMultiplier:1.4
SliderTickRate:1

[Events]
//Background and Video events
0,0,"image-1466.jpg",0,0
//Break Periods
//Storyboard Layer 0 (Background)
//Storyboard Layer 1 (Fail)
//Storyboard Layer 2 (Pass)
//Storyboard Layer 3 (Foreground)
//Storyboard Layer 4 (Overlay)
//Storyboard Sound Samples

[TimingPoints]
309,283.018867924528,4,2,1,70,1,0
54648,-100,4,2,1,70,0,1
68233,-100,4,2,1,70,0,0
68516,-100,4,2,1,70,0,1
86346,-100,4,2,1,70,0,0

[HitObjects]
64,192,309,128,4,592:0:0:0:0:
448,192,309,1,2,0:0:0:0:
192,192,592,1,8,0:0:0:0:
320,192,592,1,0,0:0:0:0:
64,192,1016,1,2,0:0:0:0:
320,192,1016,1,0,0:0:0:0:
192,192,1158,1,8,0:0:0:0:
448,192,1158,1,0,0:0:0:0:
192,192,1441,1,2,0:0:0:0:
320,192,1441,1,0,0:0:0:0:
448,192,1582,1,0,0:0:0:0:
64,192,1724,1,8,0:0:0:0:
192,192,1724,1,0,0:0:0:0:
320,192,1865,1,0,0:0:0:50:soft-hitclap.wav
192,192,2148,1,2,0:0:0:0:
320,192,2148,1,0,0:0:0:0:
64,192,2290,1,8,0:0:0:0:
448,192,2290,1,0,0:0:0:0:
64,192,2573,128,4,2856:0:0:0:0:
192,192,2573,1,2,0:0:0:0:
320,192,2856,1,8,0:0:0:0:
448,192,2856,1,0,0:0:0:0:
192,192,2997,1,0,0:0:0:0:
64,192,3139,1,0,0:0:0:0:
448,192,3139,1,0,0:0:0:0:
192,192,3280,1,2,0:0:0:0:
320,192,3280,1,0,0:0:0:0:
64,192,3422,1,8,0:0:0:0:
448,192,3422,1,0,0:0:0:0:
192,192,3705,1,2,0:0:0:0:
320,192,3705,1,0,0:0:0:0:
64,192,3846,1,0,0:0:0:0:
320,192,3988,1,8,0:0:0:0:
448,192,3988,1,0,0:0:0:0:
192,192,4129,1,0,0:0:0:50:soft-hitclap.wav
64,192,4412,1,2,0:0:0:0:
192,192,4412,1,0,0:0:0:0:
320,192,4554,1,8,0:0:0:0:
448,192,4554,1,0,0:0:0:0:
192,192,4837,128,4,5120:0:0:0:0:
320,192,4837,1,2,0:0:0:0:
64,192,5120,1,8,0:0:0:0:
448,192,5120,1,0,0:0:0:0:
64,192,5544,1,2,0:0:0:0:
192,192,5544,1,0,0:0:0:0:
320,192,5686,1,8,0:0:0:0:
448,192,5686,1,0,0:0:0:0:
192,192,5969,1,2,0:0:0:0:
320,192,5969,1,0,0:0:0:0:
448,192,6110,1,0,0:0:0:0:
64,192,6252,1,8,0:0:0:0:
192,192,6252,1,0,0:0:0:0:
320,192,6393,1,0,0:0:0:50:soft-hitclap.wav
192,192,6676,1,2,0:0:0:0:
320,192,6676,1,0,0:0:0:0:
64,192,6818,1,8,0:0:0:0:
448,192,6818,1,0,0:0:0:0:
192,192,7101,1,8,0:0:0:0:
320,192,7101,1,2,1:0:0:0:
192,192,7384,1,8,0:0:0:0:
320,192,7384,1,2,1:0:0:0:
192,192,7667,1,8,0:0:0:0:
448,192,7667,1,2,1:0:0:0:
64,192,7808,1,8,0:0:0:0:
320,192,7808,1,2,1:0:0:0:
64,192,8092,1,8,0:0:0:0:
320,192,8092,1,2,1:0:0:0:
192,192,8233,1,8,0:0:0:0:
448,192,8233,128,2,8375:1:0:0:0:
64,192,8516,128,8,8658:0:0:0:0:
320,192,8516,1,2,1:0:0:0:
192,192,8799,1,8,0:0:0:0:
320,192,8799,128,2,8941:1:0:0:0:
64,192,9082,1,2,0:0:0:0:
448,192,9082,1,0,0:0:0:100:Low Tom.wav
192,192,9365,1,4,2:0:0:0:
320,192,9365,1,2,0:0:0:0:
320,192,9554,1,0,0:0:0:0:
64,192,9648,1,8,0:0:0:0:
448,192,9648,128,0,9931:0:0:0:0:
192,192,9931,1,0,0:0:0:0:
192,192,10120,1,2,0:0:0:0:
64,192,10214,128,8,10497:0:0:0:0:
448,192,10214,1,0,0:0:0:0:
320,192,10497,1,2,0:0:0:0:
448,192,10497,1,0,0:0:0:0:
192,192,10686,1,0,0:0:0:0:
64,192,10780,1,8,0:0:0:0:
448,192,10780,1,0,0:0:0:0:
320,192,10969,1,0,0:0:0:0:
192,192,11063,1,0,0:0:0:0:
448,192,11063,1,0,0:0:0:0:
320,192,11252,1,2,0:0:0:0:
64,192,11346,1,8,0:0:0:0:
192,192,11346,1,0,0:0:0:0:
64,192,11629,1,2,0:0:0:0:
320,192,11629,1,0,0:0:0:0:
64,192,11818,1,0,0:0:0:0:
192,192,11912,1,8,0:0:0:0:
320,192,11912,128,0,12195:0:0:0:0:
448,192,12195,1,0,0:0:0:0:
448,192,12384,1,2,0:0:0:0:
64,192,12478,1,8,0:0:0:0:
192,192,12478,128,4,12761:0:0:0:0:
320,192,12478,1,0,0:0:0:0:
320,192,12761,1,8,0:0:0:0:
448,192,12761,1,0,0:0:0:0:
64,192,12950,1,2,0:0:0:0:
192,192,13044,1,8,0:0:0:0:
448,192,13044,1,0,0:0:0:0:
448,192,13233,1,2,0:0:0:0:
64,192,13327,1,8,0:0:0:0:
320,192,13327,1,0,0:0:0:0:
64,192,13516,1,2,0:0:0:0:
192,192,13610,1,8,0:0:0:0:
320,192,13610,1,4,0:0:0:0:
448,192,13610,128,0,13893:0:0:0:0:
64,192,13893,128,2,14176:0:0:0:0:
320,192,13893,1,4,0:0:0:0:
192,192,14176,1,8,0:0:0:0:
448,192,14176,1,0,0:0:0:0:
64,192,14459,1,8,0:0:0:0:
320,192,14459,1,0,0:0:0:0:
448,192,14601,1,2,0:0:0:0:
192,192,14742,1,8,0:0:0:0:
320,192,14742,1,0,0:0:0:0:
64,192,14884,1,2,0:0:0:0:
192,192,15025,1,8,0:0:0:0:
448,192,15025,1,0,0:0:0:0:
192,192,15308,1,8,0:0:0:0:
448,192,15308,1,0,0:0:0:0:
64,192,15450,1,2,0:0:0:0:
320,192,15592,1,8,0:0:0:0:
448,192,15592,1,0,0:0:0:0:
192,192,15733,1,2,0:0:0:0:
64,192,15875,1,8,0:0:0:0:
448,192,15875,1,0,0:0:0:0:
320,192,16016,1,2,0:0:0:0:
64,192,16158,1,8,0:0:0:0:
192,192,16158,1,0,0:0:0:0:
320,192,16299,1,8,0:0:0:0:
192,192,16370,1,8,0:0:0:0:
64,192,16441,1,8,0:0:0:0:
448,192,16441,1,0,0:0:0:0:
192,192,16582,1,8,0:0:0:0:
320,192,16653,1,8,0:0:0:0:
64,192,16724,1,8,0:0:0:0:
448,192,16724,1,0,0:0:0:0:
64,192,16865,1,8,0:0:0:0:
192,192,17007,1,8,0:0:0:0:
320,192,17007,1,0,0:0:0:0:
320,192,17148,1,8,0:0:0:0:
64,192,17290,1,2,0:0:0:0:
448,192,17290,1,8,0:0:0:0:
320,192,17431,1,8,0:0:0:0:
192,192,17502,1,8,0:0:0:0:
320,192,17573,1,8,0:0:0:0:
448,192,17573,1,2,0:0:0:0:
192,192,17714,1,8,0:0:0:0:
320,192,17785,1,8,0:0:0:0:
64,192,17856,1,8,0:0:0:0:
192,192,17856,1,2,0:0:0:0:
448,192,17926,1,8,0:0:0:0:
320,192,17997,1,8,0:0:0:0:
192,192,18068,1,8,0:0:0:0:
64,192,18139,1,10,0:0:0:0:
448,192,18209,1,8,0:0:0:0:
320,192,18280,1,8,0:0:0:0:
192,192,18351,1,8,0:0:0:0:
64,192,18422,128,2,18705:0:0:0:0:
448,192,18422,1,0,0:0:0:0:
192,192,18705,1,8,1:0:0:0:
320,192,18705,1,0,0:0:0:0:
320,192,18988,1,0,0:0:0:0:
448,192,18988,128,0,19271:0:0:0:0:
64,192,19271,1,8,1:0:0:0:
192,192,19271,1,0,0:0:0:0:
64,192,19554,128,2,19837:0:0:0:0:
320,192,19554,1,0,0:0:0:0:
192,192,19837,1,8,1:0:0:0:
448,192,19837,1,0,0:0:0:0:
192,192,19978,1,0,0:0:0:0:
320,192,19978,128,0,20403:0:0:0:0:
64,192,20403,1,8,1:0:0:0:
448,192,20403,1,0,0:0:0:0:
192,192,20686,1,2,0:0:0:0:
448,192,20686,128,0,20969:0:0:0:0:
64,192,20969,1,8,1:0:0:0:
320,192,20969,1,0,0:0:0:0:
64,192,21252,128,0,21535:0:0:0:0:
192,192,21252,1,0,0:0:0:0:
320,192,21535,1,8,1:0:0:0:
448,192,21535,1,0,0:0:0:0:
192,192,21818,1,2,0:0:0:0:
448,192,21818,128,0,22101:0:0:0:0:
64,192,22101,1,8,1:0:0:0:
320,192,22101,1,0,0:0:0:0:
192,192,22242,128,0,22667:0:0:0:0:
320,192,22242,1,0,0:0:0:0:
64,192,22667,1,8,1:0:0:0:
448,192,22667,1,0,0:0:0:0:
64,192,22950,1,2,0:0:0:0:
320,192,22950,128,0,23233:0:0:0:0:
192,192,23233,1,8,1:0:0:0:
448,192,23233,1,0,0:0:0:0:
64,192,23516,128,0,23799:0:0:0:0:
192,192,23516,1,0,0:0:0:0:
320,192,23799,1,8,1:0:0:0:
448,192,23799,1,0,0:0:0:0:
192,192,24082,1,2,0:0:0:0:
448,192,24082,128,0,24365:0:0:0:0:
64,192,24365,1,8,1:0:0:0:
320,192,24365,1,0,0:0:0:0:
64,192,24507,1,0,0:0:0:0:
192,192,24507,128,0,24931:0:0:0:0:
320,192,24931,1,8,1:0:0:0:
448,192,24931,1,0,0:0:0:0:
64,192,25214,128,2,25497:0:0:0:0:
320,192,25214,1,0,0:0:0:0:
192,192,25497,1,8,1:0:0:0:
448,192,25497,1,0,0:0:0:0:
192,192,25780,1,0,0:0:0:0:
320,192,25780,128,0,26063:0:0:0:0:
64,192,26063,1,8,1:0:0:0:
448,192,26063,1,0,0:0:0:0:
64,192,26346,1,2,0:0:0:0:
192,192,26346,128,0,26629:0:0:0:0:
320,192,26629,1,8,1:0:0:0:
448,192,26629,1,0,0:0:0:0:
64,192,26771,128,0,27195:0:0:0:0:
448,192,26771,1,0,0:0:0:0:
192,192,26912,1,0,0:0:0:0:
320,192,27054,1,0,0:0:0:0:
192,192,27195,1,8,1:0:0:0:
320,192,27337,1,0,0:0:0:0:
64,192,27478,1,2,0:0:0:0:
448,192,27478,128,0,27761:0:0:0:0:
64,192,27761,1,8,1:0:0:0:
192,192,27761,1,0,0:0:0:0:
320,192,27903,1,8,0:0:0:30:
448,192,28044,1,0,0:0:0:0:
192,192,28044,128,0,28327:0:0:0:0:
64,192,28327,1,8,1:0:0:0:
448,192,28327,1,0,0:0:0:0:
320,192,28610,1,2,0:0:0:0:
64,192,28610,128,0,28893:0:0:0:0:
448,192,28893,1,8,1:0:0:0:
192,192,28893,1,0,0:0:0:0:
192,192,29035,1,0,0:0:0:0:
320,192,29035,128,0,29459:0:0:0:0:
64,192,29176,1,0,0:0:0:0:
448,192,29318,1,0,0:0:0:0:
64,192,29459,1,8,1:0:0:0:
192,192,29459,1,0,0:0:0:0:
64,192,29742,1,2,0:0:0:0:
448,192,29742,128,0,30025:0:0:0:0:
192,192,30025,1,8,1:0:0:0:
320,192,30025,1,0,0:0:0:0:
192,192,30308,1,0,0:0:0:0:
320,192,30308,128,8,30592:1:0:0:0:
64,192,30592,1,0,0:0:0:0:
448,192,30733,1,0,0:0:0:0:
192,192,30875,1,2,0:0:0:0:
64,192,30875,1,0,0:0:0:0:
64,192,31016,1,0,0:0:0:0:
448,192,31158,1,8,1:0:0:0:
320,192,31158,1,0,0:0:0:0:
192,192,31299,1,0,0:0:0:0:
448,192,31441,1,0,0:0:0:0:
64,192,31441,1,0,0:0:0:0:
320,192,31582,1,0,0:0:0:0:
192,192,31582,1,0,0:0:0:0:
448,192,31724,1,8,1:0:0:0:
64,192,31724,1,0,0:0:0:0:
320,192,32007,1,2,0:0:0:0:
448,192,32007,1,4,0:0:0:0:
192,192,32007,1,0,0:0:0:0:
64,192,32290,1,8,1:0:0:0:
192,192,32290,1,0,0:0:0:0:
320,192,32431,1,8,0:0:0:30:
192,192,32573,1,0,0:0:0:0:
448,192,32573,1,0,0:0:0:0:
64,192,32856,1,8,1:0:0:0:
448,192,32856,1,0,0:0:0:0:
192,192,33139,1,2,0:0:0:0:
320,192,33139,128,0,33422:0:0:0:0:
64,192,33422,1,8,1:0:0:0:
448,192,33422,1,0,0:0:0:0:
64,192,33563,1,0,0:0:0:0:
192,192,33563,128,0,33988:0:0:0:0:
320,192,33705,1,0,0:0:0:0:
320,192,33988,1,8,1:0:0:0:
448,192,33988,1,0,0:0:0:0:
64,192,34271,1,2,0:0:0:0:
192,192,34271,1,0,0:0:0:0:
448,192,34412,1,0,0:0:0:0:
192,192,34554,1,0,0:0:0:0:
320,192,34695,1,0,0:0:0:0:
64,192,34837,1,0,0:0:0:0:
448,192,34978,128,0,35261:0:0:0:0:
192,192,35261,128,0,35969:0:0:0:0:
320,192,35261,1,0,0:0:0:0:
320,192,35686,128,0,35969:0:0:0:70:Mid Tom.wav
64,192,35969,1,2,0:0:0:0:
448,192,35969,128,8,36535:0:0:0:0:
320,192,36110,1,0,0:0:0:0:
64,192,36252,1,0,0:0:0:40:High Tom.wav
192,192,36393,1,0,0:0:0:50:Low Tom.wav
64,192,36535,128,2,37101:0:0:0:0:
320,192,36535,1,4,0:0:0:0:
192,192,36818,128,0,37101:0:0:0:0:
320,192,37101,1,0,0:0:0:0:
448,192,37101,128,0,37667:0:0:0:0:
320,192,37384,1,0,0:0:0:0:
192,192,37525,1,0,0:0:0:0:
64,192,37667,1,0,0:0:0:0:
192,192,37808,1,8,0:0:0:0:
320,192,37808,1,0,0:0:0:0:
64,192,37950,1,0,0:0:0:40:High Tom.wav
448,192,37950,128,0,38233:0:0:0:0:
320,192,38233,1,0,0:0:0:70:Mid Tom.wav
192,192,38375,1,0,0:0:0:50:Low Tom.wav
64,192,38516,128,2,38799:0:0:0:0:
320,192,38799,1,2,0:0:0:0:
448,192,38799,128,4,39365:0:0:0:0:
64,192,39082,1,0,0:0:0:0:
192,192,39365,1,0,0:0:0:0:
320,192,39365,128,0,39931:0:0:0:0:
448,192,39648,1,0,0:0:0:0:
64,192,39931,128,8,40214:0:0:0:0:
192,192,39931,1,0,0:0:0:0:
192,192,40214,1,0,0:0:0:70:Mid Tom.wav
320,192,40356,1,0,0:0:0:0:
64,192,40497,1,8,0:0:0:0:
448,192,40497,1,0,0:0:0:0:
192,192,40639,1,8,0:0:0:40:High Tom.wav
320,192,40780,128,0,41063:0:0:0:50:Low Tom.wav
64,192,41063,1,2,0:0:0:0:
192,192,41063,1,0,0:0:0:0:
192,192,41346,1,8,1:0:0:0:
448,192,41346,1,0,0:0:0:0:
64,192,41488,1,8,1:0:0:0:
320,192,41488,1,0,0:0:0:0:
192,192,41771,1,0,0:0:0:0:
320,192,41771,1,0,0:0:0:0:
64,192,41912,1,8,1:0:0:0:
448,192,41912,1,0,0:0:0:0:
64,192,42195,1,0,0:0:0:0:
192,192,42195,128,0,42478:0:0:0:0:
320,192,42478,1,8,1:0:0:0:
448,192,42478,1,0,0:0:0:0:
64,192,42620,1,8,1:0:0:0:
192,192,42620,1,0,0:0:0:0:
192,192,42903,1,0,0:0:0:0:
320,192,42903,1,0,0:0:0:0:
64,192,43044,1,8,1:0:0:0:
448,192,43044,1,0,0:0:0:0:
64,192,43327,1,2,0:0:0:0:
320,192,43327,128,0,43610:0:0:0:0:
192,192,43610,1,8,1:0:0:0:
448,192,43610,1,0,0:0:0:0:
64,192,43752,1,8,1:0:0:0:
320,192,43752,1,0,0:0:0:0:
64,192,44035,1,0,0:0:0:0:
320,192,44035,1,0,0:0:0:0:
192,192,44176,1,8,1:0:0:0:
448,192,44176,1,0,0:0:0:0:
192,192,44459,128,0,44742:0:0:0:0:
320,192,44459,1,0,0:0:0:0:
64,192,44742,1,8,1:0:0:0:
448,192,44742,1,0,0:0:0:0:
192,192,44884,1,8,1:0:0:0:
320,192,44884,1,0,0:0:0:0:
192,192,45167,1,0,0:0:0:0:
320,192,45167,1,0,0:0:0:0:
64,192,45308,1,8,1:0:0:0:
448,192,45308,1,0,0:0:0:0:
64,192,45592,128,4,46158:0:0:0:0:
320,192,45592,1,2,0:0:0:0:
192,192,45875,1,8,0:0:0:0:
320,192,46158,1,2,0:0:0:0:
448,192,46158,128,0,46724:0:0:0:0:
192,192,46441,1,8,0:0:0:0:
64,192,46582,1,8,0:0:0:0:
192,192,46724,1,2,0:0:0:0:
320,192,46724,128,0,47290:0:0:0:0:
448,192,47007,1,8,0:0:0:0:
64,192,47290,1,2,0:0:0:0:
192,192,47290,128,0,47856:0:0:0:0:
320,192,47573,1,8,0:0:0:0:
448,192,47714,1,8,0:0:0:0:
64,192,47856,128,2,48422:0:0:0:0:
320,192,47856,1,4,0:0:0:0:
192,192,48139,1,8,0:0:0:0:
320,192,48422,128,2,48988:0:0:0:0:
448,192,48422,1,0,0:0:0:0:
64,192,48705,1,8,0:0:0:0:
64,192,48988,1,2,0:0:0:0:
192,192,48988,1,0,0:0:0:0:
448,192,49129,1,8,0:0:0:0:
192,192,49271,1,0,0:0:0:70:Low Tom.wav
320,192,49271,1,0,0:0:0:0:
64,192,49412,1,2,0:0:0:0:
320,192,49554,1,2,0:0:0:0:
448,192,49554,1,8,0:0:0:0:
320,192,49695,1,2,0:0:0:0:
448,192,49695,1,8,0:0:0:0:
64,192,49837,1,2,0:0:0:0:
192,192,49837,1,8,0:0:0:0:
64,192,50120,1,8,0:0:0:0:
448,192,50120,1,0,0:0:0:0:
192,192,50261,1,2,0:0:0:0:
320,192,50403,1,2,0:0:0:0:
64,192,50544,1,8,0:0:0:0:
448,192,50544,1,0,0:0:0:0:
192,192,50686,1,2,0:0:0:0:
320,192,50827,1,2,0:0:0:0:
64,192,50969,1,8,0:0:0:0:
448,192,50969,1,0,0:0:0:0:
320,192,51110,1,2,0:0:0:0:
192,192,51252,1,2,0:0:0:0:
64,192,51393,1,8,0:0:0:0:
448,192,51393,1,0,0:0:0:0:
320,192,51535,1,2,0:0:0:0:
192,192,51676,1,2,0:0:0:0:
64,192,51818,1,2,0:0:0:0:
192,192,51889,1,8,0:0:0:0:
320,192,51959,1,8,0:0:0:0:
448,192,52030,1,8,0:0:0:0:
64,192,52101,1,10,0:0:0:0:
192,192,52172,1,8,0:0:0:0:
320,192,52242,1,8,0:0:0:0:
448,192,52313,1,0,0:0:0:0:
64,192,52384,1,8,0:0:0:0:
192,192,52384,1,2,1:0:0:0:
64,192,52667,1,8,0:0:0:0:
448,192,52667,1,2,1:0:0:0:
192,192,52950,1,8,0:0:0:0:
320,192,52950,1,2,1:0:0:0:
192,192,53092,1,8,0:0:0:0:
320,192,53092,1,2,1:0:0:0:
64,192,53375,1,8,0:0:0:0:
192,192,53375,1,2,1:0:0:0:
320,192,53516,1,8,0:0:0:0:
448,192,53516,1,2,1:0:0:0:
192,192,53799,1,8,0:0:0:0:
320,192,53799,1,2,1:0:0:0:
64,192,54082,1,8,0:0:0:0:
448,192,54082,1,2,1:0:0:0:
192,192,54224,1,2,0:0:0:0:
320,192,54224,1,0,0:0:0:0:
64,192,54365,128,8,54648:0:0:0:0:
448,192,54365,1,0,0:0:0:0:
192,192,54507,128,0,54648:0:0:0:0:
448,192,54648,1,2,0:0:0:0:
320,192,54648,128,4,54931:0:0:0:0:
192,192,54931,1,8,0:0:0:0:
448,192,54931,1,0,0:0:0:0:
64,192,55214,1,0,0:0:0:0:
192,192,55356,1,2,0:0:0:0:
448,192,55356,1,0,0:0:0:0:
64,192,55497,1,8,0:0:0:0:
320,192,55497,1,0,0:0:0:0:
192,192,55780,1,2,0:0:0:0:
320,192,55780,128,0,56063:0:0:0:0:
64,192,56063,1,8,0:0:0:0:
448,192,56063,1,0,0:0:0:0:
192,192,56346,1,0,0:0:0:0:
64,192,56488,1,2,0:0:0:0:
448,192,56488,1,0,0:0:0:0:
192,192,56629,1,8,0:0:0:0:
320,192,56629,1,0,0:0:0:0:
192,192,56912,128,2,57195:0:0:0:0:
448,192,56912,1,0,0:0:0:0:
64,192,57195,1,8,0:0:0:0:
320,192,57195,1,0,0:0:0:0:
192,192,57478,1,0,0:0:0:0:
64,192,57620,1,2,0:0:0:0:
320,192,57620,1,0,0:0:0:0:
192,192,57761,1,8,0:0:0:0:
448,192,57761,1,0,0:0:0:0:
64,192,58044,128,2,58327:0:0:0:0:
320,192,58044,1,0,0:0:0:0:
192,192,58327,1,8,0:0:0:0:
448,192,58327,1,0,0:0:0:0:
320,192,58610,1,0,0:0:0:0:
64,192,58752,1,2,0:0:0:0:
192,192,58752,1,0,0:0:0:0:
320,192,58893,1,8,0:0:0:0:
448,192,58893,1,0,0:0:0:0:
192,192,59176,1,2,0:0:0:0:
320,192,59176,128,4,59459:0:0:0:0:
64,192,59459,1,8,0:0:0:0:
448,192,59459,1,0,0:0:0:0:
192,192,59742,1,0,0:0:0:0:
64,192,59884,1,2,0:0:0:0:
448,192,59884,1,0,0:0:0:0:
192,192,60025,1,8,0:0:0:0:
320,192,60025,1,0,0:0:0:0:
64,192,60308,1,2,0:0:0:0:
320,192,60308,128,0,60592:0:0:0:0:
192,192,60592,1,8,0:0:0:0:
448,192,60592,1,0,0:0:0:0:
64,192,60875,1,0,0:0:0:0:
192,192,61016,1,2,0:0:0:0:
448,192,61016,1,0,0:0:0:0:
64,192,61158,1,8,0:0:0:0:
320,192,61158,1,0,0:0:0:0:
64,192,61441,1,2,0:0:0:0:
448,192,61441,128,0,61724:0:0:0:0:
192,192,61724,1,8,0:0:0:0:
320,192,61724,1,0,0:0:0:0:
448,192,62007,1,0,0:0:0:0:
64,192,62148,1,2,0:0:0:0:
320,192,62148,1,0,0:0:0:0:
192,192,62290,1,8,0:0:0:0:
448,192,62290,1,0,0:0:0:0:
192,192,62573,1,8,0:0:0:0:
320,192,62573,1,2,0:0:0:0:
64,192,62714,1,8,0:0:0:0:
448,192,62714,1,2,0:0:0:0:
64,192,62997,1,8,0:0:0:0:
192,192,62997,128,4,63280:0:0:0:0:
448,192,62997,1,0,0:0:0:0:
64,192,63280,1,2,0:0:0:0:
320,192,63280,1,0,0:0:0:0:
192,192,63422,1,8,0:0:0:0:
448,192,63422,1,0,0:0:0:0:
64,192,63705,1,2,0:0:0:0:
320,192,63705,1,0,0:0:0:70:Mid Tom.wav
64,192,63988,1,2,0:0:0:0:
320,192,63988,1,0,0:0:0:70:Mid Tom.wav
64,192,64271,128,2,64554:0:0:0:0:
320,192,64271,128,0,64554:0:0:0:70:Mid Tom.wav
192,192,64837,1,2,0:0:0:0:
448,192,64837,1,0,0:0:0:70:Mid Tom.wav
192,192,65120,1,2,0:0:0:0:
448,192,65120,1,0,0:0:0:70:Mid Tom.wav
192,192,65403,128,2,65686:0:0:0:0:
448,192,65403,128,0,65686:0:0:0:70:Mid Tom.wav
192,192,65969,1,2,0:0:0:0:
320,192,65969,1,0,0:0:0:70:Low Tom.wav
192,192,66252,1,2,0:0:0:0:
320,192,66252,1,0,0:0:0:70:Low Tom.wav
64,192,66535,1,2,0:0:0:0:
448,192,66535,1,0,0:0:0:70:Low Tom.wav
192,192,66676,1,2,0:0:0:0:
320,192,66676,1,0,0:0:0:70:Low Tom.wav
64,192,66959,1,2,0:0:0:0:
320,192,66959,1,0,0:0:0:70:Mid Tom.wav
192,192,67101,1,2,0:0:0:0:
448,192,67101,1,0,0:0:0:70:High Tom.wav
192,192,67384,1,2,0:0:0:0:
448,192,67384,1,0,0:0:0:70:High Tom.wav
64,192,67525,1,2,0:0:0:0:
320,192,67525,1,0,0:0:0:70:High Tom.wav
64,192,67808,1,2,0:0:0:0:
192,192,67808,1,0,0:0:0:0:
320,192,67950,1,8,0:0:0:0:
448,192,67950,128,0,68233:0:0:0:0:
192,192,68233,1,2,0:0:0:0:
320,192,68233,1,0,0:0:0:0:
64,192,68516,1,8,0:0:0:0:
448,192,68516,1,4,0:0:0:0:
192,192,68516,1,0,0:0:0:0:
320,192,68799,1,0,0:0:0:0:
64,192,68941,1,2,0:0:0:0:
192,192,68941,1,0,0:0:0:0:
320,192,69082,1,8,0:0:0:0:
448,192,69082,1,0,0:0:0:0:
192,192,69365,128,2,69648:0:0:0:0:
448,192,69365,1,0,0:0:0:0:
64,192,69648,1,8,0:0:0:0:
320,192,69648,1,0,0:0:0:0:
192,192,69931,1,2,0:0:0:0:
448,192,69931,1,0,0:0:0:0:
192,192,70073,1,2,0:0:0:0:
448,192,70073,1,0,0:0:0:0:
64,192,70214,1,8,0:0:0:0:
320,192,70214,1,0,0:0:0:0:
64,192,70497,128,2,70780:0:0:0:0:
320,192,70497,1,0,0:0:0:0:
192,192,70780,1,8,0:0:0:0:
448,192,70780,1,0,0:0:0:0:
448,192,71063,1,0,0:0:0:0:
64,192,71205,1,2,0:0:0:0:
320,192,71205,1,0,0:0:0:0:
192,192,71346,1,8,0:0:0:0:
448,192,71346,1,0,0:0:0:0:
64,192,71629,1,2,0:0:0:0:
192,192,71629,1,0,0:0:0:0:
320,192,71771,1,2,0:0:0:0:
64,192,71912,1,8,0:0:0:0:
448,192,71912,1,0,0:0:0:0:
192,192,72054,1,8,0:0:0:0:
320,192,72195,1,2,0:0:0:0:
448,192,72195,1,0,0:0:0:0:
64,192,72337,1,2,0:0:0:0:
192,192,72337,1,0,0:0:0:0:
320,192,72478,1,8,0:0:0:0:
448,192,72478,1,0,0:0:0:0:
192,192,72761,128,2,73044:0:0:0:0:
320,192,72761,1,4,0:0:0:0:
64,192,73044,1,8,0:0:0:0:
448,192,73044,1,0,0:0:0:0:
320,192,73327,1,0,0:0:0:0:
64,192,73469,1,2,0:0:0:0:
192,192,73469,1,0,0:0:0:0:
320,192,73610,1,8,0:0:0:0:
448,192,73610,1,0,0:0:0:0:
64,192,73752,1,0,0:0:0:0:
192,192,73893,1,2,0:0:0:0:
448,192,73893,128,0,74176:0:0:0:0:
192,192,74176,1,8,0:0:0:0:
320,192,74176,128,4,74459:0:0:0:0:
64,192,74459,128,2,74742:0:0:0:0:
448,192,74459,1,0,0:0:0:0:
448,192,74601,1,2,0:0:0:0:
192,192,74742,128,8,75025:0:0:0:0:
320,192,74742,1,4,0:0:0:0:
64,192,75025,1,2,0:0:0:0:
320,192,75025,128,0,75308:0:0:0:0:
64,192,75308,1,8,0:0:0:0:
448,192,75308,1,0,0:0:0:0:
320,192,75592,1,2,0:0:0:0:
192,192,75592,1,0,0:0:0:0:
448,192,75733,1,2,0:0:0:0:
192,192,75875,1,0,0:0:0:0:
64,192,75875,1,8,0:0:0:0:
320,192,76016,1,0,0:0:0:0:
64,192,76158,1,2,0:0:0:0:
448,192,76158,128,4,76441:0:0:0:0:
64,192,76441,1,8,0:0:0:0:
320,192,76441,1,0,0:0:0:0:
192,192,76582,1,2,0:0:0:0:
448,192,76582,128,0,76865:0:0:0:0:
192,192,76865,1,8,0:0:0:0:
320,192,76865,1,0,0:0:0:0:
64,192,77007,1,2,0:0:0:0:
448,192,77148,1,0,0:0:0:70:Low Tom.wav
64,192,77290,1,8,0:0:0:0:
192,192,77290,1,4,0:0:0:0:
320,192,77290,1,0,0:0:0:0:
192,192,77573,1,8,0:0:0:0:
320,192,77573,1,0,0:0:0:0:
192,192,77856,1,8,0:0:0:0:
320,192,77856,1,0,0:0:0:0:
448,192,77997,1,2,0:0:0:0:
64,192,78139,1,8,0:0:0:0:
192,192,78139,1,0,0:0:0:0:
320,192,78280,1,2,0:0:0:0:
64,192,78422,1,8,0:0:0:0:
448,192,78422,1,0,0:0:0:0:
64,192,78705,1,8,0:0:0:0:
448,192,78705,1,0,0:0:0:0:
320,192,78846,1,2,0:0:0:0:
64,192,78988,1,8,0:0:0:0:
448,192,78988,1,0,0:0:0:0:
192,192,79129,1,2,0:0:0:0:
64,192,79271,1,8,0:0:0:0:
448,192,79271,1,0,0:0:0:0:
320,192,79412,1,2,0:0:0:0:
64,192,79554,1,8,0:0:0:0:
192,192,79554,1,4,0:0:0:0:
448,192,79554,1,0,0:0:0:0:
192,192,79837,1,8,0:0:0:0:
448,192,79837,1,0,0:0:0:0:
192,192,80120,1,8,0:0:0:0:
448,192,80120,1,0,0:0:0:0:
64,192,80261,1,2,0:0:0:0:
320,192,80403,1,8,0:0:0:0:
448,192,80403,1,0,0:0:0:0:
192,192,80544,1,2,0:0:0:0:
64,192,80686,1,8,0:0:0:0:
448,192,80686,1,0,0:0:0:0:
320,192,80827,1,2,0:0:0:0:
448,192,80969,1,8,0:0:0:0:
64,192,80969,1,0,0:0:0:0:
192,192,81110,1,4,0:0:0:0:
320,192,81110,1,2,0:0:0:0:
64,192,81393,1,2,0:0:0:0:
320,192,81393,1,0,0:0:0:0:
192,192,81535,1,8,0:0:0:0:
448,192,81535,1,4,0:0:0:0:
192,192,81818,1,2,0:0:0:0:
320,192,81818,1,0,0:0:0:0:
192,192,81959,1,2,0:0:0:0:
64,192,82101,1,8,0:0:0:0:
448,192,82101,1,0,0:0:0:0:
320,192,82242,1,2,0:0:0:0:
192,192,82384,1,0,0:0:0:0:
320,192,82384,1,2,0:0:0:0:
64,192,82525,1,8,0:0:0:0:
448,192,82525,1,0,0:0:0:0:
192,192,82667,1,2,0:0:0:0:
64,192,82808,1,2,0:0:0:0:
320,192,82808,1,0,0:0:0:0:
192,192,82950,1,8,0:0:0:0:
448,192,82950,1,0,0:0:0:0:
320,192,83092,1,2,0:0:0:0:
64,192,83233,1,2,0:0:0:0:
192,192,83233,1,0,0:0:0:0:
320,192,83375,1,8,0:0:0:0:
448,192,83375,1,0,0:0:0:0:
192,192,83516,1,2,0:0:0:0:
64,192,83658,1,8,0:0:0:0:
448,192,83658,1,0,0:0:0:0:
192,192,83799,1,2,0:0:0:0:
320,192,83799,1,0,0:0:0:0:
320,192,83941,1,0,0:0:0:70:Mid Tom.wav
64,192,84082,1,8,0:0:0:0:
448,192,84082,1,4,0:0:0:0:
192,192,84224,1,8,0:0:0:0:
320,192,84294,1,8,0:0:0:0:
448,192,84365,1,8,0:0:0:0:
64,192,84436,1,8,0:0:0:0:
192,192,84507,1,8,0:0:0:0:
320,192,84577,1,8,0:0:0:0:
64,192,84648,1,8,0:0:0:0:
448,192,84648,1,0,0:0:0:0:
448,192,84790,1,8,0:0:0:0:
192,192,84931,1,0,0:0:0:70:High Tom.wav
64,192,84931,1,0,0:0:0:0:
64,192,85073,1,0,0:0:0:70:Low Tom.wav
448,192,85214,1,8,0:0:0:0:
320,192,85214,1,0,0:0:0:70:Mid Tom.wav
192,192,85356,1,8,0:0:0:0:
320,192,85426,1,8,0:0:0:0:
192,192,85497,1,8,0:0:0:0:
64,192,85497,1,2,0:0:0:0:
320,192,85639,1,8,0:0:0:0:
192,192,85709,1,8,0:0:0:0:
448,192,85780,1,8,0:0:0:0:
320,192,85780,1,2,0:0:0:0:
64,192,85851,1,8,0:0:0:0:
192,192,85922,1,8,0:0:0:0:
320,192,85992,1,8,0:0:0:0:
448,192,86063,1,10,0:0:0:0:
64,192,86134,1,8,0:0:0:0:
192,192,86205,1,8,0:0:0:0:
320,192,86275,1,8,0:0:0:0:
448,192,86346,128,12,86629:0:0:0:0:
64,192,86346,128,2,86629:1:0:0:0:
320,192,86629,1,2,1:0:0:0:
192,192,86629,1,8,0:0:0:0:
192,192,86912,1,8,0:0:0:0:
64,192,86912,1,2,1:0:0:0:
448,192,87054,1,8,0:0:0:0:
320,192,87054,1,2,1:0:0:0:
448,192,87337,1,2,1:0:0:0:
192,192,87337,1,8,0:0:0:0:
320,192,87478,1,2,1:0:0:0:
64,192,87478,1,8,0:0:0:0:
448,192,87761,1,2,1:0:0:0:
64,192,87761,1,8,0:0:0:0:
320,192,87903,1,2,1:0:0:0:
192,192,87903,1,8,0:0:0:0:
320,192,88186,1,2,0:0:0:0:
192,192,88186,1,0,0:0:0:0:
448,192,88327,128,8,88610:0:0:0:0:
64,192,88327,128,0,88610:0:0:0:0:
320,192,88610,1,2,0:0:0:0:
192,192,88610,1,4,0:0:0:0:
