osu file format v14

[General]
AudioFilename: audio.mp3
AudioLeadIn: 0
PreviewTime: 54549
Countdown: 1
SampleSet: Soft
StackLeniency: 0.7
Mode: 0
LetterboxInBreaks: 0
WidescreenStoryboard: 1

[Editor]
Bookmarks: 210,4738,9266,11530,16059,18323,20587,22851,25115,27379,29643,31908,34101,36436,38700,40964,43228,45493,47757,50021,50870,54549,59077,61342,63606,65870,68417,72662,73794,77191,81719,86247
DistanceSpacing: 0.8
BeatDivisor: 4
GridSize: 16
TimelineZoom: 1

[Metadata]
Title:Jump! Up! Yell!
TitleUnicode:ジャンプ!アップ!エール!
Artist:Kaminoki Koukou Cheerleading bu Cast
ArtistUnicode:神ノ木高校チアリーディング部キャスト
Creator:LoliVoiceASMR
Version:Easy Cheer
Source:Anima Yell
Tags:Anima Yell
BeatmapID:1911924
BeatmapSetID:905237

[Difficulty]
HPDrainRate:3
CircleSize:3
OverallDifficulty:3
ApproachRate:3
SliderMultiplier:0.9
SliderTickRate:1

[Events]
//Background and Video events
0,0,"thumb-1920-964206.png",0,0
//Break Periods
//Storyboard Layer 0 (Background)
//Storyboard Layer 1 (Fail)
//Storyboard Layer 2 (Pass)
//Storyboard Layer 3 (Foreground)
//Storyboard Sound Samples

[TimingPoints]
220,283.018867924528,4,2,0,20,1,0
18252,-100,4,2,0,20,0,0
26106,-100,4,2,0,20,0,0
27238,-100,4,2,0,20,0,0
29007,-100,4,2,0,20,0,0
36294,-100,4,2,0,20,0,0
40964,-100,4,2,0,20,0,0
45228,-100,4,2,0,20,0,0
47332,-100,4,2,0,20,0,0
49879,-100,4,2,0,20,0,0
54559,-100,4,2,0,30,0,1
61200,-100,4,2,0,30,0,1
62898,-100,4,2,0,30,0,1
67578,-100,4,2,0,20,0,0
68144,-100,4,2,0,20,0,1
68417,-100,4,2,0,30,0,1
79879,-100,4,2,0,30,0,1
82002,-100,4,2,0,30,0,1
85257,-100,4,2,0,30,0,1
86257,-100,4,2,0,20,0,0
87945,-100,4,2,0,20,0,0

[HitObjects]
26,56,220,6,2,L|208:56,1,180
313,92,1352,1,0,0:0:0:0:
244,167,1918,1,4,0:0:0:0:
204,82,2484,6,2,L|25:107,1,180
54,214,3616,1,0,0:0:0:0:
171,220,4182,1,4,0:0:0:0:
223,324,4748,6,2,L|406:298,1,180
425,209,5880,1,0,0:0:0:0:
273,204,6446,1,4,0:0:0:0:
274,91,7012,6,2,L|457:65,1,180
433,179,8144,1,0,0:0:0:0:
308,186,8710,1,4,0:0:0:0:
185,146,9276,6,2,L|7:172,1,180
50,265,10408,2,2,B|104:319|104:319|227:319,1,180
308,301,11540,6,2,B|392:254|392:254|441:181,1,180
320,165,12672,1,0,0:0:0:0:
228,236,13238,1,4,0:0:0:0:
148,121,13804,6,2,L|331:95,2,180
112,230,15503,1,4,0:0:0:0:
207,281,16069,6,2,L|390:255,2,180
211,165,17767,1,4,0:0:0:0:
232,267,18333,5,0,0:0:0:0:
103,169,18899,1,0,0:0:0:0:
211,301,19465,1,0,0:0:0:0:
326,280,20031,1,4,0:0:0:0:
266,180,20597,6,2,P|248:84|273:5,1,180
405,63,21729,2,2,B|423:159|423:159|398:238,1,180
291,248,22861,5,4,0:0:0:0:
259,96,23427,1,0,0:0:0:0:
160,255,23993,1,0,0:0:0:0:
122,120,24559,1,4,0:0:0:0:
75,240,25125,6,2,P|171:222|250:247,1,180
313,323,26257,2,2,P|409:305|472:249,1,180
381,177,27389,6,2,P|296:153|209:172,1,180
276,260,28521,1,0,0:0:0:0:
125,252,29087,1,4,0:0:0:0:
126,152,29653,6,2,P|222:134|301:159,1,180
394,206,30786,1,0,0:0:0:0:
254,283,31352,1,4,0:0:0:0:
111,253,31918,6,2,B|105:173|105:173|179:95,1,180
279,119,33050,1,0,0:0:0:0:
253,270,33616,1,4,0:0:0:0:
412,284,34182,1,0,0:0:0:0:
412,137,34748,1,0,0:0:0:0:
240,89,35314,1,0,0:0:0:0:
104,94,35880,1,4,0:0:0:0:
69,220,36446,6,2,P|165:202|244:227,1,180
318,294,37578,1,0,0:0:0:0:
196,313,38144,1,4,0:0:0:0:
68,281,38710,6,2,B|73:199|73:199|106:103,1,180
208,133,39842,1,0,0:0:0:0:
277,242,40408,1,4,0:0:0:0:
394,269,40974,6,2,B|415:180|415:180|381:95,1,180
265,104,42106,1,0,0:0:0:0:
203,222,42672,1,4,0:0:0:0:
91,283,43238,6,2,B|59:201|59:201|80:112,1,180
205,145,44370,1,0,0:0:0:0:
297,265,44936,1,4,0:0:0:0:
428,294,45503,6,2,P|410:198|368:108,1,180
256,74,46635,1,0,0:0:0:0:
124,78,47201,1,4,0:0:0:0:
88,198,47767,6,2,P|184:180|266:153,1,180
346,102,48899,1,0,0:0:0:0:
381,214,49465,1,4,0:0:0:0:
305,301,50031,6,2,P|220:277|133:296,1,180
124,162,51163,2,2,P|220:144|299:169,1,180
404,230,52295,1,4,0:0:0:0:
407,115,52861,1,0,0:0:0:0:
271,135,53427,1,0,0:0:0:0:
191,230,53993,1,0,0:0:0:0:
124,126,54559,6,2,B|76:218|76:218|70:297,1,180
209,319,55691,1,0,0:0:0:0:
340,311,56257,1,4,0:0:0:0:
416,207,56823,6,2,P|331:183|244:202,1,180
139,306,57955,1,0,0:0:0:0:
85,185,58521,1,4,0:0:0:0:
146,107,59087,6,2,B|242:89|242:89|321:114,1,180
378,200,60219,2,2,B|292:234|292:234|205:253,1,180
105,279,61352,1,4,0:0:0:0:
137,155,61918,1,0,0:0:0:0:
208,72,62484,2,2,B|304:54|304:54|383:79,1,180
338,187,63616,5,0,0:0:0:0:
227,266,64182,1,4,0:0:0:0:
103,257,64748,6,2,B|105:165|105:165|155:86,1,180,2|6,0:0|0:0,0:0:0:0:
264,122,65880,1,0,0:0:0:0:
380,138,66446,1,0,0:0:0:0:
398,237,67012,1,0,0:0:0:0:
253,235,67578,1,0,0:0:0:0:
340,155,68144,6,2,P|436:137|515:162,2,180
266,260,69842,1,4,0:0:0:0:
183,179,70408,6,2,P|98:155|11:174,2,180
264,110,72106,1,4,0:0:0:0:
365,133,72672,6,2,P|383:229|358:308,1,180
229,344,73804,1,0,0:0:0:0:
128,262,74370,1,4,0:0:0:0:
124,162,74936,6,2,P|220:144|299:169,1,180
334,254,76069,1,0,0:0:0:0:
191,291,76635,1,4,0:0:0:0:
69,270,77201,6,2,P|51:174|76:95,2,180
183,233,78899,1,4,0:0:0:0:
290,194,79465,6,2,P|308:290|283:369,2,180
201,247,81163,1,4,0:0:0:0:
218,156,81729,6,2,P|314:138|393:163,1,180
355,267,82861,2,2,P|269:242|187:206,1,180
103,195,83993,1,0,0:0:0:0:
229,153,84559,1,0,0:0:0:0:
350,160,85125,1,0,0:0:0:0:
403,262,85691,1,4,0:0:0:0:
291,259,86257,6,2,P|273:163|298:84,1,180
421,64,87389,2,2,P|439:160|414:239,1,180
313,171,88521,1,4,0:0:0:0:
