osu file format v14

[General]
AudioFilename: audio.mp3
AudioLeadIn: 0
PreviewTime: 54323
Countdown: 0
SampleSet: Soft
StackLeniency: 0.7
Mode: 0
LetterboxInBreaks: 0
WidescreenStoryboard: 1

[Editor]
DistanceSpacing: 1.1
BeatDivisor: 4
GridSize: 16
TimelineZoom: 2

[Metadata]
Title:Siren Blue
TitleUnicode:サイレンブルー
Artist:Kamikawa Eiji (CV: Ono Yuki) & Kokubo Touya (CV: Yashiro Taku)
ArtistUnicode:上川詠司 (CV: ⼩野友樹) & ⼩久保冬也 (CV: ⼋代拓)
Creator:KennethBBG
Version:iRedi's Hard
Source:君と僕と世界のほとり Phrase1 ふたりぼっちクリスマス
Tags:My angel jeremy WM W_M iredi bl short story you and me at the end of world kimi to boku sekai no hotori japan japanese rock pop j-pop j-rock boys love Futari bocchi kurisumasu lonely christmas for two cd drama
BeatmapID:3791597
BeatmapSetID:1845770

[Difficulty]
HPDrainRate:4
CircleSize:3.8
OverallDifficulty:6
ApproachRate:8
SliderMultiplier:1.3
SliderTickRate:1

[Events]
//Background and Video events
0,0,"BG.jpg",0,0
//Break Periods
//Storyboard Layer 0 (Background)
//Storyboard Layer 1 (Fail)
//Storyboard Layer 2 (Pass)
//Storyboard Layer 3 (Foreground)
//Storyboard Layer 4 (Overlay)
//Storyboard Sound Samples

[TimingPoints]
-4379,324.324324324324,4,2,1,35,1,0
810,-166.666666666667,4,2,1,35,0,0
4701,-166.666666666667,4,2,1,40,0,0
5026,-166.666666666667,4,2,1,50,0,0
5350,-100,4,2,1,70,0,0
5999,-105.263157894737,4,2,1,65,0,0
7377,-105.263157894737,4,2,1,65,0,0
7458,-105.263157894737,4,2,1,65,0,0
12566,-105.263157894737,4,2,1,65,0,0
12648,-105.263157894737,4,2,1,65,0,0
16377,-166.666666666667,4,2,1,25,0,0
19945,-250,4,2,1,25,0,0
20918,-166.666666666667,4,2,1,25,0,0
25458,-142.857142857143,4,2,1,45,0,0
26756,-117.647058823529,4,2,1,55,0,0
37134,-117.647058823529,4,2,1,65,0,0
39080,-117.647058823529,4,2,1,45,0,0
39728,-117.647058823529,4,2,1,65,0,0
41674,-117.647058823529,4,2,1,45,0,0
42323,-117.647058823529,4,2,1,65,0,0
44269,-117.647058823529,4,2,1,45,0,0
44918,-117.647058823529,4,2,1,65,0,0
46782,-117.647058823529,4,2,1,5,0,0
46864,-117.647058823529,4,2,1,65,0,0
47350,-105.263157894737,4,2,1,50,0,0
48404,-105.263157894737,4,2,1,5,0,0
48485,-105.263157894737,4,2,1,50,0,0
49701,-105.263157894737,4,2,1,5,0,0
49783,-105.263157894737,4,2,1,50,0,0
49945,-105.263157894737,4,2,1,55,0,0
50999,-105.263157894737,4,2,1,5,0,0
51080,-105.263157894737,4,2,1,55,0,0
52864,-105.263157894737,4,2,1,65,0,0
55134,-86.9565217391304,4,2,1,80,0,1
55377,-86.9565217391304,4,2,1,5,0,1
55458,-86.9565217391304,4,2,1,80,0,1
56674,-86.9565217391304,4,2,1,5,0,1
56755,-86.9565217391304,4,2,1,80,0,1
57972,-86.9565217391304,4,2,1,5,0,1
58053,-86.9565217391304,4,2,1,80,0,1
60566,-86.9565217391304,4,2,1,5,0,1
60647,-86.9565217391304,4,2,1,80,0,1
61863,-86.9565217391304,4,2,1,5,0,1
61944,-86.9565217391304,4,2,1,80,0,1
63161,-86.9565217391304,4,2,1,5,0,1
63242,-86.9565217391304,4,2,1,80,0,1
65755,-86.9565217391304,4,2,1,80,0,1
65836,-86.9565217391304,4,2,1,80,0,1
67053,-86.9565217391304,4,2,1,80,0,1
67133,-86.9565217391304,4,2,1,80,0,1
68350,-86.9565217391304,4,2,1,5,0,1
68431,-86.9565217391304,4,2,1,80,0,1
76053,-80,4,2,1,80,0,1
81242,-105.263157894737,4,2,1,65,0,0
82620,-105.263157894737,4,2,1,65,0,0
82702,-105.263157894737,4,2,1,65,0,0
85215,-105.263157894737,4,2,1,65,0,0
85296,-105.263157894737,4,2,1,65,0,0
87809,-105.263157894737,4,2,1,65,0,0
87890,-105.263157894737,4,2,1,65,0,0

[Colours]
Combo1 : 255,128,128
Combo2 : 140,184,236
Combo3 : 84,137,218
Combo4 : 236,232,149

[HitObjects]
43,48,810,6,0,P|80:40|119:26,3,77.999997619629,12|0|0|0,0:0|3:0|3:0|3:0,0:0:0:0:
69,135,2107,6,0,P|106:122|145:115,3,77.999997619629,0|0|0|0,3:0|3:0|3:0|3:0,0:0:0:0:
210,39,3242,1,12,0:0:0:0:
210,39,3404,6,0,P|245:51|284:58,3,77.999997619629,12|0|0|0,0:0|3:0|3:0|3:0,0:0:0:0:
407,171,4702,6,0,L|388:166,3,19.4999994049072,8|8|0|0,0:0|0:0|3:0|3:0,0:0:0:0:
353,128,5026,2,0,L|328:134,3,19.4999994049072,8|8|0|0,0:0|0:0|3:0|3:0,0:0:0:0:
290,163,5350,6,0,B|268:155|268:155|240:186|191:191,2,97.5,10|10|10,0:0|0:0|0:0,0:0:0:0:
297,259,5999,5,6,3:2:0:0:
297,259,6161,2,0,P|310:296|317:336,1,61.7499983510971,2|8,3:2|0:0,0:0:0:0:
392,367,6485,2,0,P|418:336|449:309,1,61.7499983510971,2|0,0:0|3:0,0:0:0:0:
438,230,6810,2,0,P|398:222|359:209,1,61.7499983510971,2|8,3:2|0:0,0:0:0:0:
297,258,7134,6,0,B|259:254|236:281|249:282|228:311|185:309,1,123.499996702194,6|2,3:2|3:2,0:0:0:0:
103,326,7620,1,8,0:0:0:0:
36,376,7783,2,0,P|58:309|70:242,1,123.499996702194,2|2,3:2|3:2,0:0:0:0:
22,172,8269,2,0,P|51:164|80:153,1,61.7499983510971,10|4,0:0|3:2,0:0:0:0:
153,219,8593,5,2,0:0:0:0:
153,219,8756,2,0,P|190:205|230:198,1,61.7499983510971,2|8,3:2|0:0,0:0:0:0:
223,108,9080,2,0,L|212:69,2,30.8749991755486,2|8|0,3:2|0:0|3:0,0:0:0:0:
293,165,9404,2,0,P|330:178|370:185,1,61.7499983510971,2|8,3:2|0:0,0:0:0:0:
448,176,9729,6,0,P|434:214|476:281,1,123.499996702194,6|2,3:2|3:2,0:0:0:0:
431,357,10215,1,8,0:0:0:0:
336,384,10377,2,0,P|323:323|303:265,1,123.499996702194,2|2,0:0|3:2,0:0:0:0:
223,231,10864,1,10,0:0:0:0:
223,231,11026,1,4,3:2:0:0:
215,319,11188,5,2,0:0:0:0:
215,319,11350,2,0,P|176:326|138:340,1,61.7499983510971,2|8,3:2|0:0,0:0:0:0:
86,272,11675,2,0,P|99:234|106:195,1,61.7499983510971,2|0,3:2|3:0,0:0:0:0:
191,183,11999,2,0,P|217:213|247:238,1,61.7499983510971,2|8,3:2|0:0,0:0:0:0:
326,214,12323,6,0,P|387:209|437:254,1,123.499996702194,6|2,3:2|3:2,0:0:0:0:
438,341,12810,1,8,0:0:0:0:
343,354,12972,2,0,L|336:383,2,30.8749991755486,2|8|0,3:2|0:0|3:0,0:0:0:0:
263,303,13296,1,2,3:2:0:0:
263,303,13458,2,0,P|234:314|204:321,1,61.7499983510972,10|0,0:0|0:0,0:0:0:0:
136,380,13783,5,10,0:0:0:0:
136,380,13945,2,0,P|98:367|58:360,1,61.7499983510971,2|8,3:2|0:0,0:0:0:0:
84,270,14269,2,0,P|71:231|64:192,1,61.7499983510971,2|8,3:2|0:0,0:0:0:0:
19,134,14593,2,0,P|32:95|39:56,1,61.7499983510971,2|8,3:2|0:0,0:0:0:0:
116,123,14918,5,10,0:0:0:0:
255,85,15242,1,10,0:0:0:0:
394,47,15566,1,10,0:0:0:0:
357,186,15891,5,10,0:0:0:0:
357,186,15972,1,8,0:0:0:0:
357,186,16053,1,10,0:0:0:0:
483,168,16377,6,0,P|451:133|407:129,1,77.999997619629,2|2,0:0|0:0,0:0:0:0:
348,91,16864,2,0,P|333:154|314:215,1,116.999996429443,2|2,0:0|0:0,0:0:0:0:
266,363,17675,6,0,B|244:338|244:338|193:351|153:319,2,116.999996429443,2|2|2,0:0|0:0|0:0,0:0:0:0:
355,384,18810,1,0,0:0:0:0:
355,384,18972,6,0,P|376:361|437:355,1,77.999997619629,2|2,0:0|0:0,0:0:0:0:
496,290,19458,2,0,P|465:282|430:232,1,77.999997619629,2|2,0:0|0:0,0:0:0:0:
344,214,19945,6,0,B|364:254|337:287|337:287|288:291|267:244,1,156,2|0,0:0|0:0,0:0:0:0:
270,378,21242,5,2,0:0:0:0:
270,378,21404,1,2,0:0:0:0:
192,319,21566,6,0,P|153:329|128:360,1,77.999997619629,2|2,0:0|0:0,0:0:0:0:
32,363,22053,2,0,P|50:300|65:236,1,116.999996429443,2|2,0:0|0:0,0:0:0:0:
124,134,22864,6,0,B|90:126|62:153|77:150|50:178|14:168,2,116.999996429443,2|2|2,0:0|0:0|0:0,0:0:0:0:
206,190,23999,1,0,0:0:0:0:
206,190,24161,6,0,P|239:160|289:152,1,77.999997619629,2|2,0:0|0:0,0:0:0:0:
268,61,24648,2,0,P|225:46|193:7,1,77.999997619629,2|2,0:0|0:0,0:0:0:0:
129,69,25134,2,0,P|138:116|135:140,1,38.9999988098145,2|0,0:0|0:0,0:0:0:0:
117,191,25458,6,0,P|87:196|59:206,1,45.4999986114502,8|8,3:2|0:0,0:0:0:0:
39,242,25702,1,8,0:0:0:0:
39,242,25783,2,0,P|48:270|54:299,1,45.4999986114502,8|8,3:2|0:0,0:0:0:0:
105,363,26107,1,8,0:0:0:0:
150,288,26269,1,8,0:0:0:0:
150,288,26756,6,0,P|185:301|219:306,1,55.2500010538101,6|0,3:2|0:0,0:0:0:0:
270,383,27080,1,10,0:0:0:0:
270,383,27242,2,0,P|309:324|386:325,1,110.50000210762,2|0,3:2|3:0,0:0:0:0:
429,361,27729,1,10,0:0:0:0:
429,361,27891,1,2,0:0:0:0:
460,278,28053,6,0,P|473:242|478:208,1,55.2500010538101,2|0,3:2|0:0,0:0:0:0:
413,146,28377,1,10,0:0:0:0:
413,146,28539,2,0,P|373:204|295:212,1,110.50000210762,2|0,3:2|3:0,0:0:0:0:
270,155,29026,1,10,0:0:0:0:
270,155,29188,1,2,3:2:0:0:
216,230,29350,6,0,P|174:198|86:197,1,110.50000210762,2|10,3:2|0:0,0:0:0:0:
38,141,29837,2,0,P|32:89|75:6,1,110.50000210762,2|0,3:2|3:0,0:0:0:0:
123,102,30323,2,0,P|158:88|192:83,1,55.2500010538101,10|0,0:0|3:0,0:0:0:0:
249,31,30648,6,0,P|254:66|267:100,1,55.2500010538101,14|0,0:0|3:0,0:0:0:0:
284,170,30972,1,2,3:2:0:0:
348,112,31134,2,0,P|376:89|398:61,1,55.2500010538101,10|0,0:0|3:0,0:0:0:0:
471,14,31458,2,0,P|476:49|489:83,1,55.2500010538101,14|8,0:0|0:0,0:0:0:0:
471,120,31702,1,8,0:0:0:0:
471,120,31783,6,0,B|471:162|511:187|511:187|476:317,1,165.75000316143,14|0,0:0|0:0,0:0:0:0:
501,368,32431,1,2,3:2:0:0:
501,368,32593,2,0,P|465:354|431:349,1,55.2500010538101,10|2,0:0|0:0,0:0:0:0:
369,305,32918,1,2,0:0:0:0:
369,305,33080,1,2,3:2:0:0:
296,364,33242,6,0,P|260:369|226:382,1,55.2500010538101,2|0,3:2|0:0,0:0:0:0:
152,339,33566,2,0,P|146:303|133:269,1,55.2500010538101,2|0,0:0|3:0,0:0:0:0:
177,195,33891,2,0,P|212:189|246:176,1,55.2500010538101,10|0,0:0|0:0,0:0:0:0:
321,220,34215,2,0,P|326:255|339:289,1,55.2500010538101,2|0,3:2|3:0,0:0:0:0:
419,308,34539,6,0,P|451:262|546:252,1,110.50000210762,6|0,3:2|0:0,0:0:0:0:
459,157,35026,1,2,3:2:0:0:
512,69,35188,2,0,P|441:62|398:13,1,110.50000210762,14|0,0:0|0:0,0:0:0:0:
332,77,35675,6,0,P|298:63|262:58,1,55.2500010538101,8|0,0:0|0:0,0:0:0:0:
217,2,35999,2,0,P|183:15|147:20,1,55.2500010538101,12|0,0:0|0:0,0:0:0:0:
70,42,36323,1,0,3:0:0:0:
70,42,36485,6,0,L|79:76,3,27.6250005269051,8|0|2|0,0:0|3:0|3:2|3:0,0:0:0:0:
51,116,36810,2,0,L|61:150,3,27.6250005269051,10|0|2|0,0:0|3:2|3:2|3:0,0:0:0:0:
37,190,37134,6,0,P|72:195|106:208,1,55.2500010538101,6|0,3:2|0:0,0:0:0:0:
186,242,37458,1,2,3:2:0:0:
186,242,37620,2,0,P|173:208|167:172,1,55.2500010538101,2|0,0:0|3:0,0:0:0:0:
111,128,37945,1,2,0:0:0:0:
148,52,38107,6,0,P|94:40|58:0,2,110.50000210762,2|0|0,3:2|3:0|3:2,0:0:0:0:
274,168,39080,1,0,3:0:0:0:
229,93,39242,2,0,P|242:59|247:24,2,55.2500010538101,2|2|2,0:0|3:2|3:2,0:0:0:0:
187,166,39729,6,0,P|151:171|117:184,1,55.2500010538101,2|0,3:2|0:0,0:0:0:0:
34,165,40053,1,2,3:2:0:0:
34,165,40215,2,0,P|46:198|52:234,1,55.2500010538101,2|0,0:0|3:2,0:0:0:0:
129,264,40540,1,2,0:0:0:0:
173,342,40702,6,0,P|102:355|33:379,2,110.50000210762,2|0|0,3:2|3:0|3:2,0:0:0:0:
266,214,41675,1,0,3:0:0:0:
248,298,41837,2,0,P|261:331|266:366,2,55.2500010538101,2|10|2,3:2|0:0|3:2,0:0:0:0:
179,246,42323,6,0,P|145:258|109:263,1,55.2500010538101,6|0,3:2|0:0,0:0:0:0:
55,203,42647,1,2,3:2:0:0:
55,203,42810,2,0,P|67:169|72:133,1,55.2500010538101,2|0,0:0|3:0,0:0:0:0:
24,80,43134,1,2,0:0:0:0:
96,27,43296,6,0,P|117:76|199:110,2,110.50000210762,2|0|0,3:2|3:0|3:2,0:0:0:0:
271,0,44269,1,0,3:0:0:0:
310,77,44431,2,0,P|297:110|292:145,2,55.2500010538101,2|2|2,0:0|3:2|3:2,0:0:0:0:
391,47,44918,6,0,L|425:56,3,27.6250005269051,10|8|8|8,3:2|0:0|0:0|0:0,0:0:0:0:
457,95,45242,2,0,L|447:129,3,27.6250005269051,8|8|10|8,3:2|0:0|0:0|0:0,0:0:0:0:
405,160,45566,6,0,L|371:169,3,27.6250005269051,10|8|8|8,3:2|0:0|0:0|0:0,0:0:0:0:
339,208,45890,2,0,L|349:242,3,27.6250005269051,8|8|8|8,3:2|0:0|0:0|0:0,0:0:0:0:
392,272,46215,5,0,3:0:0:0:
392,272,46377,1,8,0:0:0:0:
359,350,46539,2,0,P|303:340|284:302,1,82.8750015807152,8|0,0:0|0:0,0:0:0:0:
245,292,46864,1,10,0:0:0:0:
174,332,47026,2,0,P|140:320|104:315,1,55.2500010538101,10|2,0:0|0:0,0:0:0:0:
30,328,47350,6,0,P|43:290|48:250,1,61.7499983510971,6|0,3:2|0:0,0:0:0:0:
37,180,47675,2,0,P|74:193|114:198,2,61.7499983510971,2|2|2,3:2|0:0|0:0,0:0:0:0:
2,100,48161,2,0,P|12:62|85:40,1,92.6249975266457,10|0,0:0|0:0,0:0:0:0:
107,53,48485,1,2,0:0:0:0:
178,0,48648,6,0,P|215:13|255:18,1,61.7499983510971,2|0,3:2|0:0,0:0:0:0:
308,97,48972,1,2,3:2:0:0:
308,97,49134,2,0,P|332:65|363:38,1,61.7499983510971,2|0,0:0|3:0,0:0:0:0:
446,20,49458,2,0,P|425:77|414:136,1,92.6249975266457,10|0,0:0|0:0,0:0:0:0:
452,154,49783,1,2,0:0:0:0:
433,241,49945,6,0,P|393:246|355:259,1,61.7499983510971,6|0,3:2|0:0,0:0:0:0:
271,229,50269,2,0,P|245:197|215:170,2,61.7499983510971,2|2|2,3:2|0:0|3:2,0:0:0:0:
302,318,50756,2,0,P|245:325|209:368,1,92.6249975266457,10|0,0:0|0:0,0:0:0:0:
172,366,51080,1,2,0:0:0:0:
89,354,51242,6,0,P|78:324|72:294,1,61.7499983510971,6|0,3:2|0:0,0:0:0:0:
0,238,51566,2,0,P|25:186|109:172,1,123.499996702194,0|2,3:0|3:2,0:0:0:0:
142,244,52053,2,0,P|184:228|228:219,1,61.7499983510971,10|2,0:0|0:0,0:0:0:0:
278,177,52377,2,0,P|299:214|341:226,1,61.7499983510971,2|2,3:2|3:2,0:0:0:0:
263,296,52702,5,4,3:2:0:0:
342,346,52864,2,0,P|380:332|420:327,1,61.7499983510971,8|0,0:0|0:0,0:0:0:0:
471,278,53188,5,0,3:0:0:0:
417,206,53350,2,0,P|430:167|435:127,1,61.7499983510971,12|0,0:0|0:0,0:0:0:0:
376,64,53675,5,0,0:0:0:0:
376,64,53837,2,0,P|337:77|297:82,1,61.7499983510971,8|0,0:0|0:0,0:0:0:0:
241,20,54161,1,8,0:0:0:0:
222,110,54323,1,8,0:0:0:0:
195,98,55134,6,0,B|161:86|136:111|149:111|124:133|90:123,1,112.125002138615,6|0,3:2|0:0,0:0:0:0:
44,99,55458,1,2,3:2:0:0:
27,196,55620,2,0,P|44:244|52:290,1,74.7500014257431,10|2,0:0|3:2,0:0:0:0:
116,345,55945,2,0,P|131:295|242:275,1,149.500002851486,2|10,3:2|0:0,0:0:0:0:
283,332,56431,6,0,B|300:292|300:292|351:289|387:244,1,112.125002138615,2|0,3:2|0:0,0:0:0:0:
413,291,56755,1,2,3:2:0:0:
421,199,56918,2,0,P|404:153|395:105,1,74.7500014257431,10|2,0:0|3:2,0:0:0:0:
420,21,57242,2,0,B|391:45|343:43|343:43|346:55|346:55|296:54|269:82,1,149.500002851486,2|10,3:2|0:0,0:0:0:0:
300,155,57729,6,0,P|245:143|207:85,1,112.125002138615,6|0,3:2|0:0,0:0:0:0:
209,52,58053,1,2,3:2:0:0:
122,40,58215,1,10,0:0:0:0:
122,40,58377,1,2,3:2:0:0:
103,123,58539,1,2,3:2:0:0:
29,74,58702,2,0,P|20:122|3:167,1,74.7500014257431,2|8,3:2|0:0,0:0:0:0:
78,219,59026,6,0,P|123:202|171:193,1,74.7500014257431,6|0,3:2|0:0,0:0:0:0:
223,244,59350,1,0,3:0:0:0:
198,325,59512,2,0,P|152:341|104:350,2,74.7500014257431,8|0|0,0:0|3:0|3:0,0:0:0:0:
285,309,59999,1,2,3:2:0:0:
355,381,60161,1,8,0:0:0:0:
355,381,60242,1,8,0:0:0:0:
355,381,60323,6,0,P|416:367|453:302,1,112.125002138615,6|0,3:2|0:0,0:0:0:0:
470,281,60647,1,2,3:2:0:0:
366,298,60810,2,0,P|320:281|272:272,1,74.7500014257431,8|2,0:0|0:0,0:0:0:0:
236,351,61134,2,0,B|212:303|158:289|158:289|135:307|112:307,1,149.500002851486,2|8,3:2|0:0,0:0:0:0:
66,230,61620,6,0,P|89:160|103:88,1,112.125002138615,2|0,3:2|0:0,0:0:0:0:
74,79,61944,1,2,3:2:0:0:
118,5,62107,2,0,P|160:37|212:36,1,74.7500014257431,10|2,0:0|3:2,0:0:0:0:
256,101,62431,1,2,3:2:0:0:
256,101,62593,2,0,P|298:69|350:70,1,74.7500014257431,2|8,0:0|0:0,0:0:0:0:
406,20,62918,6,0,P|415:85|465:138,1,112.125002138615,6|0,3:2|0:0,0:0:0:0:
475,153,63242,1,8,0:0:0:0:
406,212,63404,2,0,P|388:257|381:305,1,74.7500014257431,8|0,0:0|3:0,0:0:0:0:
332,366,63729,2,0,P|301:328|263:297,1,74.7500014257431,8|0,0:0|0:0,0:0:0:0:
233,229,64053,2,0,P|281:221|326:203,1,74.7500014257431,8|0,0:0|3:0,0:0:0:0:
405,211,64377,6,0,P|423:166|431:118,1,74.7500014257431,8|0,0:0|0:0,0:0:0:0:
370,65,64702,2,0,P|321:72|276:89,1,74.7500014257431,8|2,0:0|0:0,0:0:0:0:
221,141,65026,1,14,0:0:0:0:
221,141,65188,1,2,3:2:0:0:
51,54,65512,6,0,P|53:138|130:152,1,149.500002851486,6|2,3:2|3:2,0:0:0:0:
169,96,65999,2,0,P|151:50|144:2,1,74.7500014257431,2|0,0:0|3:0,0:0:0:0:
249,54,66323,2,0,B|294:70|325:34|307:33|341:2|387:17,1,149.500002851486,10|2,0:0|0:0,0:0:0:0:
469,70,66810,6,0,P|438:93|463:196,1,149.500002851486,2|2,3:2|3:2,0:0:0:0:
402,262,67296,2,0,P|356:244|308:237,1,74.7500014257431,2|2,0:0|3:2,0:0:0:0:
302,326,67620,2,0,B|267:313|251:284|251:284|184:285|162:343,1,149.500002851486,10|2,0:0|0:0,0:0:0:0:
103,379,68107,6,0,P|92:305|65:237,1,112.125002138615,6|0,3:2|0:0,0:0:0:0:
34,237,68431,1,2,3:2:0:0:
34,134,68593,2,0,P|79:151|127:158,1,74.7500014257431,2|0,0:0|3:0,0:0:0:0:
179,213,68917,1,10,0:0:0:0:
230,139,69080,1,2,0:0:0:0:
230,139,69404,6,0,P|237:90|254:45,1,74.7500014257431,2|0,3:2|0:0,0:0:0:0:
320,22,69728,1,0,3:0:0:0:
371,96,69891,2,0,P|363:144|346:189,2,74.7500014257431,0|0|8,0:0|3:0|0:0,0:0:0:0:
457,102,70377,1,0,0:0:0:0:
488,184,70539,2,0,P|457:221|419:252,1,74.7500014257431,2|0,3:2|3:0,0:0:0:0:
448,340,70864,6,0,P|402:322|354:315,1,74.7500014257431,6|0,3:2|0:0,0:0:0:0:
292,379,71188,1,8,0:0:0:0:
292,379,71350,2,0,P|284:330|266:285,1,74.7500014257431,2|0,3:2|3:0,0:0:0:0:
173,266,71675,1,8,0:0:0:0:
173,266,71837,2,0,P|210:235|241:197,1,74.7500014257431,2|8,0:0|0:0,0:0:0:0:
192,111,72161,6,0,P|245:127|336:55,1,149.500002851486,2|8,3:2|0:0,0:0:0:0:
387,22,72648,1,0,3:0:0:0:
408,109,72810,2,0,P|444:100|479:87,1,74.7500014257431,2|8,3:2|0:0,0:0:0:0:
504,171,73134,2,0,P|467:178|433:193,1,74.7500014257431,2|8,0:0|0:0,0:0:0:0:
489,261,73458,6,0,P|506:306|512:354,1,74.7500014257431,2|0,3:2|0:0,0:0:0:0:
423,324,73783,2,0,P|374:330|329:347,1,74.7500014257431,8|0,0:0|3:0,0:0:0:0:
315,384,74026,1,0,3:0:0:0:
315,384,74107,1,0,3:0:0:0:
262,295,74269,2,0,P|213:288|168:271,1,74.7500014257431,8|0,0:0|0:0,0:0:0:0:
111,324,74593,1,10,0:0:0:0:
66,241,74756,5,2,3:2:0:0:
66,241,74918,1,0,3:0:0:0:
145,192,75080,2,0,P|193:185|238:168,1,74.7500014257431,8|0,0:0|3:0,0:0:0:0:
269,195,75323,1,0,3:0:0:0:
269,195,75404,1,8,0:0:0:0:
277,99,75566,1,8,0:0:0:0:
493,26,76053,6,0,P|432:16|375:96,1,162.5,14|8,0:0|0:0,0:0:0:0:
465,123,76539,1,2,3:2:0:0:
512,207,76702,6,0,P|494:252|488:300,1,81.25,8|0,0:0|3:0,0:0:0:0:
413,349,77026,1,10,0:0:0:0:
413,349,77188,1,0,3:0:0:0:
343,275,77350,6,0,P|261:305|176:315,1,162.5,10|8,0:0|0:0,0:0:0:0:
108,378,77837,1,0,3:0:0:0:
32,314,77999,6,0,P|49:268|55:220,1,81.25,10|0,0:0|3:0,0:0:0:0:
22,145,78323,1,8,0:0:0:0:
125,137,78485,1,2,3:2:0:0:
125,137,78566,1,0,3:0:0:0:
125,137,78648,6,0,P|130:74|231:46,1,162.5,14|8,0:0|0:0,0:0:0:0:
279,117,79134,1,2,3:2:0:0:
331,35,79296,6,0,P|376:52|425:58,1,81.25,10|0,0:0|3:0,0:0:0:0:
470,137,79620,1,8,0:0:0:0:
470,137,79783,1,0,3:0:0:0:
512,215,79945,6,0,P|466:233|417:241,1,81.25,8|0,0:0|3:0,0:0:0:0:
401,282,80188,1,0,3:0:0:0:
401,282,80269,2,0,L|354:269,3,40.625,8|8|8|8,0:0|0:0|0:0|0:0,0:0:0:0:
312,296,80593,1,8,0:0:0:0:
297,200,80756,1,8,0:0:0:0:
174,118,81242,5,6,3:2:0:0:
174,118,81404,2,0,P|161:81|154:41,1,61.7499983510971,2|8,3:2|0:0,0:0:0:0:
72,21,81728,2,0,P|46:52|15:79,1,61.7499983510971,2|0,0:0|3:0,0:0:0:0:
36,158,82053,2,0,P|76:166|114:179,1,61.7499983510971,2|8,3:2|0:0,0:0:0:0:
174,118,82377,6,0,P|247:113|277:55,1,123.499996702194,6|6,3:2|3:2,0:0:0:0:
357,35,82864,1,8,0:0:0:0:
461,65,83026,2,0,P|474:131|495:194,1,123.499996702194,2|2,0:0|3:2,0:0:0:0:
500,283,83512,2,0,P|470:275|441:264,1,61.7499983510971,10|4,0:0|3:2,0:0:0:0:
368,212,83836,5,2,0:0:0:0:
368,212,83999,2,0,P|331:226|291:233,1,61.7499983510971,2|8,3:2|0:0,0:0:0:0:
223,195,84323,2,0,L|212:156,2,30.8749991755486,2|8|0,3:2|0:0|3:0,0:0:0:0:
231,284,84648,2,0,P|224:323|209:361,1,61.7499983510971,2|8,3:2|0:0,0:0:0:0:
127,358,84972,6,0,P|118:309|36:282,1,123.499996702194,6|2,3:2|3:2,0:0:0:0:
9,191,85458,1,8,0:0:0:0:
58,101,85620,2,0,P|114:123|177:132,1,123.499996702194,2|2,0:0|3:2,0:0:0:0:
234,210,86107,1,10,0:0:0:0:
234,210,86269,1,4,3:2:0:0:
325,217,86431,5,2,0:0:0:0:
325,217,86593,2,0,P|364:224|402:238,1,61.7499983510971,2|8,3:2|0:0,0:0:0:0:
447,167,86918,2,0,P|434:129|427:90,1,61.7499983510971,2|0,3:2|3:0,0:0:0:0:
338,81,87242,2,0,P|312:111|281:138,1,61.7499983510971,2|8,3:2|0:0,0:0:0:0:
325,217,87566,6,0,B|321:253|347:277|348:264|377:284|375:328,1,123.499996702194,6|2,3:2|3:2,0:0:0:0:
311,373,88053,1,8,0:0:0:0:
227,351,88215,2,0,L|216:390,2,30.8749991755486,2|8|0,3:2|0:0|3:0,0:0:0:0:
176,280,88539,1,2,3:2:0:0:
176,280,88702,2,0,P|145:286|116:296,1,61.7499983510971,10|0,0:0|3:0,0:0:0:0:
58,226,89026,5,14,0:0:0:0:
58,226,89188,2,0,P|71:188|78:148,1,61.7499983510971,14|0,0:0|0:0,0:0:0:0:
67,76,89512,2,0,P|105:88|145:95,1,61.7499983510971,14|0,0:0|0:0,0:0:0:0:
220,81,89837,2,0,P|207:119|200:159,1,61.7499983510971,14|0,0:0|0:0,0:0:0:0:
215,226,90161,5,14,0:0:0:0:
354,264,90485,1,14,0:0:0:0:
493,302,90809,1,14,0:0:0:0:
456,163,91134,5,14,0:0:0:0:
456,163,91296,1,10,0:0:0:0:
