osu file format v14

[General]
AudioFilename: audio.mp3
AudioLeadIn: 0
PreviewTime: 54323
Countdown: 0
SampleSet: Soft
StackLeniency: 0.7
Mode: 0
LetterboxInBreaks: 0
WidescreenStoryboard: 1

[Editor]
DistanceSpacing: 1.1
BeatDivisor: 4
GridSize: 16
TimelineZoom: 2

[Metadata]
Title:Siren Blue
TitleUnicode:サイレンブルー
Artist:Kamikawa Eiji (CV: Ono Yuki) & Kokubo Touya (CV: Yashiro Taku)
ArtistUnicode:上川詠司 (CV: ⼩野友樹) & ⼩久保冬也 (CV: ⼋代拓)
Creator:KennethBBG
Version:My Angel Jeremy's Insane
Source:君と僕と世界のほとり Phrase1 ふたりぼっちクリスマス
Tags:My angel jeremy WM W_M iredi bl short story you and me at the end of world kimi to boku sekai no hotori japan japanese rock pop j-pop j-rock boys love Futari bocchi kurisumasu lonely christmas for two cd drama
BeatmapID:3798962
BeatmapSetID:1845770

[Difficulty]
HPDrainRate:5
CircleSize:3.8
OverallDifficulty:8
ApproachRate:9
SliderMultiplier:1.5
SliderTickRate:1

[Events]
//Background and Video events
0,0,"BG.jpg",0,0
//Break Periods
2,16577,24858
//Storyboard Layer 0 (Background)
//Storyboard Layer 1 (Fail)
//Storyboard Layer 2 (Pass)
//Storyboard Layer 3 (Foreground)
//Storyboard Layer 4 (Overlay)
//Storyboard Sound Samples

[TimingPoints]
-4379,324.324324324324,4,2,1,35,1,0
4701,-100,4,2,1,40,0,0
5026,-100,4,2,1,50,0,0
5350,-100,4,2,1,70,0,0
5999,-100,4,2,1,65,0,0
16377,-100,4,2,1,25,0,0
25458,-100,4,2,1,45,0,0
26756,-125,4,2,1,55,0,0
31783,-166.666666666667,4,2,1,55,0,0
35675,-125,4,2,1,55,0,0
37134,-125,4,2,1,65,0,0
39080,-125,4,2,1,45,0,0
39728,-125,4,2,1,65,0,0
41674,-125,4,2,1,45,0,0
42323,-125,4,2,1,65,0,0
44269,-125,4,2,1,45,0,0
44918,-100,4,2,1,65,0,0
47350,-125,4,2,1,50,0,0
49945,-125,4,2,1,55,0,0
52864,-125,4,2,1,65,0,0
55134,-83.3333333333333,4,2,1,80,0,0
55377,-83.3333333333333,4,2,1,5,0,0
55458,-83.3333333333333,4,2,1,80,0,0
56674,-83.3333333333333,4,2,1,5,0,0
56756,-83.3333333333333,4,2,1,80,0,0
63161,-83.3333333333333,4,2,1,5,0,0
63242,-83.3333333333333,4,2,1,80,0,0
63972,-83.3333333333333,4,2,1,5,0,0
64053,-83.3333333333333,4,2,1,80,0,0
65512,-100,4,2,1,80,0,0
67863,-100,4,2,1,5,0,0
67945,-100,4,2,1,80,0,0
81242,-100,4,2,1,65,0,0

[Colours]
Combo1 : 255,128,128
Combo2 : 140,184,236
Combo3 : 84,137,218
Combo4 : 236,232,149

[HitObjects]
52,53,810,5,12,0:0:0:0:
60,65,1134,1,0,3:0:0:0:
68,77,1458,1,0,3:0:0:0:
74,90,1783,1,0,3:0:0:0:
120,158,2107,5,0,3:0:0:0:
126,171,2431,1,0,3:0:0:0:
131,184,2756,1,0,3:0:0:0:
136,197,3080,1,0,3:0:0:0:
224,175,3242,1,12,0:0:0:0:
288,242,3404,5,12,0:0:0:0:
284,256,3729,1,0,3:0:0:0:
280,270,4053,1,0,3:0:0:0:
276,284,4377,1,0,3:0:0:0:
427,311,4702,5,8,0:0:0:0:
427,311,4783,1,8,0:0:0:0:
427,311,4864,1,0,3:0:0:0:
427,311,4945,1,0,3:0:0:0:
427,311,5026,2,0,L|391:318,1,37.5,8|8,0:0|0:0,0:0:0:0:
290,377,5188,2,0,L|326:384,1,37.5,0|0,3:0|3:0,0:0:0:0:
194,361,5350,5,10,0:0:0:0:
78,203,5593,5,10,0:0:0:0:
261,228,5837,5,10,0:0:0:0:
117,283,5999,5,6,3:2:0:0:
166,186,6161,1,2,3:2:0:0:
166,186,6323,1,8,0:0:0:0:
124,106,6485,2,0,P|170:147|268:119,1,150,2|2,0:0|3:2,0:0:0:0:
326,80,6972,1,8,0:0:0:0:
457,133,7134,6,0,B|476:216|401:190|425:301,1,150,6|2,3:2|3:2,0:0:0:0:
343,194,7620,1,8,0:0:0:0:
433,303,7783,2,0,B|368:311|368:311|349:338|349:338|280:345,1,150,2|2,3:2|3:2,0:0:0:0:
195,310,8269,1,10,0:0:0:0:
135,361,8431,1,4,3:2:0:0:
52,309,8593,6,0,L|67:227,1,75,2|2,0:0|3:2,0:0:0:0:
102,131,8918,1,8,0:0:0:0:
184,216,9080,1,2,3:2:0:0:
184,216,9161,1,8,0:0:0:0:
184,216,9242,2,0,P|237:209|252:183,1,75,0|2,3:0|3:2,0:0:0:0:
102,131,9566,1,8,0:0:0:0:
247,194,9729,6,0,B|333:202|333:202|346:239|384:251,1,150,6|2,3:2|3:2,0:0:0:0:
494,121,10215,1,8,0:0:0:0:
419,176,10377,1,2,0:0:0:0:
419,176,10539,1,0,3:0:0:0:
483,227,10702,1,2,3:2:0:0:
475,315,10864,1,10,0:0:0:0:
379,363,11026,1,4,3:2:0:0:
251,311,11188,6,0,L|157:330,1,75,2|2,0:0|3:2,0:0:0:0:
342,282,11512,1,8,0:0:0:0:
212,211,11675,2,0,B|196:123|263:164|251:61,1,150,2|2,3:2|3:2,0:0:0:0:
171,29,12161,1,8,0:0:0:0:
347,110,12323,6,0,B|454:92|454:92|406:75,1,150,6|2,3:2|3:2,0:0:0:0:
326,24,12810,1,8,0:0:0:0:
452,126,12972,1,2,3:2:0:0:
452,126,13053,1,8,0:0:0:0:
452,126,13134,2,0,P|436:176|428:213,1,75,0|2,3:0|3:2,0:0:0:0:
356,278,13458,2,0,P|372:328|380:365,1,75,10|0,0:0|0:0,0:0:0:0:
249,170,13783,6,0,L|350:182,1,75,10|2,0:0|3:2,0:0:0:0:
205,253,14107,1,8,0:0:0:0:
144,134,14269,1,2,3:2:0:0:
144,134,14350,1,0,3:0:0:0:
144,134,14431,2,0,L|63:149,1,75,8|2,0:0|3:2,0:0:0:0:
206,68,14756,1,8,0:0:0:0:
275,259,14918,5,10,0:0:0:0:
59,142,15242,1,10,0:0:0:0:
311,22,15566,1,10,0:0:0:0:
196,165,15891,1,10,0:0:0:0:
196,165,15972,1,8,0:0:0:0:
196,165,16053,1,10,0:0:0:0:
301,195,16377,5,2,0:0:0:0:
221,160,25458,5,8,3:2:0:0:
205,179,25539,1,8,0:0:0:0:
192,202,25620,1,8,0:0:0:0:
186,227,25702,1,8,0:0:0:0:
187,249,25783,2,0,L|201:312,1,37.5,8|8,3:2|0:0,0:0:0:0:
95,384,25945,2,0,L|103:347,1,37.5,8|8,0:0|0:0,0:0:0:0:
44,243,26107,5,8,0:0:0:0:
202,365,26269,1,8,0:0:0:0:
202,365,26756,6,0,B|268:367|246:312|312:314,1,120,6|10,3:2|0:0,0:0:0:0:
435,264,27242,2,0,B|369:266|391:211|325:213,1,120,2|0,3:2|3:0,0:0:0:0:
265,146,27729,1,10,0:0:0:0:
265,146,27891,1,2,0:0:0:0:
362,74,28053,6,0,P|349:112|341:142,1,60,2|0,3:2|0:0,0:0:0:0:
257,223,28377,1,10,0:0:0:0:
190,110,28539,2,0,P|129:146|67:125,1,120,2|0,3:2|3:0,0:0:0:0:
23,54,29026,1,10,0:0:0:0:
94,25,29188,1,2,3:2:0:0:
83,136,29350,6,0,P|98:185|104:215,1,60,2|0,3:2|0:0,0:0:0:0:
0,129,29675,1,10,0:0:0:0:
0,258,29837,2,0,P|61:222|123:243,1,120,2|0,3:2|3:0,0:0:0:0:
161,301,30323,1,10,0:0:0:0:
161,301,30485,1,0,3:0:0:0:
85,371,30648,6,0,P|78:334|67:298,1,60,14|0,0:0|3:0,0:0:0:0:
156,180,30972,1,2,3:2:0:0:
252,329,31134,2,0,P|259:292|270:256,1,60,10|0,0:0|3:0,0:0:0:0:
156,180,31458,1,14,0:0:0:0:
280,137,31620,1,8,0:0:0:0:
280,137,31702,1,8,0:0:0:0:
280,137,31783,6,0,B|335:133|335:133|353:149|353:149|409:144,1,134.999995880127,14|0,0:0|0:0,0:0:0:0:
458,69,32431,1,2,3:2:0:0:
385,193,32593,2,0,B|380:237|414:225|410:279,1,89.9999972534181,10|2,0:0|0:0,0:0:0:0:
462,335,33080,1,2,3:2:0:0:
361,384,33242,6,0,P|318:352|273:362,1,89.9999972534181,2|2,3:2|0:0,0:0:0:0:
193,383,33729,1,0,3:0:0:0:
286,250,33891,2,0,P|236:271|222:315,1,89.9999972534181,10|2,0:0|3:2,0:0:0:0:
193,383,34377,1,0,3:0:0:0:
180,195,34539,6,0,B|101:205|101:205|93:243|63:254,1,134.999995880127,6|2,3:2|3:2,0:0:0:0:
59,261,35107,1,2,0:0:0:0:
50,269,35188,2,0,L|74:359,1,89.9999972534181,14|0,0:0|0:0,0:0:0:0:
18,187,35675,6,0,P|28:150|32:118,1,60,8|0,0:0|0:0,0:0:0:0:
114,87,35999,2,0,P|104:50|100:18,1,60,12|0,0:0|0:0,0:0:0:0:
34,0,36323,1,0,3:0:0:0:
204,51,36485,5,8,0:0:0:0:
215,47,36566,1,0,3:0:0:0:
226,42,36648,1,2,3:2:0:0:
237,38,36729,1,0,3:0:0:0:
247,35,36810,2,0,L|328:49,1,60,10|2,0:0|3:2,0:0:0:0:
318,53,37053,1,0,3:0:0:0:
327,64,37134,6,0,B|332:128|275:106|287:194,1,120,6|2,3:2|3:2,0:0:0:0:
349,256,37620,2,0,P|413:253|449:193,1,120,2|2,0:0|0:0,0:0:0:0:
373,172,38107,1,2,3:2:0:0:
270,260,38269,6,0,L|241:376,2,120
270,260,39080,1,0,3:0:0:0:
215,190,39404,1,2,3:2:0:0:
215,190,39566,1,2,3:2:0:0:
175,296,39729,6,0,B|116:291|141:359|52:340,1,120,2|2,3:2|3:2,0:0:0:0:
5,274,40215,2,0,P|15:211|28:150,1,120,2|2,0:0|0:0,0:0:0:0:
0,73,40702,1,2,3:2:0:0:
109,152,40864,6,0,L|239:127,2,120
103,148,41675,1,0,3:0:0:0:
122,64,41837,1,2,3:2:0:0:
197,26,41999,1,10,0:0:0:0:
285,73,42161,1,2,3:2:0:0:
280,195,42323,6,0,P|337:197|378:246,1,120,6|2,3:2|3:2,0:0:0:0:
444,171,42810,2,0,L|459:105,1,60,2|0,0:0|3:0,0:0:0:0:
408,42,43134,1,2,0:0:0:0:
477,4,43296,1,2,3:2:0:0:
333,137,43458,6,0,L|318:9,2,120
333,137,44269,1,0,3:0:0:0:
241,61,44593,5,2,3:2:0:0:
150,190,44756,1,2,3:2:0:0:
150,190,44837,1,0,3:2:0:0:
150,190,44918,2,0,L|90:202,3,37.5,10|8|8|8,3:2|0:0|0:0|0:0,0:0:0:0:
0,114,45242,1,8,3:2:0:0:
0,114,45323,1,8,0:0:0:0:
0,114,45404,2,0,L|64:125,1,37.5,10|8,0:0|0:0,0:0:0:0:
7,246,45566,5,10,3:2:0:0:
7,246,45648,1,8,0:0:0:0:
7,246,45729,2,0,L|17:296,1,37.5,8|8,0:0|0:0,0:0:0:0:
130,335,45891,1,8,3:2:0:0:
130,335,45972,1,8,0:0:0:0:
130,335,46053,2,0,L|120:385,1,37.5,8|8,0:0|0:0,0:0:0:0:
248,249,46215,5,0,3:0:0:0:
113,197,46377,1,8,0:0:0:0:
227,338,46539,1,8,0:0:0:0:
227,338,46702,1,0,3:0:0:0:
305,170,46864,5,10,0:0:0:0:
192,133,47026,1,10,0:0:0:0:
192,133,47350,6,0,P|251:148|317:177,1,120,6|2,3:2|3:2,0:0:0:0:
392,221,47837,2,0,P|421:213|454:199,1,60,2|2,0:0|0:0,0:0:0:0:
349,60,48161,2,0,P|318:123|304:181,1,120,10|2,0:0|0:0,0:0:0:0:
391,221,48648,6,0,P|422:284|436:342,1,120,2|2,3:2|3:2,0:0:0:0:
364,384,49134,1,2,0:0:0:0:
364,384,49296,1,0,3:0:0:0:
260,271,49458,2,0,B|190:263|212:322|143:314,1,120,10|2,0:0|0:0,0:0:0:0:
282,368,49945,6,0,P|295:308|317:227,1,120,6|2,3:2|3:2,0:0:0:0:
345,167,50431,1,2,0:0:0:0:
345,167,50593,1,2,3:2:0:0:
261,100,50756,2,0,P|222:107|202:144,1,60,10|2,0:0|0:0,0:0:0:0:
345,167,51080,1,2,0:0:0:0:
125,179,51242,6,0,P|112:119|90:38,1,120,6|0,3:2|3:0,0:0:0:0:
14,6,51729,2,0,P|4:46|-6:86,1,60,0|2,0:0|3:2,0:0:0:0:
164,17,52053,5,10,0:0:0:0:
20,147,52215,1,2,0:0:0:0:
20,147,52296,1,0,3:0:0:0:
20,147,52377,1,2,3:2:0:0:
144,159,52539,1,2,3:2:0:0:
104,65,52702,5,4,3:2:0:0:
57,224,52864,1,8,0:0:0:0:
226,137,53188,5,0,3:0:0:0:
246,289,53350,1,12,0:0:0:0:
246,289,53675,5,0,0:0:0:0:
346,135,53837,1,8,0:0:0:0:
346,135,54161,5,8,0:0:0:0:
134,79,54323,1,8,0:0:0:0:
225,202,54648,5,2,0:0:0:0:
221,210,54810,1,2,0:0:0:0:
217,219,54972,1,2,0:0:0:0:
259,313,55134,6,0,B|325:306|304:372|407:358,1,134.999995880127,6|0,3:2|0:0,0:0:0:0:
409,352,55458,1,2,3:2:0:0:
467,220,55620,1,10,0:0:0:0:
379,265,55783,1,2,3:2:0:0:
483,382,55945,2,0,L|501:281,1,89.9999972534181,2|0,3:2|3:0,0:0:0:0:
380,359,56269,1,10,0:0:0:0:
312,213,56431,6,0,B|223:226|223:226|214:259|183:274,1,134.999995880127,2|0,3:2|0:0,0:0:0:0:
140,204,56756,1,2,3:2:0:0:
272,308,56918,1,10,0:0:0:0:
312,213,57080,1,2,3:2:0:0:
192,375,57242,2,0,L|174:275,1,89.9999972534181,2|0,3:2|3:0,0:0:0:0:
88,268,57566,1,10,0:0:0:0:
253,156,57729,6,0,B|276:133|288:100|288:100|300:150|313:222,1,179.999994506836,6|2,3:2|3:2,0:0:0:0:
364,79,58215,1,10,0:0:0:0:
364,79,58377,1,2,3:2:0:0:
403,175,58539,1,2,3:2:0:0:
260,73,58702,1,2,3:2:0:0:
364,79,58864,1,8,0:0:0:0:
212,180,59026,6,0,B|83:153|83:153|128:214,1,179.999994506836,6|0,3:2|3:0,0:0:0:0:
266,330,59512,2,0,B|251:224|327:255|301:151,1,179.999994506836,8|0,0:0|3:0,0:0:0:0:
301,74,59999,1,2,3:2:0:0:
459,110,60161,1,8,0:0:0:0:
459,110,60242,1,8,0:0:0:0:
459,110,60323,6,0,P|375:57|285:88,1,179.999994506836,6|2,3:2|3:2,0:0:0:0:
144,123,60810,1,8,0:0:0:0:
144,123,60972,1,2,0:0:0:0:
199,13,61134,2,0,P|214:61|224:101,1,89.9999972534181,2|0,3:2|0:0,0:0:0:0:
106,36,61458,1,8,0:0:0:0:
25,179,61620,6,0,B|95:198|95:198|108:236|108:236|195:261,1,179.999994506836,2|2,3:2|3:2,0:0:0:0:
305,206,62107,1,10,0:0:0:0:
202,178,62269,1,2,3:2:0:0:
163,303,62431,1,2,3:2:0:0:
316,352,62593,2,0,P|269:312|267:252,1,89.9999972534181,2|8,0:0|0:0,0:0:0:0:
291,147,62918,6,0,P|381:176|450:177,1,134.999995880127,6|0,3:2|0:0,0:0:0:0:
439,175,63242,1,8,0:0:0:0:
374,89,63404,1,8,0:0:0:0:
374,89,63566,1,0,3:0:0:0:
337,263,63729,6,0,P|247:234|178:233,1,134.999995880127,8|0,0:0|0:0,0:0:0:0:
189,228,64053,1,8,0:0:0:0:
106,266,64215,1,0,3:0:0:0:
54,114,64377,6,0,P|41:168|37:214,1,89.9999972534181,8|0,0:0|0:0,0:0:0:0:
211,294,64702,2,0,P|224:348|228:394,1,89.9999972534181,8|2,0:0|0:0,0:0:0:0:
135,214,65026,5,14,0:0:0:0:
216,174,65188,1,2,3:2:0:0:
138,130,65350,1,2,0:0:0:0:
296,217,65512,6,0,B|382:204|347:274|448:259,1,150,6|2,3:2|3:2,0:0:0:0:
476,188,65999,1,2,0:0:0:0:
373,191,66161,1,0,3:0:0:0:
322,312,66323,2,0,B|236:299|271:369|170:354,1,150,10|2,0:0|0:0,0:0:0:0:
51,283,66810,6,0,P|73:216|88:129,1,150,2|2,3:2|3:2,0:0:0:0:
55,26,67296,1,2,0:0:0:0:
0,95,67458,1,2,3:2:0:0:
146,43,67620,2,0,P|195:80|261:53,1,112.5,10|0,0:0|0:0,0:0:0:0:
262,57,67945,1,2,0:0:0:0:
355,239,68107,6,0,B|468:264|468:264|429:280,1,150,6|2,3:2|3:2,0:0:0:0:
300,341,68593,1,2,0:0:0:0:
399,360,68756,1,0,3:0:0:0:
269,257,68918,1,10,0:0:0:0:
357,119,69080,1,2,0:0:0:0:
357,119,69404,6,0,B|291:135|291:135|274:159|274:159|203:177,1,150,2|0,3:2|3:0,0:0:0:0:
71,136,69891,1,0,0:0:0:0:
142,85,70053,1,0,3:0:0:0:
97,223,70215,1,8,0:0:0:0:
173,287,70377,1,0,0:0:0:0:
173,287,70458,1,0,3:0:0:0:
173,287,70539,2,0,L|153:386,1,75,2|0,3:2|3:0,0:0:0:0:
279,354,70864,6,0,P|333:340|347:297,1,75,6|0,3:2|0:0,0:0:0:0:
417,365,71188,2,0,P|431:311|401:277,1,75,8|2,0:0|3:2,0:0:0:0:
352,167,71512,5,0,3:0:0:0:
310,240,71675,1,8,0:0:0:0:
487,229,71837,2,0,P|465:204|405:199,1,75,2|8,0:0|0:0,0:0:0:0:
267,146,72161,5,2,3:2:0:0:
267,146,72242,1,0,3:2:0:0:
267,146,72323,1,0,3:0:0:0:
425,193,72485,1,8,0:0:0:0:
425,193,72648,1,0,3:0:0:0:
250,309,72810,6,0,L|262:220,1,75,2|8,3:2|0:0,0:0:0:0:
341,89,73134,2,0,L|353:178,1,75,2|8,0:0|0:0,0:0:0:0:
222,45,73458,5,2,3:2:0:0:
222,45,73783,1,8,0:0:0:0:
129,144,73945,1,0,3:0:0:0:
129,144,74026,1,0,3:0:0:0:
129,144,74107,1,0,3:0:0:0:
202,209,74269,2,0,P|226:173|223:125,1,75,8|0,0:0|0:0,0:0:0:0:
124,243,74593,1,10,0:0:0:0:
246,289,74756,6,0,L|331:263,1,75,2|0,3:2|3:0,0:0:0:0:
172,355,75080,2,0,L|82:341,1,75,8|0,0:0|3:0,0:0:0:0:
98,344,75323,1,0,3:0:0:0:
98,344,75404,1,8,0:0:0:0:
29,214,75566,1,8,0:0:0:0:
110,250,75729,1,2,0:0:0:0:
110,250,76053,6,0,P|172:308|258:290,1,150,14|8,0:0|0:0,0:0:0:0:
312,246,76539,1,2,3:2:0:0:
405,381,76702,6,0,P|389:342|382:297,1,75,8|0,0:0|3:0,0:0:0:0:
287,156,77026,1,10,0:0:0:0:
362,108,77188,1,0,3:0:0:0:
312,246,77350,6,0,B|231:232|254:310|154:297,1,150,10|8,0:0|0:0,0:0:0:0:
99,230,77837,1,0,3:0:0:0:
236,178,77999,5,10,0:0:0:0:
309,333,78161,1,0,3:0:0:0:
309,333,78242,1,2,3:2:0:0:
309,333,78323,1,8,0:0:0:0:
423,152,78485,5,2,3:2:0:0:
423,152,78566,1,0,3:0:0:0:
423,152,78648,2,0,B|312:137|312:137|357:183,1,150,14|8,0:0|0:0,0:0:0:0:
421,235,79134,1,2,3:2:0:0:
301,50,79296,5,10,0:0:0:0:
193,93,79458,1,0,3:0:0:0:
157,215,79620,5,8,0:0:0:0:
65,161,79783,1,0,3:0:0:0:
239,169,79945,5,8,0:0:0:0:
134,303,80107,1,0,3:0:0:0:
134,303,80188,1,0,3:0:0:0:
134,303,80269,2,0,L|70:295,3,37.5,8|8|8|8,0:0|0:0|0:0|0:0,0:0:0:0:
279,326,80593,5,8,0:0:0:0:
239,169,80756,1,8,0:0:0:0:
67,241,81242,5,6,3:2:0:0:
145,159,81404,1,2,3:2:0:0:
145,159,81566,1,8,0:0:0:0:
81,76,81728,2,0,P|127:117|225:89,1,150,2|2,0:0|3:2,0:0:0:0:
267,31,82215,1,8,0:0:0:0:
340,196,82377,6,0,B|320:113|397:134|376:56,1,150,6|6,3:2|3:2,0:0:0:0:
267,31,82863,1,8,0:0:0:0:
221,147,83026,2,0,B|156:155|156:155|137:182|137:182|68:189,1,150,2|2,0:0|3:2,0:0:0:0:
5,113,83512,1,10,0:0:0:0:
98,79,83674,1,4,3:2:0:0:
134,208,83836,6,0,L|120:281,1,75,2|2,0:0|3:2,0:0:0:0:
75,359,84161,1,8,0:0:0:0:
224,281,84323,1,2,3:2:0:0:
224,281,84404,1,8,0:0:0:0:
224,281,84485,2,0,P|277:288|292:314,1,75,0|2,3:0|3:2,0:0:0:0:
199,157,84809,1,8,0:0:0:0:
231,361,84972,6,0,B|318:349|318:349|330:307|365:292,1,150,6|2,3:2|3:2,0:0:0:0:
460,262,85458,1,8,0:0:0:0:
403,370,85620,1,2,0:0:0:0:
403,370,85782,1,0,3:0:0:0:
314,316,85945,1,2,3:2:0:0:
266,240,86107,1,10,0:0:0:0:
321,160,86269,1,4,3:2:0:0:
463,167,86431,6,0,L|482:73,1,75,2|2,0:0|3:2,0:0:0:0:
390,206,86755,1,8,0:0:0:0:
335,84,86918,2,0,B|246:74|280:136|185:123,1,150,2|2,3:2|3:2,0:0:0:0:
107,90,87404,1,8,0:0:0:0:
167,271,87566,6,0,P|178:207|198:112,1,150,6|2,3:2|3:2,0:0:0:0:
270,42,88053,1,8,0:0:0:0:
377,129,88215,1,2,3:2:0:0:
377,129,88296,1,8,0:0:0:0:
377,129,88377,2,0,P|393:179|401:216,1,75,0|2,3:0|3:2,0:0:0:0:
314,253,88701,2,0,P|298:303|290:340,1,75,10|0,0:0|3:0,0:0:0:0:
383,322,89026,5,14,0:0:0:0:
219,265,89188,1,14,0:0:0:0:
445,191,89512,5,14,0:0:0:0:
173,94,89837,1,14,0:0:0:0:
294,324,90161,5,14,0:0:0:0:
330,74,90485,1,14,0:0:0:0:
79,202,90810,1,14,0:0:0:0:
67,210,91134,5,14,0:0:0:0:
222,249,91296,1,10,0:0:0:0:
