osu file format v14

[General]
AudioFilename: audio.mp3
AudioLeadIn: 0
PreviewTime:63056
Countdown: 0
SampleSet: Soft
StackLeniency: 0.4
Mode: 0
LetterboxInBreaks: 0
WidescreenStoryboard: 1

[Editor]
Bookmarks: 88435
DistanceSpacing: 0.2
BeatDivisor: 4
GridSize: 4
TimelineZoom: 3.499999

[Metadata]
Title:Namae no Nai Ao (TV Size)
TitleUnicode:名前のない青 (TV Size)
Artist:Kami-sama, I have noticed
ArtistUnicode:神様、僕は気づいてしまった
Creator:Ryuusei Aika
Version:kanor's Insane
Source:映像研には手を出すな!
Tags:Agatsu Kowari kanor Derandom Otaku DeRandom_Otaku Ren SMOKELIND Reform Kujinn Japanese anime ending theme ed rock j-rock jrock male vocal motion pictures club アニメ エンディング エンディングテーマ Keep Your Hands Off Eizouken! Eizouken ni wa ha te wo dasu na! na 神僕 Kamiboku Kami-sama kami sama boku kizuite shimatta 神啊、我已經察覺到了 どこのだれか 東野へいと 和泉りゅーしん 蓮
BeatmapID:2288379
BeatmapSetID:1094943

[Difficulty]
HPDrainRate:6
CircleSize:4
OverallDifficulty:8
ApproachRate:9
SliderMultiplier:1.67
SliderTickRate:1

[Events]
//Background and Video events
0,0,"BG.jpg",0,0
Video,72,"video.mp4"
//Break Periods
2,11202,19796
2,40292,44340
//Storyboard Layer 0 (Background)
//Storyboard Layer 1 (Fail)
//Storyboard Layer 2 (Pass)
//Storyboard Layer 3 (Foreground)
//Storyboard Layer 4 (Overlay)
//Storyboard Sound Samples

[TimingPoints]
93,303.030303030303,4,2,1,25,1,0
93,-100,4,2,1,25,0,0
396,-100,4,2,1,30,0,0
547,-100,4,2,1,35,0,0
699,-100,4,2,1,40,0,0
850,-100,4,2,1,45,0,0
1002,-100,4,2,1,50,0,0
1153,-100,4,2,1,55,0,0
1305,-100,4,2,1,60,0,0
2138,-100,4,2,1,5,0,0
2214,-100,4,2,1,60,0,0
3653,-100,4,2,1,5,0,0
3729,-100,4,2,1,60,0,0
4562,-100,4,2,1,5,0,0
4638,-100,4,2,1,60,0,0
5699,-100,4,2,0,60,0,0
6153,-100,4,2,1,60,0,0
11002,-100,4,2,1,40,0,0
20396,-133.333333333333,4,2,1,40,0,0
20623,-133.333333333333,4,2,1,5,0,0
20699,-100,4,2,1,50,0,0
27896,-100,4,2,1,5,0,0
27971,-100,4,2,1,50,0,0
29108,-100,4,2,1,5,0,0
29183,-100,4,2,1,50,0,0
29941,-100,4,2,0,50,0,0
30396,-133.333333333333,4,2,1,50,0,0
31229,-133.333333333333,4,2,1,5,0,0
31305,-133.333333333333,4,2,1,50,0,0
33653,-133.333333333333,4,2,1,5,0,0
33729,-133.333333333333,4,2,1,50,0,0
36077,-133.333333333333,4,2,1,5,0,0
36153,-133.333333333333,4,2,1,50,0,0
38476,-133.333333333333,4,2,1,5,0,0
38578,-133.333333333333,4,2,1,50,0,0
39183,272.727272727273,4,2,1,50,1,0
39183,-133.333333333333,4,2,1,50,0,0
39455,318.725099601594,4,2,0,70,1,0
39455,-133.333333333333,4,2,0,70,0,0
39773,266.666666666667,4,2,0,70,1,0
39773,-133.333333333333,4,2,0,70,0,0
40092,303.030303030303,4,2,1,30,1,0
44940,-100,4,2,1,60,0,0
46153,312.5,4,2,1,60,1,0
46153,-100,4,2,1,60,0,0
47091,285.714285714286,4,2,1,60,1,0
47091,-100,4,2,1,60,0,0
47376,279.06976744186,4,2,1,60,1,0
47376,-100,4,2,1,60,0,0
47934,304.568527918782,4,2,1,60,1,0
47934,-100,4,2,1,60,0,0
48390,394.736842105263,4,2,1,60,1,0
48390,-100,4,2,1,60,0,0
48587,303.030303030303,4,2,1,50,1,0
48587,-200,4,2,1,50,0,0
49041,-200,4,1,1,50,0,0
49496,-200,4,2,1,50,0,0
49647,-200,4,2,1,50,0,0
49799,-100,4,2,1,55,0,0
52147,-100,4,2,1,5,0,0
52223,-100,4,2,1,55,0,0
54571,-100,4,2,1,5,0,0
54647,-100,4,2,1,55,0,0
56996,-100,4,2,1,5,0,0
57072,-100,4,2,1,55,0,0
58814,-100,4,2,0,55,0,0
58890,-100,4,2,1,55,0,0
59041,-100,4,2,0,55,0,0
59193,-100,4,2,1,55,0,0
59420,-100,4,2,1,5,0,0
59496,-100,4,2,1,55,0,0
61314,-100,4,2,1,60,0,0
61844,-100,4,2,1,5,0,0
61920,-100,4,2,1,60,0,0
63132,-200,4,2,1,60,0,0
63587,-200,4,1,1,60,0,0
64041,-200,4,2,1,60,0,0
64344,-100,4,2,1,70,0,0
65480,-100,4,2,1,5,0,0
65556,-100,4,2,1,70,0,0
66693,-100,4,2,1,5,0,0
66769,-100,4,2,1,70,0,0
67905,-100,4,2,1,5,0,0
67981,-100,4,2,1,70,0,0
69117,-100,4,2,1,5,0,0
69193,-100,4,2,1,70,0,0
70329,-100,4,2,1,5,0,0
70405,-100,4,2,1,70,0,0
73511,-100,4,2,1,5,0,0
73587,-100,4,2,1,70,0,0
74268,-100,4,2,1,5,0,0
74344,-100,4,2,1,70,0,0
75177,-100,4,2,1,5,0,0
75253,-100,4,2,1,70,0,0
76390,-100,4,2,1,5,0,0
76466,-100,4,2,1,70,0,0
78283,-200,4,2,1,70,0,0
78435,-200,4,2,0,50,0,0
78738,-100,4,2,1,60,0,0
79723,-100,4,2,1,5,0,0
79799,-100,4,2,1,60,0,0
81238,-100,4,2,1,5,0,0
81314,-100,4,2,1,60,0,0
82147,-100,4,2,1,5,0,0
82223,-100,4,2,1,60,0,0
86087,-100,4,2,1,5,0,0
86163,-100,4,2,1,60,0,0
87071,-100,4,2,1,70,0,0
87980,-100,4,2,1,80,0,0

[Colours]
Combo1 : 128,128,255
Combo2 : 0,128,255

[HitObjects]
48,220,1305,5,6,3:1:0:0:
68,360,1456,1,0,0:0:0:0:
16,296,1608,1,0,3:0:0:0:
100,288,1759,1,0,0:0:0:0:
256,348,1911,2,0,P|312:364|364:324,1,125.25,0|0,3:0|0:0,0:0:0:0:
384,336,2214,6,0,L|372:240,1,83.5,2|0,3:1|0:0,0:0:0:0:
312,200,2517,1,0,3:0:0:0:
456,272,2668,2,0,L|444:176,1,83.5,0|0,0:0|3:0,0:0:0:0:
373,253,2971,1,0,0:0:0:0:
492,132,3123,6,0,P|452:116|400:124,1,83.5,0|0,3:0|0:0,0:0:0:0:
152,16,3426,2,0,B|216:32|216:32|292:8,1,125.25,0|0,3:0|0:0,0:0:0:0:
300,8,3729,5,6,3:1:0:0:
348,168,3880,1,0,0:0:0:0:
412,119,4032,1,0,3:0:0:0:
328,88,4183,1,0,0:0:0:0:
208,172,4335,2,0,P|184:228|240:300,1,125.25,0|0,3:0|0:0,0:0:0:0:
220,296,4638,6,0,B|260:288|260:288|336:312,2,83.5,2|0|0,3:1|0:0|3:0,0:0:0:0:
72,368,5093,1,0,0:0:0:0:
12,320,5244,1,0,3:0:0:0:
64,260,5396,1,2,0:0:0:0:
0,172,5547,5,2,3:1:0:0:
132,136,5699,1,8,0:3:0:0:
60,76,5850,2,0,L|56:132,3,41.75,8|8|4|4,0:3|0:3|0:3|0:3,0:0:0:0:
24,32,6153,6,0,L|132:28,1,83.5,6|0,3:1|0:0,0:0:0:0:
340,76,6456,2,0,L|232:72,1,83.5,0|0,3:0|0:0,0:0:0:0:
184,44,6759,1,0,3:0:0:0:
188,28,7062,2,0,L|176:148,1,83.5,0|0,3:0|0:0,0:0:0:0:
208,256,7365,5,0,3:0:0:0:
224,180,7517,1,0,0:0:0:0:
204,332,7668,1,0,3:0:0:0:
188,256,7820,1,0,0:0:0:0:
68,212,7971,2,0,P|92:192|152:188,1,83.5,0|0,3:0|0:0,0:0:0:0:
380,232,8274,2,0,P|356:212|296:208,1,83.5,0|0,3:0|0:0,0:0:0:0:
316,280,8502,1,0,0:0:0:0:
320,284,8577,6,0,P|328:320|332:404,1,83.5,4|0,3:2|0:0,0:0:0:0:
504,360,8880,1,2,3:1:0:0:
456,272,9032,1,2,0:1:0:0:
496,180,9183,1,0,3:0:0:0:
512,172,9486,6,0,P|476:164|392:160,1,83.5,0|0,3:0|0:0,0:0:0:0:
248,44,9789,1,2,3:1:0:0:
340,4,9941,1,2,0:1:0:0:
420,72,10093,1,4,3:2:0:0:
328,104,10244,1,0,0:0:0:0:
140,72,10396,6,0,P|158:110|156:176,1,83.5,6|2,3:1|0:1,0:0:0:0:
20,192,10699,2,0,P|0:108|24:32,1,167,6|2,3:1|0:0,0:0:0:0:
504,200,20396,6,2,B|452:189|452:189|412:201,1,93.9375035834314
392,216,20699,6,0,L|408:304,1,83.5,4|0,3:2|3:0,0:0:0:0:
492,304,21002,1,8,0:0:0:0:
392,312,21305,2,0,L|377:229,1,83.5,8|8,0:1|0:1,0:0:0:0:
492,304,21608,1,8,0:0:0:0:
364,240,21911,6,0,L|380:328,1,83.5,8|8,0:1|0:1,0:0:0:0:
492,304,22214,1,8,0:0:0:0:
368,332,22517,2,0,L|353:249,1,83.5,8|8,0:1|0:1,0:0:0:0:
276,216,22820,1,8,0:0:0:0:
216,268,22971,1,0,0:0:0:0:
76,216,23123,6,0,P|40:196|-16:208,1,83.5,0|0,3:0|3:0,0:0:0:0:
24,268,23426,1,8,0:0:0:0:
3,187,23729,2,0,P|44:183|79:203,1,83.5,8|8,0:1|0:1,0:0:0:0:
24,268,24032,1,8,0:0:0:0:
84,188,24335,6,0,P|48:168|-8:180,1,83.5,8|8,0:1|0:1,0:0:0:0:
24,268,24638,1,8,0:0:0:0:
12,159,24941,2,0,P|53:155|88:175,1,83.5,8|0,0:1|3:0,0:0:0:0:
168,200,25244,1,8,0:0:0:0:
220,144,25396,1,0,0:0:0:0:
260,32,25547,5,0,3:0:0:0:
336,64,25699,1,0,3:0:0:0:
408,20,25850,1,8,0:0:0:0:
408,32,26153,1,8,0:1:0:0:
336,76,26305,1,8,0:1:0:0:
260,44,26456,1,8,0:0:0:0:
260,60,26759,5,8,0:1:0:0:
336,92,26911,1,8,0:1:0:0:
408,48,27062,1,8,0:0:0:0:
412,64,27365,1,8,0:1:0:0:
336,108,27517,1,8,0:1:0:0:
260,76,27668,2,0,P|244:108|248:208,1,125.25,8|0,0:0|0:0,0:0:0:0:
260,224,27971,5,8,0:0:0:0:
300,372,28123,1,0,3:0:0:0:
368,332,28274,2,0,P|404:332|452:356,1,83.5,8|0,0:0|0:0,0:0:0:0:
488,212,28577,2,0,P|490:253|510:289,1,83.5,8|0,0:0|0:0,0:0:0:0:
324,264,28880,2,0,B|378:236|378:236|408:180,1,125.25,8|0,0:0|0:0,0:0:0:0:
416,152,29183,5,0,3:0:0:0:
496,52,29335,1,0,3:0:0:0:
504,132,29486,2,0,L|404:124,1,83.5,8|0,0:0|0:0,0:0:0:0:
360,76,29714,1,8,0:0:0:0:
360,76,29789,1,8,0:0:0:0:
272,52,29941,1,8,0:3:0:0:
200,84,30092,1,8,0:3:0:0:
200,84,30396,5,4,3:2:0:0:
124,52,30547,2,0,P|77:5|21:40,1,125.250004777909,0|0,3:0|3:0,0:0:0:0:
36,36,31002,2,0,P|80:28|115:58,1,93.9375035834314,8|0,0:0|0:0,0:0:0:0:
136,132,31305,5,0,3:0:0:0:
116,208,31456,2,0,B|32:196|88:260|-24:240,2,125.250004777909,0|8|0,3:0|0:0|3:0,0:0:0:0:
176,248,32214,1,8,0:0:0:0:
168,348,32365,2,0,P|224:320|296:356,1,125.250004777909,0|0,3:0|3:0,0:0:0:0:
352,360,32820,5,4,3:2:0:0:
436,248,32971,2,0,B|420:308|420:308|440:392,1,125.250004777909,8|0,0:0|3:0,0:0:0:0:
448,352,33426,2,0,B|436:304|436:304|452:232,1,93.9375035834314,12|0,0:0|0:0,0:0:0:0:
496,200,33729,5,4,3:2:0:0:
504,120,33880,2,0,P|448:120|396:64,1,125.250004777909,4|8,3:2|0:0,0:0:0:0:
407,58,34335,2,0,P|450:101|512:104,1,125.250004777909,0|8,3:0|0:0,0:0:0:0:
328,12,34941,2,0,L|320:92,1,62.6250023889543,8|8,0:0|0:0,0:0:0:0:
304,224,35244,5,4,3:2:0:0:
328,148,35396,2,0,B|276:148|276:148|256:160|256:160|184:160,1,125.250004777909,0|0,3:0|3:0,0:0:0:0:
184,172,35850,2,0,B|145:172|145:172|130:180|130:180|75:180,1,93.9375035834314,8|0,0:0|0:0,0:0:0:0:
20,204,36153,5,0,3:0:0:0:
32,124,36305,2,0,B|16:98|12:74|16:43|32:34|67:41|55:80,2,125.250004777909,0|8|0,0:0|0:0|3:0,0:0:0:0:
20,204,37062,1,8,0:0:0:0:
120,296,37214,2,0,B|56:284|80:332|0:324,1,125.250004777909,0|0,3:0|0:0,0:0:0:0:
112,368,37668,5,4,3:2:0:0:
224,308,37820,2,0,P|208:248|256:256,1,125.250004777909,8|0,0:0|3:0,0:0:0:0:
376,320,38274,2,0,P|408:338|387:368,1,83.5000031852723,8|0,0:0|0:0,0:0:0:0:
304,360,38577,5,4,3:2:0:0:
332,248,38729,2,0,P|380:232|456:256,1,125.250004777909,4|8,3:2|0:0,0:0:0:0:
512,368,39183,2,0,L|504:284,1,62.6250023889543,8|0,0:0|0:0,0:0:0:0:
468,168,39455,6,0,L|528:160,2,41.7500015926362,8|8|8,0:3|0:3|0:3,0:0:0:0:
468,92,39773,2,0,L|528:84,2,41.7500015926362,4|4|4,0:3|0:3|0:3,0:0:0:0:
400,124,40092,1,0,0:0:0:0:
256,16,44940,6,0,L|264:80,3,41.75,4|8|8|8,3:2|0:1|0:1|0:0,0:0:0:0:
184,56,45243,2,0,L|176:120,3,41.75,0|8|8|0,3:0|0:1|0:0|3:0,0:0:0:0:
100,20,45546,2,0,L|108:84,3,41.75,0|8|8|8,3:0|0:1|0:1|0:0,0:0:0:0:
28,56,45849,5,0,3:0:0:0:
26,68,45925,1,0,3:0:0:0:
24,80,46001,1,8,0:1:0:0:
23,93,46076,1,8,0:1:0:0:
40,120,46153,6,0,B|56:172|56:172|44:260,1,125.25,8|0,0:0|0:0,0:0:0:0:
24,272,46465,2,0,P|48:264|96:288,1,55.6666666666667,8|8,0:0|0:0,0:0:0:0:
200,312,46778,6,0,L|208:380,3,41.75,0|8|8|8,3:0|0:1|0:1|0:0,0:0:0:0:
150,243,47091,2,0,L|144:188,2,41.75,0|8|8,3:0|0:0|0:0,0:0:0:0:
232,240,47376,1,4,3:2:0:0:
232,240,47655,5,8,0:0:0:0:
264,212,47794,1,8,0:0:0:0:
340,192,47934,1,8,0:0:0:0:
460,232,48086,1,8,0:0:0:0:
484,376,48238,1,8,0:0:0:0:
384,260,48390,1,8,0:0:0:0:
504,116,48587,6,2,B|468:144|428:140|408:112|423:106|432:96|456:108,2,125.25,2|0|0,0:0|2:0|0:0,0:0:0:0:
352,32,49799,5,6,3:1:0:0:
352,32,50102,2,0,L|260:20,1,83.5,0|0,3:0|0:0,0:0:0:0:
372,136,50405,2,0,L|280:124,1,83.5,0|0,3:0|0:0,0:0:0:0:
320,232,50708,2,0,L|228:220,1,83.5,0|0,3:0|0:0,0:0:0:0:
128,76,51011,5,0,3:0:0:0:
128,76,51314,2,0,P|166:73|196:28,1,83.5,0|0,3:0|0:0,0:0:0:0:
104,188,51617,1,0,3:0:0:0:
104,188,51920,2,0,P|81:155|-16:152,1,125.25,0|0,3:0|0:0,0:0:0:0:
28,212,52223,6,0,L|116:204,1,83.5,4|0,3:2|0:0,0:0:0:0:
48,320,52526,2,0,L|136:328,1,83.5,0|0,3:0|0:0,0:0:0:0:
147,339,52829,2,0,L|64:332,1,83.5,0|0,3:0|0:0,0:0:0:0:
127,216,53132,2,0,L|44:224,1,83.5,0|0,3:0|0:0,0:0:0:0:
216,264,53435,6,0,L|304:256,1,83.5,0|0,3:0|0:0,0:0:0:0:
424,360,53738,2,0,L|512:368,1,83.5,0|0,3:0|0:0,0:0:0:0:
336,344,54041,1,0,3:0:0:0:
384,280,54193,1,0,0:0:0:0:
507,367,54344,2,0,P|509:288|475:243,1,125.25,4|0,3:2|0:0,0:0:0:0:
476,236,54647,6,0,P|476:189|496:128,1,83.5,4|0,3:2|0:0,0:0:0:0:
469,149,54950,2,0,P|460:190|460:232,1,83.5,0|0,3:0|0:0,0:0:0:0:
376,92,55253,6,0,P|376:45|396:-16,1,83.5,0|0,3:0|0:0,0:0:0:0:
313,1,55556,2,0,P|303:41|303:83,1,83.5,0|0,3:0|0:0,0:0:0:0:
180,232,55859,6,0,P|180:185|200:124,1,83.5,0|0,3:0|0:0,0:0:0:0:
96,260,56162,1,0,3:0:0:0:
32,136,56314,2,0,P|22:176|22:218,1,83.5,0|0,0:0|3:0,0:0:0:0:
112,100,56617,1,0,0:0:0:0:
0,332,56768,2,0,B|72:316|36:368|116:364,1,125.25,0|0,3:0|0:0,0:0:0:0:
128,344,57071,6,0,P|164:336|216:352,1,83.5,4|0,3:2|0:0,0:0:0:0:
436,336,57374,2,0,P|400:344|348:328,1,83.5,0|0,3:0|0:0,0:0:0:0:
280,300,57677,1,0,3:0:0:0:
288,288,57980,2,0,L|276:388,1,83.5,0|0,3:0|0:0,0:0:0:0:
264,216,58283,5,0,3:0:0:0:
320,152,58435,1,8,0:0:0:0:
256,88,58587,1,0,3:0:0:0:
320,24,58738,1,0,0:0:0:0:
340,16,58814,1,8,0:3:0:0:
360,8,58890,2,0,L|372:112,1,83.5,0|8,0:3|0:3,0:0:0:0:
512,200,59193,2,0,P|452:144|404:160,1,125.25,0|0,3:0|0:0,0:0:0:0:
420,172,59496,6,0,L|408:276,1,83.5,4|0,3:2|0:0,0:0:0:0:
512,372,59799,2,0,L|500:268,1,83.5,0|0,3:0|0:0,0:0:0:0:
328,137,60102,2,0,L|316:241,1,83.5,0|0,3:0|0:0,0:0:0:0:
420,337,60405,2,0,L|408:233,1,83.5,0|0,3:0|0:0,0:0:0:0:
248,308,60708,5,4,3:2:0:0:
256,324,61011,2,0,L|144:328,1,83.5,0|0,3:0|0:0,0:0:0:0:
4,176,61314,2,2,L|116:184,1,83.5,2|2,3:1|0:1,0:1:0:0:
96,292,61617,2,2,P|136:246|197:244,1,125.25,2|0,3:1|0:0,0:1:0:0:
152,84,61920,5,0,3:0:0:0:
152,84,62223,5,4,3:2:0:0:
160,64,62374,1,0,0:0:0:0:
228,24,62526,1,4,3:2:0:0:
320,24,62677,1,0,0:0:0:0:
416,64,62829,1,4,3:2:0:0:
472,168,62980,1,0,0:0:0:0:
500,272,63132,6,2,B|500:316|500:316|484:328|468:316|468:316|464:268,2,125.25,2|0|0,0:0|2:0|0:0,0:0:0:0:
472,168,64344,6,0,P|432:164|384:176,1,83.5,14|0,3:1|3:0,0:0:0:0:
176,144,64647,2,0,P|216:148|264:136,1,83.5,8|0,0:0|0:0,0:0:0:0:
332,108,64874,1,8,0:0:0:0:
332,108,64950,1,0,3:0:0:0:
256,56,65102,1,0,3:0:0:0:
312,192,65253,2,0,B|292:236|292:236|304:316,1,125.25,8|0,0:0|0:0,0:0:0:0:
312,336,65556,5,0,3:0:0:0:
388,304,65708,1,0,3:0:0:0:
448,356,65859,1,8,0:0:0:0:
320,356,66011,1,0,0:0:0:0:
312,336,66087,1,8,0:0:0:0:
304,312,66162,2,0,P|256:308|208:332,1,83.5,0|0,3:0|3:0,0:0:0:0:
80,360,66465,2,0,P|132:320|108:264,1,125.25,8|0,0:0|0:0,0:0:0:0:
104,256,66768,6,0,L|116:352,1,83.5,0|0,3:0|3:0,0:0:0:0:
1,258,67071,2,0,L|12:176,1,83.5,8|0,0:0|0:0,0:0:0:0:
32,96,67299,1,8,0:0:0:0:
32,96,67374,1,0,3:0:0:0:
116,128,67526,1,0,3:0:0:0:
176,8,67677,2,0,P|186:68|235:104,1,125.25,8|0,0:0|0:0,0:0:0:0:
260,104,67980,5,0,3:0:0:0:
368,72,68132,1,0,3:0:0:0:
284,96,68283,2,0,L|296:192,1,83.5,8|0,0:0|0:0,0:0:0:0:
352,240,68511,1,8,0:0:0:0:
352,240,68587,2,0,P|388:224|452:232,1,83.5,0|0,3:0|3:0,0:0:0:0:
308,304,68890,2,0,B|232:320|264:248|160:284,1,125.25,8|0,0:0|0:0,0:0:0:0:
168,280,69193,5,6,3:1:0:0:
192,360,69344,1,0,3:0:0:0:
216,196,69496,1,8,0:0:0:0:
308,304,69647,1,0,0:0:0:0:
312,320,69723,1,8,0:0:0:0:
316,336,69799,2,0,L|420:340,1,83.5,0|0,3:0|3:0,0:0:0:0:
504,136,70102,2,0,P|492:193|516:265,1,125.25,8|0,0:0|0:0,0:0:0:0:
510,256,70405,6,0,L|406:260,1,83.5,0|0,3:0|3:0,0:0:0:0:
240,184,70708,2,0,L|323:180,1,83.5,8|0,0:0|0:0,0:0:0:0:
396,156,70935,1,8,0:0:0:0:
396,156,71011,1,0,3:0:0:0:
408,76,71162,1,0,3:0:0:0:
484,40,71314,1,8,0:0:0:0:
352,8,71465,5,0,0:0:0:0:
336,16,71541,1,0,0:0:0:0:
320,24,71617,2,0,P|276:32|220:4,1,83.5,4|0,3:2|3:0,0:0:0:0:
48,128,71920,2,0,P|92:136|148:108,1,83.5,8|0,0:0|0:0,0:0:0:0:
180,72,72147,1,8,0:0:0:0:
180,72,72223,1,0,3:0:0:0:
236,140,72374,1,0,3:0:0:0:
188,216,72526,1,8,0:0:0:0:
16,200,72677,5,0,0:0:0:0:
16,212,72753,1,0,0:0:0:0:
0,236,72829,2,0,P|16:276|16:344,1,83.5,4|0,3:2|3:0,0:0:0:0:
212,288,73132,2,0,P|196:328|196:396,1,83.5,8|0,0:0|0:0,0:0:0:0:
352,200,73435,6,0,L|352:256,1,41.75,0|0,3:0|0:0,0:0:0:0:
400,368,73587,2,0,L|400:326,1,41.75,8|8,0:0|0:0,0:0:0:0:
428,260,73738,5,8,0:0:0:0:
444,260,73814,1,8,0:0:0:0:
460,260,73890,1,8,0:0:0:0:
476,260,73965,1,8,0:0:0:0:
492,280,74041,6,0,P|448:236|484:180,1,125.25,4|0,3:2|0:0,0:0:0:0:
424,168,74344,2,0,L|536:160,1,83.5,8|0,0:0|0:0,0:0:0:0:
464,12,74647,1,0,3:0:0:0:
424,92,74799,1,0,3:0:0:0:
332,68,74950,2,0,B|283:67|283:67|257:45|257:45|181:38,1,125.25,8|0,0:0|0:0,0:0:0:0:
196,32,75253,6,0,P|208:60|216:144,1,83.5,4|0,3:2|3:0,0:0:0:0:
0,152,75556,2,0,P|6:110|21:72,1,83.5,8|0,0:0|0:0,0:0:0:0:
104,36,75783,1,8,0:0:0:0:
104,36,75859,1,0,3:0:0:0:
144,184,76011,1,0,3:0:0:0:
104,116,76162,2,0,L|96:240,1,125.25,8|0,0:0|0:0,0:0:0:0:
96,260,76465,5,4,3:2:0:0:
28,312,76617,1,0,0:0:0:0:
92,368,76768,1,8,0:0:0:0:
104,364,76844,1,8,0:0:0:0:
116,360,76920,1,0,3:0:0:0:
252,320,77071,5,8,0:0:0:0:
172,304,77223,1,0,3:0:0:0:
404,328,77374,5,8,0:0:0:0:
328,364,77526,1,0,3:0:0:0:
464,248,77677,5,8,0:0:0:0:
488,372,77829,1,0,3:0:0:0:
480,260,77980,5,8,0:0:0:0:
504,136,78132,1,0,0:0:0:0:
396,72,78283,6,0,P|436:76|476:48,1,83.5,0|4,3:0|0:3,0:0:0:0:
496,28,78738,6,2,P|432:88|344:44,1,167,6|2,3:1|0:1,0:1:0:0:
300,16,79193,1,0,3:0:0:0:
284,92,79344,1,0,0:0:0:0:
142,126,79496,2,0,P|86:110|34:150,1,125.25,0|0,3:0|0:0,0:0:0:0:
20,128,79799,6,0,L|32:224,1,83.5,2|0,3:1|0:0,0:0:0:0:
172,196,80102,5,0,3:0:0:0:
172,196,80253,2,0,L|160:292,1,83.5,0|0,0:0|3:0,0:0:0:0:
0,332,80556,5,0,0:0:0:0:
0,332,80708,2,0,P|40:316|92:324,1,83.5,2|0,3:1|0:0,0:0:0:0:
272,368,81011,2,0,B|244:332|244:332|260:224,1,125.25,0|0,3:0|0:0,0:0:0:0:
264,228,81314,5,6,3:1:0:0:
424,276,81465,1,0,0:0:0:0:
348,324,81617,1,0,3:0:0:0:
341,248,81768,1,0,0:0:0:0:
412,136,81920,2,0,P|447:185|507:192,1,125.25,0|0,3:0|0:0,0:0:0:0:
507,192,82223,2,0,B|467:184|467:184|391:208,1,83.5,2|0,3:1|0:0,0:0:0:0:
468,52,82526,6,0,L|492:132,2,55.6666666666667,0|8|8,3:0|0:1|0:1,0:0:0:0:
396,4,82829,2,0,L|372:84,2,55.6666666666667,0|8|8,3:0|0:0|0:0,0:0:0:0:
292,44,83132,2,0,L|316:124,2,55.6666666666667,0|8|0,3:0|0:0|3:0,0:0:0:0:
212,24,83435,5,8,0:0:0:0:
196,44,83536,1,0,3:0:0:0:
176,64,83637,1,8,0:0:0:0:
152,80,83738,6,0,L|44:76,1,83.5,6|0,3:1|0:0,0:0:0:0:
0,264,84041,2,0,L|108:260,1,83.5,0|0,3:0|0:0,0:0:0:0:
192,188,84344,1,0,3:0:0:0:
208,180,84647,2,0,L|100:176,1,83.5,0|0,3:0|0:0,0:0:0:0:
99,336,84950,5,0,3:0:0:0:
83,260,85102,1,0,0:0:0:0:
164,384,85253,1,0,3:0:0:0:
180,308,85405,1,0,0:0:0:0:
324,348,85556,2,0,P|300:368|240:372,1,83.5,0|8,3:0|0:0,0:0:0:0:
284,196,85859,2,0,P|308:176|416:216,1,125.25,4|0,3:2|0:0,0:0:0:0:
416,200,86162,5,4,3:2:0:0:
448,312,86314,1,8,0:0:0:0:
500,208,86465,2,0,L|512:104,1,83.5,6|2,3:1|0:1,0:0:0:0:
352,0,86768,2,0,L|358:120,1,111.333333333333,8|8,0:0|0:0,0:0:0:0:
328,88,87071,5,4,3:2:0:0:
264,24,87223,1,0,0:0:0:0:
132,8,87374,1,6,3:1:0:0:
192,64,87526,1,2,0:1:0:0:
60,44,87677,2,0,L|48:156,1,83.5,4|0,3:2|0:0,0:0:0:0:
36,244,87980,5,8,3:1:0:0:
120,216,88132,1,10,3:1:0:0:
208,296,88283,1,10,3:1:0:0:
324,228,88435,1,10,3:1:0:0:
