osu file format v14

[General]
AudioFilename: audio.mp3
AudioLeadIn: 0
PreviewTime:63056
Countdown: 0
SampleSet: Soft
StackLeniency: 0.4
Mode: 0
LetterboxInBreaks: 0
WidescreenStoryboard: 0

[Editor]
Bookmarks: 88435
DistanceSpacing: 1.6
BeatDivisor: 4
GridSize: 32
TimelineZoom: 2.299999

[Metadata]
Title:Namae no Nai Ao (TV Size)
TitleUnicode:名前のない青 (TV Size)
Artist:Kami-sama, I have noticed
ArtistUnicode:神様、僕は気づいてしまった
Creator:Ryuusei Aika
Version:SMOKELIND's Extra
Source:映像研には手を出すな!
Tags:Agatsu Kowari kanor Derandom Otaku DeRandom_Otaku Ren SMOKELIND Reform Kujinn Japanese anime ending theme ed rock j-rock jrock male vocal motion pictures club アニメ エンディング エンディングテーマ Keep Your Hands Off Eizouken! Eizouken ni wa ha te wo dasu na! na 神僕 Kamiboku Kami-sama kami sama boku kizuite shimatta 神啊、我已經察覺到了 どこのだれか 東野へいと 和泉りゅーしん 蓮
BeatmapID:2288383
BeatmapSetID:1094943

[Difficulty]
HPDrainRate:5.1
CircleSize:4.1
OverallDifficulty:9.1
ApproachRate:9.1
SliderMultiplier:1.87
SliderTickRate:1

[Events]
//Background and Video events
0,0,"BG.jpg",0,0
Video,72,"video.mp4"
//Break Periods
2,11202,20092
//Storyboard Layer 0 (Background)
//Storyboard Layer 1 (Fail)
//Storyboard Layer 2 (Pass)
//Storyboard Layer 3 (Foreground)
//Storyboard Layer 4 (Overlay)
//Storyboard Sound Samples

[TimingPoints]
93,303.030303030303,4,2,1,25,1,0
93,-103.092783505155,4,2,1,25,0,0
396,-103.092783505155,4,2,1,30,0,0
547,-103.092783505155,4,2,1,35,0,0
699,-103.092783505155,4,2,1,40,0,0
850,-103.092783505155,4,2,1,45,0,0
1002,-103.092783505155,4,2,1,50,0,0
1153,-103.092783505155,4,2,1,55,0,0
1305,-103.092783505155,4,2,1,60,0,0
3956,-103.092783505155,4,2,1,5,0,0
4032,-103.092783505155,4,2,1,60,0,0
4562,-103.092783505155,4,2,1,5,0,0
4638,-103.092783505155,4,2,1,60,0,0
4714,-103.092783505155,4,2,1,5,0,0
4790,-103.092783505155,4,2,1,60,0,0
4865,-103.092783505155,4,2,1,5,0,0
4941,-103.092783505155,4,2,1,60,0,0
5699,-103.092783505155,4,2,0,60,0,0
6153,-103.092783505155,4,2,1,60,0,0
6380,-103.092783505155,4,2,1,5,0,0
6456,-103.092783505155,4,2,1,60,0,0
6683,-103.092783505155,4,2,1,5,0,0
6759,-103.092783505155,4,2,1,60,0,0
6986,-103.092783505155,4,2,1,5,0,0
7062,-103.092783505155,4,2,1,60,0,0
7138,-103.092783505155,4,2,1,5,0,0
7214,-103.092783505155,4,2,1,60,0,0
7289,-103.092783505155,4,2,1,5,0,0
7365,-103.092783505155,4,2,1,60,0,0
8502,-103.092783505155,4,2,1,5,0,0
8578,-103.092783505155,4,2,1,60,0,0
9714,-103.092783505155,4,2,1,5,0,0
9790,-103.092783505155,4,2,1,60,0,0
11002,-212.765957446809,4,2,1,40,0,0
20699,-129.87012987013,4,2,1,50,0,0
23047,-129.87012987013,4,2,1,5,0,0
23123,-129.87012987013,4,2,1,50,0,0
23350,-129.87012987013,4,2,1,5,0,0
23426,-129.87012987013,4,2,1,50,0,0
29941,-129.87012987013,4,2,0,50,0,0
30396,-114.942528735632,4,2,1,50,0,0
30926,-114.942528735632,4,2,1,5,0,0
31002,-114.942528735632,4,2,1,50,0,0
31229,-114.942528735632,4,2,1,5,0,0
31305,-114.942528735632,4,2,1,50,0,0
31532,-114.942528735632,4,2,1,5,0,0
31608,-114.942528735632,4,2,1,50,0,0
39183,272.727272727273,4,2,1,50,1,0
39455,318.725099601594,4,2,0,70,1,0
39773,266.666666666667,4,2,0,70,1,0
40092,303.030303030303,4,2,1,30,1,0
42516,-212.765957446808,4,2,1,30,0,0
44713,-588.235294117644,4,2,1,30,0,0
44864,-588.235294117644,4,2,1,5,0,0
44940,-114.942528735632,4,2,1,60,0,0
46153,312.5,4,2,1,60,1,0
46153,-100,4,2,1,60,0,0
47091,285.714285714286,4,2,1,60,1,0
47091,-100,4,2,1,60,0,0
47376,279.06976744186,4,2,1,60,1,0
47376,-78.7401574803149,4,2,1,60,0,0
47934,304.568527918782,4,2,1,60,1,0
47934,-100,4,2,1,60,0,0
48390,394.736842105263,4,2,1,60,1,0
48390,-100,4,2,1,60,0,0
48587,303.030303030303,4,2,1,50,1,0
48587,-588.235294117657,4,2,1,50,0,0
48662,-588.235294117657,4,2,1,5,0,0
49041,-588.235294117657,4,2,1,50,0,0
49117,-588.235294117657,4,2,1,5,0,0
49496,-588.235294117657,4,2,1,50,0,0
49571,-588.235294117657,4,2,1,5,0,0
49799,-78.7401574803151,4,2,1,55,0,0
50102,-103.092783505155,4,2,1,55,0,0
52223,-78.7401574803151,4,2,1,55,0,0
52829,-103.092783505155,4,2,1,55,0,0
54571,-103.092783505155,4,2,1,5,0,0
54647,-103.092783505155,4,2,1,55,0,0
56087,-103.092783505155,4,2,1,5,0,0
56163,-103.092783505155,4,2,1,55,0,0
56693,-103.092783505155,4,2,1,5,0,0
56769,-103.092783505155,4,2,1,55,0,0
57071,-78.7401574803151,4,2,1,55,0,0
57299,-78.7401574803151,4,2,1,5,0,0
57374,-103.092783505155,4,2,1,55,0,0
58814,-103.092783505155,4,2,0,55,0,0
58890,-103.092783505155,4,2,1,55,0,0
59041,-103.092783505155,4,2,0,55,0,0
59193,-175.438596491229,4,2,1,55,0,0
59420,-175.438596491229,4,2,1,5,0,0
59496,-68.0272108843537,4,2,1,55,0,0
59723,-68.0272108843537,4,2,1,5,0,0
59799,-68.0272108843537,4,2,1,55,0,0
59950,-103.092783505155,4,2,1,55,0,0
60708,-78.7401574803149,4,2,1,55,0,0
60935,-78.7401574803149,4,2,1,5,0,0
61011,-103.092783505155,4,2,1,55,0,0
61314,-72.992700729927,4,2,1,60,0,0
61541,-72.992700729927,4,2,1,5,0,0
61617,-68.0272108843537,4,2,1,60,0,0
61844,-68.0272108843537,4,2,1,5,0,0
61920,-63.6942675159236,4,2,1,60,0,0
62147,-63.6942675159236,4,2,1,5,0,0
62223,-63.6942675159236,4,2,1,60,0,0
62526,-103.092783505155,4,2,1,60,0,0
62753,-103.092783505155,4,2,1,5,0,0
62829,-103.092783505155,4,2,1,60,0,0
63132,-588.235294117657,4,2,1,60,0,0
63208,-588.235294117657,4,2,1,5,0,0
63587,-588.235294117657,4,2,1,60,0,0
63662,-588.235294117657,4,2,1,5,0,0
64041,-588.235294117657,4,2,1,60,0,0
64117,-588.235294117657,4,2,1,5,0,0
64344,-78.7401574803149,4,2,1,70,0,0
64420,-78.7401574803149,4,2,1,5,0,0
64496,-78.7401574803149,4,2,1,70,0,0
64571,-78.7401574803149,4,2,1,5,0,0
64647,-78.7401574803149,4,2,1,70,0,0
64723,-78.7401574803149,4,2,1,5,0,0
64799,-78.7401574803149,4,2,1,70,0,0
65405,-175.438596491228,4,2,1,70,0,0
65480,-175.438596491228,4,2,1,5,0,0
65556,-93.4579439252336,4,2,1,70,0,0
66465,-149.253731343284,4,2,1,70,0,0
66693,-149.253731343284,4,2,1,5,0,0
66768,-93.4579439252336,4,2,1,70,0,0
68890,-78.7401574803149,4,2,1,70,0,0
69117,-78.7401574803149,4,2,1,5,0,0
69193,-68.0272108843537,4,2,1,70,0,0
69420,-68.0272108843537,4,2,1,5,0,0
69496,-68.0272108843537,4,2,1,70,0,0
70102,-149.253731343284,4,2,1,70,0,0
70329,-149.253731343284,4,2,1,5,0,0
70405,-85.4700854700855,4,2,1,70,0,0
70480,-85.4700854700855,4,2,1,5,0,0
70556,-85.4700854700855,4,2,1,70,0,0
70783,-85.4700854700855,4,2,1,5,0,0
70859,-85.4700854700855,4,2,1,70,0,0
71011,-93.4579439252336,4,2,1,70,0,0
71617,-85.4700854700855,4,2,1,70,0,0
71693,-85.4700854700855,4,2,1,5,0,0
71768,-85.4700854700855,4,2,1,70,0,0
71996,-85.4700854700855,4,2,1,5,0,0
72071,-85.4700854700855,4,2,1,70,0,0
72526,-149.253731343284,4,2,1,70,0,0
72753,-149.253731343284,4,2,1,5,0,0
72829,-149.253731343284,4,2,1,70,0,0
74041,-85.4700854700855,4,2,1,70,0,0
74268,-85.4700854700855,4,2,1,5,0,0
74344,-85.4700854700855,4,2,1,70,0,0
74647,-93.4579439252336,4,2,1,70,0,0
74950,-149.253731343284,4,2,1,70,0,0
75177,-149.253731343284,4,2,1,5,0,0
75253,-149.253731343284,4,2,1,70,0,0
76390,-149.253731343284,4,2,1,5,0,0
76465,-85.4700854700855,4,2,1,70,0,0
76541,-85.4700854700855,4,2,1,5,0,0
76617,-85.4700854700855,4,2,1,70,0,0
76693,-85.4700854700855,4,2,1,5,0,0
76769,-85.4700854700855,4,2,1,70,0,0
76844,-85.4700854700855,4,2,1,5,0,0
76920,-85.4700854700855,4,2,1,70,0,0
77147,-85.4700854700855,4,2,1,5,0,0
77223,-85.4700854700855,4,2,1,70,0,0
77450,-85.4700854700855,4,2,1,5,0,0
77526,-85.4700854700855,4,2,1,70,0,0
78435,-85.4700854700855,4,2,0,50,0,0
78738,-103.092783505155,4,2,1,60,0,0
81541,-103.092783505155,4,2,1,5,0,0
81617,-103.092783505155,4,2,1,60,0,0
82147,-103.092783505155,4,2,1,5,0,0
82223,-103.092783505155,4,2,1,60,0,0
82299,-103.092783505155,4,2,1,5,0,0
82375,-103.092783505155,4,2,1,60,0,0
82450,-103.092783505155,4,2,1,5,0,0
82526,-103.092783505155,4,2,1,60,0,0
83435,-175.438596491229,4,2,1,60,0,0
83738,-103.092783505155,4,2,1,60,0,0
84723,-103.092783505155,4,2,1,5,0,0
84799,-103.092783505155,4,2,1,60,0,0
84874,-103.092783505155,4,2,1,5,0,0
84950,-103.092783505155,4,2,1,60,0,0
86465,-72.9927007299272,4,2,1,60,0,0
86693,-72.9927007299272,4,2,1,5,0,0
86768,-72.9927007299272,4,2,1,60,0,0
87071,-72.9927007299272,4,2,1,70,0,0
87299,-72.9927007299272,4,2,1,5,0,0
87374,-72.9927007299272,4,2,1,70,0,0
87980,-59.8802395209581,4,2,1,80,0,0
88056,-59.8802395209581,4,2,1,5,0,0
88132,-59.8802395209581,4,2,1,80,0,0
88208,-59.8802395209581,4,2,1,5,0,0
88284,-59.8802395209581,4,2,1,80,0,0
88359,-59.8802395209581,4,2,1,5,0,0
88435,-59.8802395209581,4,2,1,80,0,0
88511,-59.8802395209581,4,2,1,5,0,0
88587,-59.8802395209581,4,2,1,80,0,0

[Colours]
Combo1 : 128,128,255
Combo2 : 0,128,255

[HitObjects]
89,63,1305,6,0,L|111:187,1,90.6950021450387,6|0,3:1|0:0,0:0:0:0:
248,263,1608,1,0,3:0:0:0:
176,254,1759,1,0,0:0:0:0:
286,153,1911,2,0,L|264:277,1,90.6950021450387,0|0,3:0|0:0,0:0:0:0:
387,94,2214,1,2,3:1:0:0:
315,78,2365,1,0,0:0:0:0:
438,270,2517,5,0,3:0:0:0:
388,214,2668,1,0,0:0:0:0:
279,363,2820,2,0,P|233:381|179:357,1,90.6950021450387,0|0,3:0|0:0,0:0:0:0:
70,264,3123,2,0,P|113:253|154:271,1,90.6950021450387,0|0,3:0|0:0,0:0:0:0:
36,132,3426,1,0,3:0:0:0:
36,132,3729,6,0,P|100:211|172:210,1,136.042503217558,6|0,3:1|0:0,0:0:0:0:
206,139,4032,1,0,3:0:0:0:
237,209,4183,1,0,0:0:0:0:
251,39,4335,2,0,L|221:190,1,136.042503217558,0|0,3:0|0:0,0:0:0:0:
279,278,4638,2,0,P|310:280|343:289,1,45.3475010725193,2|0,3:1|0:0,0:0:0:0:
387,256,4789,2,0,P|364:269|323:267,1,45.3475010725193
426,120,4941,5,0,3:0:0:0:
367,170,5093,5,0,0:0:0:0:
200,129,5244,1,0,3:0:0:0:
259,179,5396,5,2,0:0:0:0:
114,290,5547,1,2,3:1:0:0:
152,222,5699,5,8,0:3:0:0:
53,70,5850,1,8,0:3:0:0:
70,90,5926,1,8,0:3:0:0:
97,80,6002,1,4,0:3:0:0:
100,91,6077,1,4,0:3:0:0:
169,119,6153,6,0,P|209:54|277:42,1,136.042503217558,6|0,3:1|0:0,0:0:0:0:
338,126,6456,2,0,P|292:65|272:-18,1,136.042503217558,0|0,3:0|0:0,0:0:0:0:
262,163,6759,2,0,P|308:102|328:19,1,136.042503217558,0|0,3:0|0:0,0:0:0:0:
398,166,7062,2,0,P|375:144|359:113,1,45.3475010725193,0|0,3:0|0:0,0:0:0:0:
283,220,7214,2,0,P|306:198|322:167,1,45.3475010725193
410,267,7365,1,0,3:0:0:0:
345,312,7517,5,0,0:0:0:0:
504,331,7668,1,0,3:0:0:0:
437,298,7820,5,0,0:0:0:0:
233,322,7971,2,0,B|198:280|198:225,1,90.6950021450387,0|0,3:0|0:0,0:0:0:0:
117,128,8274,1,0,3:0:0:0:
178,170,8426,2,0,L|100:146,1,45.3475010725193
303,56,8577,1,4,3:2:0:0:
264,120,8729,5,0,0:0:0:0:
42,38,8880,1,2,3:1:0:0:
119,3,9032,5,2,0:1:0:0:
34,222,9183,1,0,3:0:0:0:
114,184,9335,5,0,0:0:0:0:
225,344,9486,2,0,P|286:311|386:275,1,136.042503217558,0|0,3:0|0:0,0:0:0:0:
412,335,9789,1,2,3:1:0:0:
286,285,9941,1,2,0:1:0:0:
460,215,10093,5,4,3:2:0:0:
84,70,10396,5,6,3:1:0:0:
460,215,10699,5,6,3:1:0:0:
460,215,11002,5,2,0:0:0:0:
65,123,20699,5,4,3:2:0:0:
82,151,20850,1,0,3:0:0:0:
245,198,21002,1,8,0:0:0:0:
224,167,21153,2,0,B|163:203|228:243|125:288,1,143.989997143753,0|8,0:0|0:1,0:0:0:0:
89,169,21608,1,8,0:0:0:0:
102,192,21759,1,0,0:0:0:0:
169,93,21911,5,8,0:1:0:0:
232,136,22062,1,8,0:1:0:0:
296,44,22214,2,0,P|227:57|145:96,1,143.989997143753,8|8,0:0|0:1,0:0:0:0:
312,142,22668,1,8,0:1:0:0:
376,15,22820,2,0,L|404:141,1,107.992497857815,8|0,0:0|0:0,0:0:0:0:
457,41,23123,6,0,L|429:167,1,107.992497857815,0|0,3:0|0:0,0:0:0:0:
480,230,23426,1,8,0:0:0:0:
458,248,23577,2,0,P|433:235|365:227,1,71.9949985718766,0|8,0:0|0:1,0:0:0:0:
305,307,23880,1,8,0:1:0:0:
223,163,24032,1,8,0:0:0:0:
249,174,24183,1,0,0:0:0:0:
110,269,24335,6,0,P|90:237|53:202,1,71.9949985718766,8|8,0:1|0:1,0:0:0:0:
200,324,24638,2,0,P|209:287|210:236,1,71.9949985718766,8|0,0:0|0:0,0:0:0:0:
323,380,24941,1,8,0:1:0:0:
280,306,25092,1,0,3:0:0:0:
119,355,25244,1,8,0:0:0:0:
119,355,25396,1,0,0:0:0:0:
133,237,25547,6,0,L|109:134,1,71.9949985718766,0|0,3:0|3:0,0:0:0:0:
215,64,25850,1,8,0:0:0:0:
183,143,26002,2,0,L|207:40,1,71.9949985718766,0|8,0:0|0:1,0:0:0:0:
220,230,26305,2,0,L|196:127,1,71.9949985718766,8|8,0:1|0:0,0:0:0:0:
281,98,26608,1,0,0:0:0:0:
370,243,26759,6,0,P|334:252|293:227,1,71.9949985718766,8|8,0:1|0:1,0:0:0:0:
440,117,27062,1,8,0:0:0:0:
431,144,27214,1,0,0:0:0:0:
477,282,27365,1,8,0:1:0:0:
468,255,27517,1,8,0:1:0:0:
291,202,27668,1,8,0:0:0:0:
291,202,27971,5,8,0:0:0:0:
240,262,28123,1,0,3:0:0:0:
285,113,28274,5,8,0:0:0:0:
357,152,28426,1,0,3:0:0:0:
398,301,28577,5,8,0:0:0:0:
366,226,28729,1,0,3:0:0:0:
226,339,28880,5,8,0:0:0:0:
273,284,29032,1,0,3:0:0:0:
132,206,29183,5,0,3:0:0:0:
236,182,29335,1,0,3:0:0:0:
407,144,29486,1,8,0:0:0:0:
205,92,29714,5,8,0:0:0:0:
224,100,29789,1,8,0:0:0:0:
236,182,29941,1,8,0:3:0:0:
314,250,30092,1,8,0:3:0:0:
314,250,30396,5,4,3:2:0:0:
362,180,30547,1,0,3:0:0:0:
380,303,30699,6,0,P|326:278|257:278,1,122.017501024012
167,339,31002,2,0,P|227:337|282:312,1,122.017501024012,8|0,0:0|0:0,0:0:0:0:
217,216,31305,2,0,P|262:274|262:341,1,122.017501024012,0|0,3:0|0:0,0:0:0:0:
340,370,31608,1,2,0:0:0:0:
468,225,31759,2,0,P|385:233|319:179,1,162.690001365349,8|0,0:0|3:0,0:0:0:0:
440,95,32214,2,0,P|431:134|315:110,1,162.690001365349,8|0,0:0|0:0,0:0:0:0:
285,57,32668,1,0,3:0:0:0:
129,197,32820,5,4,3:2:0:0:
156,37,32971,2,0,P|135:111|117:215,1,162.690001365349,8|0,0:0|3:0,0:0:0:0:
220,306,33426,2,0,P|174:304|126:279,1,81.3450006826744,12|0,0:0|0:0,0:0:0:0:
326,287,33729,1,4,3:2:0:0:
275,187,33880,1,4,3:2:0:0:
304,202,34032,5,0,0:0:0:0:
406,54,34183,2,0,L|306:68,1,81.3450006826744,8|0,0:0|3:0,0:0:0:0:
436,231,34486,2,0,L|267:154,1,162.690001365349
117,61,34941,5,8,0:0:0:0:
168,192,35093,1,8,0:0:0:0:
50,336,35244,5,4,3:2:0:0:
66,232,35396,1,0,3:0:0:0:
161,299,35699,5,0,3:0:0:0:
258,135,35850,2,0,L|352:153,1,81.3450006826744,8|0,0:0|0:0,0:0:0:0:
487,273,36153,1,0,3:0:0:0:
386,226,36305,1,0,0:0:0:0:
353,295,36456,6,0,B|433:260|356:228|489:164,1,162.690001365349
392,89,36911,1,0,3:0:0:0:
299,221,37062,2,0,P|250:228|207:192,2,81.3450006826744,8|0|0,0:0|3:0|0:0,0:0:0:0:
254,147,37517,1,0,0:0:0:0:
149,15,37668,5,4,3:2:0:0:
334,150,37820,2,0,L|510:83,1,162.690001365349,8|0,0:0|3:0,0:0:0:0:
266,68,38274,2,0,L|352:33,1,81.3450006826744,8|0,0:0|0:0,0:0:0:0:
250,210,38577,1,4,3:2:0:0:
182,98,38729,1,4,3:2:0:0:
167,178,38880,6,0,P|289:189|340:238,1,162.690001365349,0|8,0:0|0:0,0:0:0:0:
352,315,39319,1,0,0:0:0:0:
425,117,39455,5,8,0:3:0:0:
479,169,39561,1,8,0:3:0:0:
437,227,39667,1,8,0:3:0:0:
430,211,39773,5,4,0:3:0:0:
460,168,39861,1,4,0:3:0:0:
421,130,39950,1,4,0:3:0:0:
421,130,40092,5,0,0:0:0:0:
153,75,41001,5,2,0:0:0:0:
218,111,41304,1,2,0:0:0:0:
255,175,41607,1,2,0:0:0:0:
324,202,41910,1,2,0:0:0:0:
391,170,42213,1,2,0:0:0:0:
464,183,42364,1,2,0:0:0:0:
436,112,42516,6,0,L|443:214,3,87.8899986589051,2|2|2|2,0:0|0:0|0:0|0:0,0:0:0:0:
328,60,43728,5,2,0:0:0:0:
279,120,43955,1,2,0:0:0:0:
200,92,44258,1,2,0:0:0:0:
204,96,44334,1,2,0:0:0:0:
169,169,44485,1,0,0:0:0:0:
153,174,44713,2,0,L|133:169,1,15.8950000970154,2|0,0:0|0:0,0:0:0:0:
40,307,44940,5,4,3:2:0:0:
63,274,45016,1,8,0:1:0:0:
101,271,45092,1,8,0:1:0:0:
130,297,45167,1,8,0:0:0:0:
175,312,45243,1,0,3:0:0:0:
218,293,45319,1,8,0:1:0:0:
284,321,45395,1,8,0:0:0:0:
412,194,45546,1,0,3:0:0:0:
392,194,45622,1,8,0:1:0:0:
373,213,45698,1,8,0:1:0:0:
382,249,45773,1,8,0:0:0:0:
445,279,45849,1,0,3:0:0:0:
459,113,46001,1,8,0:1:0:0:
438,110,46076,1,8,0:1:0:0:
385,119,46153,1,8,0:0:0:0:
273,207,46309,1,8,0:1:0:0:
252,212,46387,1,8,0:1:0:0:
211,188,46465,1,8,0:0:0:0:
218,95,46569,1,8,0:0:0:0:
392,230,46778,1,0,3:0:0:0:
237,347,46934,1,8,0:1:0:0:
170,181,47091,5,0,3:0:0:0:
199,133,47162,1,8,0:0:0:0:
253,123,47233,1,8,0:0:0:0:
343,164,47376,6,0,P|315:207|356:305,1,118.744999094048,4|0,3:2|0:0,0:0:0:0:
452,40,47655,5,8,0:0:0:0:
313,84,47794,1,8,0:0:0:0:
275,232,47934,1,8,0:0:0:0:
439,29,48086,5,8,0:0:0:0:
301,74,48238,1,8,0:0:0:0:
262,222,48390,1,8,0:0:0:0:
334,154,48587,6,0,L|292:159,1,39.7375002425385,2|2,0:0|0:0,0:0:0:0:
262,222,49041,6,0,L|222:217,1,39.7375002425385,2|0,0:0|0:0,0:0:0:0:
169,162,49496,6,0,L|141:165,1,23.8425001455231,2|0,0:0|0:0,0:0:0:0:
29,320,49799,6,0,P|75:282|157:268,1,118.744999094048,4|0,3:1|0:0,0:0:0:0:
369,339,50102,2,0,P|326:322|294:291,1,90.6950021450387,0|0,3:0|0:0,0:0:0:0:
16,81,50405,6,0,P|75:88|120:120,1,90.6950021450387,0|0,3:0|0:0,0:0:0:0:
233,342,50708,2,0,P|216:300|216:255,1,90.6950021450387,0|0,3:0|0:0,0:0:0:0:
402,31,51011,6,0,B|371:81|380:155,1,90.6950021450387,0|0,3:0|0:0,0:0:0:0:
261,336,51314,2,0,B|292:286|283:212,1,90.6950021450387,0|0,3:0|0:0,0:0:0:0:
480,96,51617,6,0,B|422:107|374:164,1,90.6950021450387,0|0,3:0|0:0,0:0:0:0:
160,200,51920,2,0,B|217:188|265:131,1,90.6950021450387,0|0,3:0|0:0,0:0:0:0:
448,299,52223,6,0,L|327:244,1,118.744999094048,4|0,3:2|0:0,0:0:0:0:
166,115,52526,1,0,3:0:0:0:
257,79,52677,1,0,0:0:0:0:
120,281,52829,2,0,L|5:253,1,90.6950021450387,0|0,3:0|0:0,0:0:0:0:
353,180,53132,2,0,L|264:201,1,90.6950021450387,0|0,3:0|0:0,0:0:0:0:
49,46,53435,5,0,3:0:0:0:
313,341,53738,5,0,3:0:0:0:
421,18,54041,5,0,3:0:0:0:
174,308,54344,6,0,P|248:312|316:337,1,136.042503217558,4|0,3:2|0:0,0:0:0:0:
377,280,54647,1,4,3:2:0:0:
74,49,54950,1,0,3:0:0:0:
145,92,55102,1,0,0:0:0:0:
18,237,55253,2,0,P|65:195|109:178,1,90.6950021450387,0|0,3:0|0:0,0:0:0:0:
305,108,55556,1,0,3:0:0:0:
348,177,55708,1,0,0:0:0:0:
186,336,55859,6,0,P|233:294|305:276,1,136.042503217558,0|0,3:0|0:0,0:0:0:0:
377,280,56162,1,0,3:0:0:0:
445,208,56314,1,0,0:0:0:0:
184,182,56465,2,0,P|234:226|300:242,1,136.042503217558,0|0,3:0|0:0,0:0:0:0:
348,177,56768,1,0,3:0:0:0:
75,50,57071,6,0,L|114:232,1,178.117498641071,4|0,3:2|0:0,0:0:0:0:
61,294,57374,2,0,P|99:239|147:221,1,90.6950021450387,0|0,3:0|0:0,0:0:0:0:
283,333,57677,2,0,P|348:346|395:325,1,90.6950021450387,0|0,3:0|0:0,0:0:0:0:
395,138,57980,2,0,P|356:193|309:211,1,90.6950021450387,0|0,3:0|0:0,0:0:0:0:
190,45,58283,5,0,3:0:0:0:
296,207,58435,1,8,0:0:0:0:
225,179,58587,5,0,3:0:0:0:
380,38,58814,1,8,0:3:0:0:
352,46,58890,1,0,0:3:0:0:
317,118,59041,5,8,0:3:0:0:
405,312,59193,2,0,P|366:292|315:273,1,79.9424990241394,0|0,3:0|0:0,0:0:0:0:
214,286,59496,6,0,P|315:253|414:238,1,206.167490405108,4|0,3:2|0:0,0:0:0:0:
445,163,59799,1,0,3:0:0:0:
318,236,59950,2,0,P|297:184|282:116,1,90.6950021450387,0|0,0:0|3:0,0:0:0:0:
67,157,60253,2,0,P|118:134|176:95,1,90.6950021450387,0|0,0:0|3:0,0:0:0:0:
255,74,60556,1,0,0:0:0:0:
135,275,60708,6,0,P|178:187|170:80,1,178.117498641071,4|0,3:2|0:0,0:0:0:0:
104,41,61011,2,0,P|139:88|199:98,1,90.6950021450387,0|0,3:0|0:0,0:0:0:0:
358,20,61314,2,2,P|258:41|176:142,1,192.142505423945,2|0,3:1|0:0,0:1:0:0:
323,151,61617,2,2,P|363:132|511:212,1,206.167490405108,2|0,3:1|0:0,0:1:0:0:
371,308,61920,6,0,P|323:223|301:80,1,220.192500839968,0|0,3:0|0:0,0:0:0:0:
385,21,62223,1,4,3:2:0:0:
313,132,62374,1,0,0:0:0:0:
53,180,62526,2,0,L|204:221,1,136.042503217558,4|0,3:2|0:0,0:0:0:0:
291,145,62829,1,4,3:2:0:0:
43,355,63132,6,0,L|50:311,1,39.7375002425385,2|0,0:0|0:0,0:0:0:0:
127,336,63587,6,0,L|123:291,1,39.7375002425385,2|2,0:0|0:0,0:0:0:0:
185,263,64041,6,0,L|176:237,1,23.8425001455231,2|2,0:0|0:0,0:0:0:0:
209,166,64344,6,0,P|229:142|266:131,1,59.3724995470238,12|0,3:1|0:0,0:0:0:0:
401,281,64496,2,0,P|381:257|344:246,1,59.3724995470238,0|0,3:0|0:0,0:0:0:0:
182,339,64647,6,0,P|179:307|198:274,1,59.3724995470238,8|0,0:0|0:0,0:0:0:0:
387,152,64874,1,8,0:0:0:0:
363,133,64950,1,0,3:0:0:0:
277,264,65102,1,0,3:0:0:0:
163,70,65253,1,8,0:0:0:0:
253,154,65405,2,0,L|216:145,1,26.6474996747131
159,186,65556,5,0,3:0:0:0:
72,295,65708,5,0,3:0:0:0:
44,44,65859,1,8,0:0:0:0:
111,122,66011,1,0,0:0:0:0:
137,104,66086,1,8,0:0:0:0:
137,104,66162,2,0,P|188:135|270:153,1,100.044996946869,0|0,3:0|3:0,0:0:0:0:
368,41,66465,2,0,P|322:62|294:105,1,93.9674955551264,8|0,0:0|0:0,0:0:0:0:
304,175,66768,5,0,3:0:0:0:
394,240,66920,5,0,3:0:0:0:
211,337,67071,1,8,0:0:0:0:
81,200,67299,1,8,0:0:0:0:
23,250,67374,2,0,P|99:246|136:194,1,100.044996946869,0|0,3:0|3:0,0:0:0:0:
149,34,67677,1,8,0:0:0:0:
183,105,67829,5,0,0:0:0:0:
379,179,67980,1,0,3:0:0:0:
309,142,68132,5,0,3:0:0:0:
206,314,68283,2,0,L|323:271,1,100.044996946869,8|0,0:0|0:0,0:0:0:0:
366,206,68511,1,8,0:0:0:0:
430,239,68586,2,0,L|406:367,1,100.044996946869,0|0,3:0|3:0,0:0:0:0:
110,280,68890,2,0,P|173:227|281:290,1,178.117498641071,8|0,0:0|0:0,0:0:0:0:
168,363,69193,6,0,P|193:267|219:120,1,206.167490405108,4|0,3:1|0:0,0:0:0:0:
122,67,69496,1,8,0:0:0:0:
328,195,69723,1,8,0:0:0:0:
316,118,69799,1,0,3:0:0:0:
400,228,69950,1,0,3:0:0:0:
247,351,70102,2,0,L|138:324,1,93.9674955551264,8|0,0:0|0:0,0:0:0:0:
49,284,70405,6,0,P|83:269|99:245,1,54.6975002086544,0|0,3:0|0:0,0:0:0:0:
114,88,70556,1,0,3:0:0:0:
226,270,70708,2,0,P|253:270|277:259,1,54.6975002086544,8|0,0:0|0:0,0:0:0:0:
223,39,70935,1,8,0:0:0:0:
191,107,71011,2,0,P|221:142|249:213,1,100.044996946869,0|0,3:0|3:0,0:0:0:0:
442,316,71314,2,0,P|396:311|326:280,1,100.044996946869,8|0,0:0|0:0,0:0:0:0:
386,85,71617,6,0,P|362:110|328:120,1,54.6975002086544,4|0,3:2|0:0,0:0:0:0:
223,39,71768,1,0,3:0:0:0:
241,289,71920,6,0,P|213:267|200:234,1,54.6975002086544,8|0,0:0|0:0,0:0:0:0:
269,132,72071,1,2,0:0:0:0:
272,171,72147,1,8,0:0:0:0:
212,219,72223,2,0,P|161:180|111:171,1,109.395000417309,0|0,3:0|3:0,0:0:0:0:
272,362,72526,2,0,P|319:326|367:315,1,93.9674955551264,8|0,0:0|0:0,0:0:0:0:
463,323,72829,5,4,3:2:0:0:
416,249,72980,5,0,3:0:0:0:
507,105,73132,1,8,0:0:0:0:
480,189,73283,5,0,3:0:0:0:
262,136,73435,1,0,3:0:0:0:
361,84,73586,1,8,0:0:0:0:
377,109,73662,1,8,0:0:0:0:
372,181,73738,1,8,0:0:0:0:
351,202,73814,1,8,0:0:0:0:
315,201,73890,1,8,0:0:0:0:
287,217,73965,1,8,0:0:0:0:
209,186,74041,6,0,P|268:276|294:364,1,164.092500625963,4|0,3:2|0:0,0:0:0:0:
385,380,74344,1,8,0:0:0:0:
146,90,74647,1,0,3:0:0:0:
238,116,74799,1,0,3:0:0:0:
79,285,74950,2,0,L|191:261,1,93.9674955551264,8|0,0:0|0:0,0:0:0:0:
269,330,75253,5,4,3:2:0:0:
359,289,75405,1,0,3:0:0:0:
205,150,75556,1,8,0:0:0:0:
287,206,75708,1,0,3:0:0:0:
302,240,75783,1,8,0:0:0:0:
247,292,75859,1,0,3:0:0:0:
150,213,76011,1,0,3:0:0:0:
298,29,76162,2,0,L|401:48,1,93.9674955551264,8|0,0:0|0:0,0:0:0:0:
450,111,76465,6,0,P|471:138|479:170,1,54.6975002086544,4|0,3:2|0:0,0:0:0:0:
375,325,76617,2,0,P|396:298|403:266,1,54.6975002086544
286,128,76768,6,0,P|304:149|312:180,1,54.6975002086544,8|0,0:0|0:0,0:0:0:0:
215,296,76920,1,0,3:0:0:0:
402,203,77071,6,0,P|400:230|384:258,1,54.6975002086544,8|0,0:0|0:0,0:0:0:0:
234,274,77223,1,0,3:0:0:0:
378,366,77374,6,0,P|350:365|321:350,1,54.6975002086544,8|0,0:0|0:0,0:0:0:0:
287,203,77526,1,0,3:0:0:0:
153,348,77677,5,8,0:0:0:0:
113,225,77829,1,0,3:0:0:0:
217,72,77980,5,8,0:0:0:0:
185,212,78132,1,2,0:0:0:0:
128,128,78283,5,0,3:0:0:0:
143,143,78435,1,4,0:3:0:0:
123,148,78586,1,4,0:3:0:0:
258,27,78738,6,2,L|461:-4,1,181.390004290077,6|2,3:1|0:1,0:1:0:0:
482,213,79193,1,0,3:0:0:0:
428,154,79344,1,0,0:0:0:0:
315,133,79496,2,0,L|404:148,1,90.6950021450387,0|0,3:0|0:0,0:0:0:0:
492,311,79799,1,2,3:1:0:0:
422,272,79950,1,0,0:0:0:0:
317,376,80102,5,0,3:0:0:0:
344,302,80253,1,0,0:0:0:0:
227,228,80405,2,0,P|251:271|270:319,1,90.6950021450387,0|0,3:0|0:0,0:0:0:0:
343,138,80708,2,0,P|319:181|300:229,1,90.6950021450387,2|0,3:1|0:0,0:0:0:0:
218,43,81011,1,0,3:0:0:0:
218,43,81314,6,0,L|62:87,1,136.042503217558,6|0,3:1|0:0,0:0:0:0:
61,167,81617,1,0,3:0:0:0:
124,221,81768,1,0,0:0:0:0:
154,78,81920,2,0,L|124:229,1,136.042503217558,0|0,3:0|0:0,0:0:0:0:
177,351,82223,2,0,P|192:331|221:312,1,45.3475010725193,2|0,3:1|0:0,0:0:0:0:
277,367,82374,2,0,P|262:347|233:328,1,45.3475010725193
307,232,82526,5,0,3:0:0:0:
336,298,82627,1,8,0:1:0:0:
410,312,82728,1,8,0:1:0:0:
461,237,82829,2,0,L|419:139,1,60.4633347633591,0|8,3:0|0:0,0:0:0:0:
389,91,83031,1,8,0:0:0:0:
322,128,83132,1,0,3:0:0:0:
249,64,83233,2,0,P|226:51|160:67,1,60.4633347633591,8|0,0:0|0:0,0:0:0:0:
155,219,83435,2,0,P|128:244|82:255,1,71.0599991325684,8|8,0:0|0:0,0:0:0:0:
203,125,83738,6,0,P|261:158|289:216,1,90.6950021450387,6|0,3:1|0:0,0:0:0:0:
280,348,84041,1,0,3:0:0:0:
237,276,84193,1,0,0:0:0:0:
395,328,84344,2,0,P|337:295|309:237,1,90.6950021450387,0|0,3:0|0:0,0:0:0:0:
399,121,84647,2,0,P|385:149|361:177,1,45.3475010725193,0|0,3:0|0:0,0:0:0:0:
465,70,84799,2,0,P|479:98|503:126,1,45.3475010725193
389,42,84950,1,0,3:0:0:0:
311,90,85102,5,0,0:0:0:0:
143,21,85253,1,0,3:0:0:0:
196,79,85405,5,0,0:0:0:0:
114,161,85556,5,0,3:0:0:0:
197,342,85708,1,8,0:0:0:0:
320,196,85859,1,4,3:2:0:0:
238,217,86011,5,0,0:0:0:0:
303,56,86162,1,4,3:2:0:0:
451,305,86314,5,8,0:0:0:0:
461,110,86465,2,0,L|431:312,1,192.142505423945,6|0,3:1|0:0,0:0:0:0:
349,335,86768,1,8,0:0:0:0:
223,68,86970,1,8,0:0:0:0:
292,133,87071,2,0,P|238:89|112:158,1,192.142505423945,4|0,3:2|0:0,0:0:0:0:
124,205,87374,1,6,3:1:0:0:
195,126,87526,1,2,0:1:0:0:
343,323,87677,5,4,3:2:0:0:
343,323,87980,6,0,P|391:309|424:272,1,78.0724975578519,8|0,3:1|0:0,0:0:0:0:
214,204,88132,2,0,P|238:234|272:251,1,78.0724975578519,10|0,3:1|0:0,0:0:0:0:
278,53,88283,2,0,P|274:91|287:128,1,78.0724975578519,10|0,3:1|0:0,0:0:0:0:
442,6,88435,2,0,P|412:31|396:66,1,78.0724975578519,10|0,3:1|0:0,0:0:0:0:
421,177,88586,5,0,0:0:0:0:
