osu file format v14

[General]
AudioFilename: audio.mp3
AudioLeadIn: 0
PreviewTime:63056
Countdown: 0
SampleSet: Soft
StackLeniency: 1
Mode: 0
LetterboxInBreaks: 0
WidescreenStoryboard: 1

[Editor]
DistanceSpacing: 0.4
BeatDivisor: 3
GridSize: 32
TimelineZoom: 3

[Metadata]
Title:Namae no Nai Ao (TV Size)
TitleUnicode:名前のない青 (TV Size)
Artist:Kami-sama, I have noticed
ArtistUnicode:神様、僕は気づいてしまった
Creator:Ryuusei Aika
Version:Reform's Extreme
Source:映像研には手を出すな!
Tags:Agatsu Kowari kanor Derandom Otaku DeRandom_Otaku Ren SMOKELIND Reform Kujinn Japanese anime ending theme ed rock j-rock jrock male vocal motion pictures club アニメ エンディング エンディングテーマ Keep Your Hands Off Eizouken! Eizouken ni wa ha te wo dasu na! na 神僕 Kamiboku Kami-sama kami sama boku kizuite shimatta 神啊、我已經察覺到了 どこのだれか 東野へいと 和泉りゅーしん 蓮
BeatmapID:2288381
BeatmapSetID:1094943

[Difficulty]
HPDrainRate:5
CircleSize:3.6
OverallDifficulty:9
ApproachRate:9.2
SliderMultiplier:1.9
SliderTickRate:1

[Events]
//Background and Video events
0,0,"BG.jpg",0,0
Video,72,"video.mp4"
//Break Periods
2,40292,44370
//Storyboard Layer 0 (Background)
//Storyboard Layer 1 (Fail)
//Storyboard Layer 2 (Pass)
//Storyboard Layer 3 (Foreground)
//Storyboard Layer 4 (Overlay)
//Storyboard Sound Samples

[TimingPoints]
93,303.030303030303,4,2,1,25,1,0
396,-100,4,2,1,30,0,0
547,-100,4,2,1,35,0,0
699,-100,4,2,1,40,0,0
850,-100,4,2,1,45,0,0
1002,-100,4,2,1,50,0,0
1153,-100,4,2,1,55,0,0
1305,-95.2380952380951,4,2,1,60,0,0
5699,-95.2380952380951,4,2,0,60,0,0
6153,-95.2380952380951,4,2,1,60,0,0
11002,-133.333333333333,4,2,1,40,0,0
20623,-133.333333333333,4,2,1,5,0,0
20699,-117.647058823529,4,2,1,50,0,0
29941,-117.647058823529,4,2,0,50,0,0
30396,-111.111111111111,4,2,1,50,0,0
39183,272.727272727273,4,2,1,50,1,0
39183,-111.111111111111,4,2,1,50,0,0
39455,318.725099601594,4,2,0,70,1,0
39455,-111.111111111111,4,2,0,70,0,0
39773,266.666666666667,4,2,0,70,1,0
39773,-111.111111111111,4,2,0,70,0,0
40092,303.030303030303,4,2,1,30,1,0
44940,-99.9999999999999,4,2,1,60,0,0
46153,312.5,4,2,1,60,1,0
46153,-99.9999999999999,4,2,1,60,0,0
47091,285.714285714286,4,2,1,60,1,0
47091,-99.9999999999999,4,2,1,60,0,0
47376,279.06976744186,4,2,1,60,1,0
47934,304.568527918782,4,2,1,60,1,0
47934,-99.9999999999999,4,2,1,60,0,0
48390,394.736842105263,4,2,1,60,1,0
48390,-99.9999999999999,4,2,1,60,0,0
48587,303.030303030303,4,2,1,50,1,0
48587,-200,4,2,1,50,0,0
49799,-90.9090909090909,4,2,1,55,0,0
58814,-90.9090909090909,4,2,0,55,0,0
58890,-90.9090909090909,4,2,1,55,0,0
59041,-90.9090909090909,4,2,0,55,0,0
59193,-90.9090909090909,4,2,1,55,0,0
61314,-90.9090909090909,4,2,1,60,0,0
64268,-90.9090909090909,4,2,1,5,0,0
64344,-90.9090909090909,4,2,1,70,0,1
78435,-90.9090909090909,4,2,0,50,0,1
78738,-100,4,2,1,60,0,0
87071,-100,4,2,1,70,0,0
87980,-100,4,2,1,80,0,0

[Colours]
Combo1 : 128,128,255
Combo2 : 0,128,255

[HitObjects]
256,192,93,12,0,1153,0:0:0:0:
82,54,1305,6,0,B|137:33|197:70|152:85|212:121|276:99,1,199.499993911743,6|0,3:1|3:0,0:0:0:0:
399,32,1759,2,0,P|385:92|377:165,1,99.7499969558717,0|0,0:0|3:0,0:0:0:0:
499,315,2062,1,0,0:0:0:0:
499,315,2138,1,0,0:0:0:0:
499,315,2214,6,0,P|491:265|479:217,1,99.7499969558717,2|0,3:1|0:0,0:0:0:0:
324,349,2517,1,0,3:0:0:0:
207,187,2668,2,0,P|214:137|226:89,1,99.7499969558717,0|0,0:0|3:0,0:0:0:0:
383,250,2971,1,0,0:0:0:0:
196,346,3123,2,0,P|148:320|79:314,1,99.7499969558717,0|0,3:0|0:0,0:0:0:0:
312,156,3426,2,0,P|360:130|429:124,1,99.7499969558717,0|0,3:0|0:0,0:0:0:0:
104,210,3729,6,0,P|53:172|83:51,1,199.499993911743,6|0,3:1|3:0,0:0:0:0:
272,11,4183,1,0,0:0:0:0:
272,11,4335,2,0,P|259:66|250:120,1,99.7499969558717,0|0,3:0|0:0,0:0:0:0:
99,309,4638,6,0,P|90:259|78:211,1,99.7499969558717,2|0,3:1|0:0,0:0:0:0:
294,303,4941,1,0,3:0:0:0:
144,116,5093,2,0,P|152:66|164:18,1,99.7499969558717,0|0,0:0|3:0,0:0:0:0:
376,208,5396,1,2,0:0:0:0:
167,297,5547,1,2,3:1:0:0:
265,120,5699,1,8,0:3:0:0:
366,310,5850,1,8,0:3:0:0:
385,315,5926,1,8,0:3:0:0:
404,320,6002,1,4,0:3:0:0:
423,325,6077,1,4,0:3:0:0:
442,327,6153,6,0,P|478:324|510:308,2,49.8749984779358,6|0|0,3:1|0:0|0:0,0:0:0:0:
221,218,6456,1,0,3:0:0:0:
400,132,6608,1,0,0:0:0:0:
301,355,6759,2,0,P|251:347|207:326,1,99.7499969558717,0|0,3:0|0:0,0:0:0:0:
51,164,7062,6,0,P|71:228|81:292,1,99.7499969558717,0|0,3:0|0:0,0:0:0:0:
284,146,7365,1,0,3:0:0:0:
157,3,7517,2,0,P|137:67|127:131,1,99.7499969558717,0|0,0:0|3:0,0:0:0:0:
212,289,7820,1,0,0:0:0:0:
101,112,7971,2,0,P|58:85|-3:86,1,99.7499969558717,0|0,3:0|0:0,0:0:0:0:
263,234,8274,2,0,P|312:231|353:204,1,99.7499969558717,0|0,3:0|0:0,0:0:0:0:
84,266,8577,6,0,P|103:332|117:380,1,99.7499969558717,4|0,3:2|0:0,0:0:0:0:
225,121,8880,1,2,3:1:0:0:
330,310,9032,1,2,0:1:0:0:
94,143,9183,2,0,P|113:77|127:29,1,99.7499969558717,0|0,3:0|0:0,0:0:0:0:
373,164,9486,6,0,P|427:184|482:198,1,99.7499969558717,0|0,3:0|0:0,0:0:0:0:
170,255,9789,1,2,3:1:0:0:
250,77,9941,1,2,0:1:0:0:
366,301,10093,2,0,P|420:281|475:267,1,99.7499969558717,4|0,3:2|0:0,0:0:0:0:
180,164,10396,2,0,P|126:144|71:130,1,99.7499969558717,6|2,3:1|0:1,0:0:0:0:
349,32,10699,2,0,P|403:12|458:-2,1,99.7499969558717,6|0,3:1|0:0,0:0:0:0:
299,162,11002,6,0,P|282:211|267:314,1,142.500005435944,2|0,0:0|0:0,0:0:0:0:
198,359,11456,2,0,P|160:322|68:331,1,142.500005435944
13,94,12062,6,2,B|70:128|128:96|90:75|160:39|217:74,1,213.750008153916
220,67,12820,2,0,P|203:112|191:161,1,71.2500027179719
348,271,13123,2,0,P|337:236|324:203,1,71.2500027179719
263,381,13426,6,0,P|295:316|433:339,1,213.750008153916,2|0,0:0|0:0,0:0:0:0:
508,196,14183,1,0,0:0:0:0:
344,37,14486,6,0,P|363:88|381:191,1,142.500005435944
277,257,14941,2,0,P|263:297|254:347,1,71.2500027179719
185,177,15244,1,0,0:0:0:0:
106,232,15396,2,0,P|92:192|83:142,1,71.2500027179719
297,19,15850,6,0,P|237:30|125:49,1,142.500005435944,2|0,0:0|0:0,0:0:0:0:
79,58,16305,1,0,0:0:0:0:
300,132,16608,1,0,0:0:0:0:
30,195,16911,6,2,P|85:193|175:320,1,213.750008153916
170,322,17971,1,0,0:0:0:0:
330,379,18274,6,0,P|384:364|484:341,1,142.500005435944,2|0,0:0|0:0,0:0:0:0:
316,345,18729,1,0,0:0:0:0:
505,384,19032,1,0,0:0:0:0:
411,250,19335,6,0,P|396:197|434:119,1,142.500005435944
478,103,19789,2,0,P|432:92|329:68,1,142.500005435944
52,176,20396,6,2,P|70:212|74:296,1,106.875004076958
63,318,20699,6,0,P|107:303|156:299,1,80.750001540184,4|0,3:2|3:0,0:0:0:0:
229,358,21002,1,8,0:0:0:0:
231,234,21153,2,0,P|268:247|308:253,1,80.750001540184,0|8,0:0|0:1,0:0:0:0:
436,346,21456,2,0,P|396:351|358:365,1,80.750001540184,8|8,0:1|0:0,0:0:0:0:
414,259,21759,6,0,P|432:212|393:99,1,161.500003080368,0|8,0:0|0:1,0:0:0:0:
304,27,22214,2,0,P|286:66|286:113,1,80.750001540184,8|0,0:0|0:0,0:0:0:0:
203,182,22517,2,0,P|185:143|185:96,1,80.750001540184,8|8,0:1|0:1,0:0:0:0:
112,41,22820,2,0,P|94:80|94:127,1,80.750001540184,8|0,0:0|0:0,0:0:0:0:
18,234,23123,6,0,P|64:232|106:258,1,80.750001540184,0|0,3:0|3:0,0:0:0:0:
44,319,23426,1,8,0:0:0:0:
148,367,23577,2,0,P|194:369|236:343,1,80.750001540184,0|8,0:0|0:1,0:0:0:0:
284,234,23880,2,0,P|238:232|196:258,1,80.750001540184,8|8,0:1|0:0,0:0:0:0:
363,353,24183,6,0,P|377:279|398:173,1,161.500003080368,0|8,0:0|0:1,0:0:0:0:
377,32,24638,2,0,L|397:128,1,80.750001540184,8|0,0:0|0:0,0:0:0:0:
317,207,24941,1,8,0:1:0:0:
238,77,25092,2,0,L|218:173,1,80.750001540184,0|8,3:0|0:0,0:0:0:0:
276,287,25396,1,0,0:0:0:0:
163,234,25547,6,0,P|117:253|69:251,1,80.750001540184,0|0,3:0|3:0,0:0:0:0:
13,195,25850,1,8,0:0:0:0:
78,102,26002,2,0,P|118:105|154:122,1,80.750001540184,0|8,0:0|0:1,0:0:0:0:
272,173,26305,2,0,P|294:132|293:72,1,80.750001540184,8|8,0:1|0:0,0:0:0:0:
180,0,26608,6,0,P|158:41|159:101,1,80.750001540184,0|8,0:0|0:1,0:0:0:0:
270,73,26911,1,8,0:1:0:0:
162,175,27062,2,0,P|167:214|187:249,1,80.750001540184,8|0,0:0|0:0,0:0:0:0:
276,184,27365,1,8,0:1:0:0:
276,184,27517,1,8,0:1:0:0:
204,340,27668,2,0,P|158:338|126:315,1,80.750001540184,8|0,0:0|0:0,0:0:0:0:
306,259,27971,6,0,P|352:261|384:284,1,80.750001540184,8|0,0:0|3:0,0:0:0:0:
465,370,28274,1,8,0:0:0:0:
470,258,28426,2,0,P|483:209|498:149,1,80.750001540184,0|8,0:0|0:0,0:0:0:0:
351,74,28729,1,0,0:0:0:0:
351,74,28880,2,0,P|361:113|370:155,1,80.750001540184,8|0,0:0|0:0,0:0:0:0:
499,44,29183,6,0,P|464:21|403:19,1,80.750001540184,0|0,3:0|3:0,0:0:0:0:
267,106,29486,1,8,0:0:0:0:
437,100,29638,1,0,0:0:0:0:
437,100,29714,1,8,0:0:0:0:
437,100,29789,1,8,0:0:0:0:
218,174,29941,1,8,0:3:0:0:
453,231,30092,1,8,0:3:0:0:
320,35,30244,1,0,0:0:0:0:
237,264,30396,5,4,3:2:0:0:
237,264,30547,2,0,P|257:219|376:208,1,170.999994781494,0|0,3:0|3:0,0:0:0:0:
343,358,31002,2,0,P|332:307|319:258,1,85.4999973907472,8|0,0:0|0:0,0:0:0:0:
479,186,31305,2,0,P|468:227|459:269,1,85.4999973907472,0|0,3:0|3:0,0:0:0:0:
385,110,31608,5,0,0:0:0:0:
385,110,31759,2,0,P|336:133|246:62,1,170.999994781494,8|0,0:0|3:0,0:0:0:0:
134,9,32214,1,8,0:0:0:0:
134,9,32365,2,0,P|146:61|160:119,1,85.4999973907472,0|0,3:0|0:0,0:0:0:0:
74,190,32668,1,0,3:0:0:0:
234,178,32820,5,4,3:2:0:0:
234,178,32971,2,0,P|208:226|185:365,1,170.999994781494,8|0,0:0|3:0,0:0:0:0:
120,200,33426,2,0,P|75:177|33:177,1,85.4999973907472,12|0,0:0|0:0,0:0:0:0:
278,304,33729,2,0,P|320:300|357:279,1,85.4999973907472,4|4,3:2|3:2,0:0:0:0:
197,97,34032,5,0,0:0:0:0:
197,97,34183,2,0,P|210:143|221:195,1,85.4999973907472,8|0,0:0|3:0,0:0:0:0:
371,83,34486,1,0,0:0:0:0:
371,83,34638,2,0,P|384:37|395:-15,1,85.4999973907472,8|0,0:0|0:0,0:0:0:0:
465,263,34941,1,8,0:0:0:0:
291,162,35093,1,8,0:0:0:0:
473,164,35244,5,4,3:2:0:0:
473,164,35396,2,0,P|420:165|373:275,1,170.999994781494,0|0,3:0|3:0,0:0:0:0:
287,357,35850,2,0,P|240:335|196:331,1,85.4999973907472,8|0,0:0|0:0,0:0:0:0:
102,230,36153,2,0,P|149:208|193:204,1,85.4999973907472,0|0,3:0|0:0,0:0:0:0:
295,97,36456,5,0,0:0:0:0:
295,97,36608,2,0,P|306:163|325:307,1,170.999994781494,8|0,0:0|3:0,0:0:0:0:
415,80,37062,1,8,0:0:0:0:
415,80,37214,2,0,P|458:53|506:56,1,85.4999973907472,0|0,3:0|0:0,0:0:0:0:
485,158,37517,1,0,0:0:0:0:
323,94,37668,5,4,3:2:0:0:
323,94,37820,2,0,P|255:77|146:51,1,170.999994781494,8|0,0:0|3:0,0:0:0:0:
33,13,38274,2,0,P|69:53|74:100,1,85.4999973907472,8|0,0:0|0:0,0:0:0:0:
43,237,38577,2,0,P|7:197|2:150,1,85.4999973907472,4|4,3:2|3:2,0:0:0:0:
177,212,38880,5,0,0:0:0:0:
181,216,39032,2,0,L|161:307,1,85.4999973907472,8|8,0:0|0:0,0:0:0:0:
79,160,39319,1,0,0:0:0:0:
186,93,39455,6,0,L|181:24,2,56.9999982604981,8|8|8,0:3|0:3|0:3,0:0:0:0:
280,190,39773,2,0,L|285:259,2,56.9999982604981,4|4|4,0:3|0:3|0:3,0:0:0:0:
352,83,40092,1,0,0:0:0:0:
212,66,44940,5,4,3:2:0:0:
212,66,45016,1,8,0:1:0:0:
212,66,45092,2,0,L|151:53,1,47.5,8|8,0:1|0:0,0:0:0:0:
62,200,45243,1,0,3:0:0:0:
62,200,45319,1,8,0:1:0:0:
62,200,45395,2,0,L|123:187,1,47.5,8|0,0:0|0:0,0:0:0:0:
229,271,45546,2,0,L|238:331,1,47.5,0|8,3:0|0:1,0:0:0:0:
386,209,45698,2,0,L|393:162,1,47.5,8|8,0:1|0:0,0:0:0:0:
266,42,45849,1,0,3:0:0:0:
313,274,46001,5,8,0:1:0:0:
313,274,46076,1,8,0:1:0:0:
313,274,46153,2,0,P|370:288|428:306,1,95,8|0,0:0|0:0,0:0:0:0:
222,173,46465,2,0,P|211:134|206:98,1,63.3333333333333,8|8,0:0|0:0,0:0:0:0:
208,112,46621,2,0,P|151:126|93:144,1,95,8|0,0:0|3:0,0:0:0:0:
168,364,46934,2,0,L|181:295,1,47.5,8|8,0:1|0:0,0:0:0:0:
33,226,47091,2,0,L|24:175,2,47.5,0|0|0,3:0|0:0|0:0,0:0:0:0:
139,40,47376,5,4,3:2:0:0:
139,40,47655,1,8,0:0:0:0:
437,183,47794,1,8,0:0:0:0:
96,281,47934,1,8,0:0:0:0:
396,55,48086,1,8,0:0:0:0:
259,384,48238,1,8,0:0:0:0:
56,95,48390,1,8,0:0:0:0:
387,166,48587,6,2,P|379:206|369:262,1,95
342,259,49041,2,2,P|350:299|360:355,1,95,0|0,0:0|0:0,0:1:0:0:
375,365,49496,2,2,L|433:377,1,47.5,0|0,0:0|0:0,0:1:0:0:
252,291,49799,6,0,B|201:273|135:316|183:335|127:377|60:357,2,209.000006378174,6|0|0,3:1|3:0|3:0,0:0:0:0:
87,269,50556,1,0,0:0:0:0:
304,366,50708,2,0,P|336:337|337:256,1,104.500003189087,0|0,3:0|0:0,0:0:0:0:
193,85,51011,6,0,P|217:157|247:288,1,209.000006378174,0|0,3:0|3:0,0:0:0:0:
458,104,51465,2,0,P|440:158|422:222,1,104.500003189087,0|0,0:0|3:0,0:0:0:0:
336,24,51768,1,0,0:0:0:0:
203,199,51920,2,0,P|185:145|167:81,1,104.500003189087,0|0,3:0|0:0,0:0:0:0:
313,263,52223,6,0,P|269:311|128:305,1,209.000006378174,4|0,3:2|3:0,0:0:0:0:
37,123,52677,2,0,P|24:184|7:265,1,104.500003189087,0|0,0:0|3:0,0:0:0:0:
202,244,52980,1,0,0:0:0:0:
148,0,53132,2,0,P|158:51|169:102,1,104.500003189087,0|0,3:0|0:0,0:0:0:0:
338,273,53435,6,0,P|391:245|446:241,1,104.500003189087,0|0,3:0|0:0,0:0:0:0:
354,63,53738,2,0,P|301:35|246:31,1,104.500003189087,0|0,3:0|0:0,0:0:0:0:
148,247,54041,2,0,P|199:239|244:214,1,104.500003189087,0|0,3:0|0:0,0:0:0:0:
58,52,54344,2,0,P|49:117|38:202,1,104.500003189087,4|0,3:2|0:0,0:0:0:0:
342,350,54647,6,0,P|332:275|313:125,1,209.000006378174,4|0,3:2|3:0,0:0:0:0:
163,216,55102,1,0,0:0:0:0:
264,43,55253,2,0,P|338:30|443:131,1,209.000006378174,0|0,3:0|3:0,0:0:0:0:
307,290,55708,1,0,0:0:0:0:
214,131,55859,6,0,B|159:106|95:148|137:164|76:205|19:177,1,209.000006378174,0|0,3:0|3:0,0:0:0:0:
180,354,56314,2,0,P|190:286|206:225,1,104.500003189087,0|0,0:0|3:0,0:0:0:0:
59,101,56617,1,0,0:0:0:0:
302,173,56768,2,0,P|292:105|276:44,1,104.500003189087,0|0,3:0|0:0,0:0:0:0:
75,293,57071,6,0,P|15:281|-23:217,1,104.500003189087,4|0,3:2|0:0,0:0:0:0:
178,180,57374,2,0,P|217:244|149:378,2,209.000006378174,0|0|0,3:0|3:0|3:0,0:0:0:0:
57,62,58132,1,0,0:0:0:0:
61,215,58283,5,0,3:0:0:0:
168,54,58435,1,8,0:0:0:0:
289,245,58587,2,0,P|349:233|387:169,1,104.500003189087,0|0,3:0|0:0,0:0:0:0:
389,173,58814,1,8,0:3:0:0:
389,173,58890,2,0,P|380:109|379:45,1,104.500003189087,0|8,0:3|0:3,0:0:0:0:
166,185,59193,2,0,P|163:237|155:288,1,104.500003189087,0|0,3:0|0:0,0:0:0:0:
372,316,59496,6,0,P|419:285|485:293,1,104.500003189087,4|0,3:2|0:0,0:0:0:0:
288,122,59799,1,0,3:0:0:0:
171,249,59950,2,0,P|119:247|77:218,1,104.500003189087,0|0,0:0|3:0,0:0:0:0:
383,39,60253,2,0,P|409:90|402:157,1,104.500003189087,0|0,0:0|3:0,0:0:0:0:
295,278,60556,1,0,0:0:0:0:
131,134,60708,6,0,P|132:82|156:36,1,104.500003189087,4|0,3:2|0:0,0:0:0:0:
183,307,61011,2,0,P|120:322|53:338,1,104.500003189087,0|0,3:0|0:0,0:0:0:0:
324,103,61314,2,2,P|387:118|454:134,1,104.500003189087,2|2,3:1|0:1,0:1:0:0:
170,296,61617,2,2,P|107:311|40:327,1,104.500003189087,2|0,3:1|0:0,0:1:0:0:
454,321,61920,5,0,3:0:0:0:
46,163,62223,1,4,3:2:0:0:
451,46,62526,1,4,3:2:0:0:
27,201,62829,1,4,3:2:0:0:
477,335,63132,5,0,0:0:0:0:
256,192,63208,12,0,64041,0:0:0:0:
245,80,64344,6,0,P|200:48|138:55,1,104.500003189087,14|0,3:1|3:0,0:0:0:0:
40,132,64647,1,8,0:0:0:0:
164,263,64799,1,0,0:0:0:0:
164,263,64874,1,8,0:0:0:0:
164,263,64950,2,0,P|172:197|192:133,1,104.500003189087,0|0,3:0|3:0,0:0:0:0:
386,61,65253,2,0,P|398:111|403:163,1,104.500003189087,8|0,0:0|0:0,0:0:0:0:
291,339,65556,5,0,3:0:0:0:
494,219,65708,1,0,3:0:0:0:
262,131,65859,1,8,0:0:0:0:
414,339,66011,1,0,0:0:0:0:
414,339,66087,1,8,0:0:0:0:
414,339,66162,2,0,P|459:319|517:306,1,104.500003189087,0|0,3:0|3:0,0:0:0:0:
252,203,66465,2,0,P|201:191|153:170,1,104.500003189087,8|0,0:0|0:0,0:0:0:0:
400,79,66768,5,0,3:0:0:0:
298,282,66920,1,0,3:0:0:0:
188,84,67071,1,8,0:0:0:0:
403,181,67223,1,0,0:0:0:0:
403,181,67299,1,8,0:0:0:0:
403,181,67374,2,0,P|419:239|399:300,1,104.500003189087,0|0,3:0|3:0,0:0:0:0:
164,340,67677,1,8,0:0:0:0:
254,145,67829,1,0,0:0:0:0:
354,361,67980,6,0,P|421:374|491:383,1,104.500003189087,0|0,3:0|3:0,0:0:0:0:
202,222,68283,2,0,P|150:229|99:240,1,104.500003189087,8|0,0:0|0:0,0:0:0:0:
99,240,68511,1,8,0:0:0:0:
99,239,68587,1,0,3:0:0:0:
292,369,68738,1,0,3:0:0:0:
285,171,68890,2,0,P|301:104|322:38,1,104.500003189087,8|0,0:0|0:0,0:0:0:0:
508,268,69193,6,0,P|501:333|366:359,1,209.000006378174,6|8,3:1|0:0,0:0:0:0:
129,193,69647,1,0,0:0:0:0:
129,193,69723,1,8,0:0:0:0:
129,193,69799,2,0,P|143:243|155:294,1,104.500003189087,0|0,3:0|3:0,0:0:0:0:
237,58,70102,2,0,P|176:45|125:32,1,104.500003189087,8|0,0:0|0:0,0:0:0:0:
355,261,70405,6,0,P|405:248|456:237,1,104.500003189087,0|0,3:0|3:0,0:0:0:0:
208,150,70708,1,8,0:0:0:0:
390,74,70859,1,0,0:0:0:0:
390,74,70935,1,8,0:0:0:0:
390,74,71011,1,0,3:0:0:0:
304,263,71162,1,0,3:0:0:0:
173,68,71314,2,0,P|121:78|71:91,1,104.500003189087,8|0,0:0|0:0,0:0:0:0:
14,345,71617,6,0,B|73:363|128:335|82:310|154:270|220:297,1,209.000006378174,4|8,3:2|0:0,0:0:0:0:
334,155,72071,1,0,0:0:0:0:
334,155,72147,1,8,0:0:0:0:
334,155,72223,1,0,3:0:0:0:
425,340,72374,1,0,3:0:0:0:
201,214,72526,2,0,P|187:148|210:100,1,104.500003189087,8|0,0:0|0:0,0:0:0:0:
416,59,72829,6,0,P|409:115|400:180,1,104.500003189087,4|0,3:2|3:0,0:0:0:0:
92,323,73132,2,0,P|84:271|78:219,1,104.500003189087,8|0,0:0|0:0,0:0:0:0:
322,307,73435,1,0,3:0:0:0:
322,307,73511,1,0,3:0:0:0:
322,307,73587,2,0,L|390:320,1,52.2500015945435,8|8,0:0|0:0,0:0:0:0:
179,100,73738,1,8,0:0:0:0:
179,100,73814,1,8,0:0:0:0:
179,100,73890,2,0,L|111:113,1,52.2500015945435,8|8,0:0|0:0,0:0:0:0:
436,224,74041,6,0,P|473:145|414:24,1,209.000006378174,4|8,3:2|0:0,0:0:0:0:
262,226,74496,1,0,0:0:0:0:
164,46,74647,1,0,3:0:0:0:
352,130,74799,1,0,3:0:0:0:
144,306,74950,2,0,P|118:254|128:185,1,104.500003189087,8|0,0:0|0:0,0:0:0:0:
410,260,75253,6,0,P|397:325|384:383,1,104.500003189087,4|0,3:2|3:0,0:0:0:0:
252,100,75556,1,8,0:0:0:0:
138,298,75708,1,0,0:0:0:0:
138,298,75783,1,8,0:0:0:0:
138,298,75859,2,0,P|126:246|116:195,1,104.500003189087,0|0,3:0|3:0,0:0:0:0:
412,66,76162,2,0,P|401:117|390:168,1,104.500003189087,8|0,0:0|0:0,0:0:0:0:
143,29,76465,6,0,P|91:28|33:78,1,104.500003189087,4|0,3:2|0:0,0:0:0:0:
346,250,76768,5,8,0:0:0:0:
60,141,76920,1,0,3:0:0:0:
383,93,77071,5,8,0:0:0:0:
58,239,77223,1,0,3:0:0:0:
474,274,77374,5,8,0:0:0:0:
145,150,77526,1,0,3:0:0:0:
447,56,77677,5,8,0:0:0:0:
330,343,77829,1,0,3:0:0:0:
143,30,77980,5,8,0:0:0:0:
497,186,78132,1,0,0:0:0:0:
132,375,78283,1,0,3:0:0:0:
264,22,78435,1,4,0:3:0:0:
264,22,78738,6,2,P|284:88|293:218,1,190,6|2,3:1|0:1,0:1:0:0:
415,93,79193,1,0,3:0:0:0:
315,240,79344,2,0,P|299:294|288:367,1,95,0|0,0:0|3:0,0:0:0:0:
176,105,79647,5,0,0:0:0:0:
176,105,79723,1,0,0:0:0:0:
176,105,79799,2,0,P|128:133|77:139,1,95,2|0,3:1|0:0,0:0:0:0:
315,240,80102,1,0,3:0:0:0:
92,281,80253,2,0,P|45:271|5:246,1,95,0|0,0:0|3:0,0:0:0:0:
268,136,80556,1,0,0:0:0:0:
193,279,80708,2,0,P|180:331|171:401,1,95,2|0,3:1|0:0,0:0:0:0:
89,155,81011,2,0,P|81:108|69:62,1,95,0|2,3:0|0:0,0:0:0:0:
399,46,81314,6,0,P|378:111|349:253,1,190,6|0,3:1|3:0,0:0:0:0:
247,87,81768,1,0,0:0:0:0:
247,87,81920,2,0,P|208:59|162:50,1,95,0|0,3:0|0:0,0:0:0:0:
345,325,82223,2,0,P|391:316|429:288,1,95,2|0,3:1|0:0,0:0:0:0:
197,223,82526,6,0,L|125:238,2,63.3333333333333,0|8|8,3:0|0:1|0:1,0:0:0:0:
361,154,82829,2,0,L|433:169,2,63.3333333333333,0|8|8,3:0|0:0|0:0,0:0:0:0:
258,46,83132,1,0,3:0:0:0:
249,53,83233,2,0,L|265:200,1,126.666666666667,8|8,0:0|0:0,0:0:0:0:
309,330,83637,1,8,0:0:0:0:
318,337,83738,6,0,L|310:397,2,47.5,6|0|0,3:1|0:0|0:0,0:0:0:0:
168,226,84041,1,0,3:0:0:0:
344,166,84193,1,0,0:0:0:0:
175,331,84344,2,0,P|125:324|86:285,1,95,0|0,3:0|0:0,0:0:0:0:
204,90,84647,6,0,P|230:148|238:201,1,95,0|0,3:0|0:0,0:0:0:0:
434,57,84950,1,0,3:0:0:0:
341,217,85102,2,0,P|315:275|307:328,1,95,0|0,0:0|3:0,0:0:0:0:
186,151,85405,1,0,0:0:0:0:
424,265,85556,1,0,3:0:0:0:
182,363,85708,1,8,0:0:0:0:
388,195,85859,1,4,3:2:0:0:
388,195,86162,6,0,P|379:132|367:78,1,95,4|8,3:2|0:0,0:0:0:0:
145,240,86465,1,6,3:1:0:0:
369,336,86617,1,2,0:1:0:0:
215,119,86768,2,0,P|225:56|240:-4,1,126.666666666667,8|8,0:0|0:0,0:0:0:0:
249,9,87071,6,0,P|196:34|145:36,1,95,4|0,3:2|0:0,0:0:0:0:
396,161,87374,2,0,P|442:167|484:189,1,95,6|2,3:1|0:1,0:0:0:0:
176,308,87677,2,0,P|165:250|145:187,1,95,4|0,3:2|0:0,0:0:0:0:
429,338,87980,5,8,3:1:0:0:
33,180,88132,1,10,3:1:0:0:
442,40,88283,1,10,3:1:0:0:
55,264,88435,1,10,3:1:0:0:
