osu file format v14

[General]
AudioFilename: audio.mp3
AudioLeadIn: 0
PreviewTime:63056
Countdown: 0
SampleSet: Soft
StackLeniency: 0.7
Mode: 0
LetterboxInBreaks: 0
WidescreenStoryboard: 1

[Editor]
DistanceSpacing: 0.9
BeatDivisor: 4
GridSize: 4
TimelineZoom: 2.2

[Metadata]
Title:Namae no Nai Ao (TV Size)
TitleUnicode:名前のない青 (TV Size)
Artist:Kami-sama, I have noticed
ArtistUnicode:神様、僕は気づいてしまった
Creator:Ryuusei Aika
Version:Agatsu's Normal
Source:映像研には手を出すな!
Tags:Agatsu Kowari kanor Derandom Otaku DeRandom_Otaku Ren SMOKELIND Reform Kujinn Japanese anime ending theme ed rock j-rock jrock male vocal motion pictures club アニメ エンディング エンディングテーマ Keep Your Hands Off Eizouken! Eizouken ni wa ha te wo dasu na! na 神僕 Kamiboku Kami-sama kami sama boku kizuite shimatta 神啊、我已經察覺到了 どこのだれか 東野へいと 和泉りゅーしん 蓮
BeatmapID:2288376
BeatmapSetID:1094943

[Difficulty]
HPDrainRate:3
CircleSize:3.5
OverallDifficulty:4
ApproachRate:5
SliderMultiplier:1.1
SliderTickRate:1

[Events]
//Background and Video events
0,0,"BG.jpg",0,0
Video,72,"video.mp4"
//Break Periods
2,11202,19486
2,40292,43728
//Storyboard Layer 0 (Background)
//Storyboard Layer 1 (Fail)
//Storyboard Layer 2 (Pass)
//Storyboard Layer 3 (Foreground)
//Storyboard Layer 4 (Overlay)
//Storyboard Sound Samples

[TimingPoints]
93,303.030303030303,4,2,1,25,1,0
93,-100,4,2,1,25,0,0
396,-100,4,2,1,30,0,0
547,-100,4,2,1,35,0,0
699,-100,4,2,1,40,0,0
850,-100,4,2,1,45,0,0
1002,-100,4,2,1,50,0,0
1153,-100,4,2,1,55,0,0
1305,-100,4,2,1,60,0,0
5699,-100,4,2,0,60,0,0
6153,-100,4,2,1,60,0,0
11002,-100,4,2,1,40,0,0
20699,-111.111111111111,4,2,1,50,0,0
29941,-111.111111111111,4,2,0,50,0,0
30396,-111.111111111111,4,2,1,50,0,0
38274,-111.111111111111,4,2,1,50,0,0
39183,272.727272727273,4,2,1,50,1,0
39319,-100,4,2,1,50,0,0
39455,318.725099601594,4,2,0,70,1,0
39455,-100,4,2,0,5,0,0
39773,266.666666666667,4,2,0,70,1,0
40092,303.030303030303,4,2,1,30,1,0
44940,-100,4,2,1,60,0,0
46153,312.5,4,2,1,60,1,0
46153,-100,4,2,1,60,0,0
47091,285.714285714286,4,2,1,60,1,0
47091,-100,4,2,1,60,0,0
47376,279.06976744186,4,2,1,60,1,0
47376,-100,4,2,1,60,0,0
47934,304.568527918782,4,2,1,60,1,0
47934,-100,4,2,1,60,0,0
48390,394.736842105263,4,2,1,60,1,0
48390,-100,4,2,1,60,0,0
48587,303.030303030303,4,2,1,50,1,0
48587,-100,4,2,1,50,0,0
49041,-100,4,1,1,50,0,0
49496,-100,4,2,1,50,0,0
49799,-100,4,2,1,55,0,0
58814,-100,4,2,0,55,0,0
58890,-100,4,2,1,55,0,0
59041,-100,4,2,0,55,0,0
59193,-100,4,2,1,55,0,0
61314,-100,4,2,1,60,0,0
63587,-100,4,1,1,60,0,0
64041,-100,4,2,1,60,0,0
64344,-100,4,2,1,70,0,0
78435,-100,4,2,0,50,0,0
78738,-100,4,2,1,60,0,0
87071,-100,4,2,1,70,0,0
87980,-100,4,2,1,80,0,0

[Colours]
Combo1 : 128,128,255
Combo2 : 0,128,255

[HitObjects]
57,51,1305,6,0,P|126:28|171:39,1,110,6|0,3:1|3:0,0:0:0:0:
197,67,1759,2,0,P|251:72|301:50,1,110
334,14,2214,1,2,3:1:0:0:
430,34,2517,1,0,3:0:0:0:
430,34,2668,2,0,P|476:88|473:133,1,110
440,158,3123,2,0,L|432:284,1,110,0|0,3:0|3:0,0:0:0:0:
466,360,3729,6,0,P|403:376|352:358,1,110,6|0,3:1|3:0,0:0:0:0:
320,336,4183,1,0,0:0:0:0:
267,258,4486,1,0,0:0:0:0:
267,258,4638,2,0,P|204:242|153:260,1,110,2|0,3:1|3:0,0:0:0:0:
117,274,5093,2,0,L|117:151,1,110,0|2,0:0|0:0,0:0:0:0:
142,121,5547,1,2,3:1:0:0:
179,29,5850,1,8,0:3:0:0:
83,4,6153,6,0,P|17:26|-5:78,1,110,6|0,3:1|3:0,0:0:0:0:
6,107,6608,2,0,L|12:237,1,110
6,265,7062,1,0,3:0:0:0:
43,356,7365,1,0,3:0:0:0:
43,356,7517,2,0,P|101:367|150:347,1,110
186,318,7971,2,0,L|306:330,1,110,0|0,3:0|3:0,0:0:0:0:
384,372,8577,6,0,P|465:368|495:333,1,110,4|2,3:2|3:1,0:0:0:0:
507,307,9032,2,0,L|499:189,1,110,2|0,0:1|0:0,0:0:0:0:
495,148,9486,1,0,3:0:0:0:
415,88,9789,1,2,3:1:0:0:
415,88,9941,2,0,P|352:74|297:98,1,110,2|0,0:1|0:0,0:0:0:0:
270,117,10396,1,6,3:1:0:0:
312,206,10699,1,6,3:1:0:0:
276,298,11002,5,2,0:0:0:0:
17,370,20699,6,0,L|26:251,1,98.9999969787598,4|8,3:2|0:0,0:0:0:0:
34,228,21153,1,0,0:0:0:0:
100,169,21456,1,8,0:1:0:0:
183,199,21759,2,0,P|228:213|288:200,1,98.9999969787598,0|8,0:0|0:1,0:0:0:0:
316,181,22214,1,8,0:0:0:0:
399,211,22517,1,8,0:1:0:0:
478,170,22820,1,8,0:0:0:0:
492,82,23123,6,0,P|476:35|432:9,1,98.9999969787598,0|8,3:0|0:0,0:0:0:0:
391,11,23577,1,0,0:0:0:0:
312,53,23880,2,0,L|251:51,1,49.4999984893799,8|8,0:1|0:0,0:0:0:0:
227,23,24183,2,0,L|106:32,1,98.9999969787598,0|8,0:0|0:1,0:0:0:0:
83,35,24638,1,8,0:0:0:0:
20,98,24941,1,8,0:1:0:0:
20,98,25092,2,0,P|3:172|13:218,1,98.9999969787598,0|0,3:0|0:0,0:0:0:0:
17,237,25547,6,0,L|132:229,1,98.9999969787598,0|8,3:0|0:0,0:0:0:0:
160,224,26002,1,0,0:0:0:0:
236,178,26305,1,8,0:1:0:0:
313,222,26608,2,0,P|328:273|322:325,1,98.9999969787598,0|8,0:0|0:1,0:0:0:0:
299,355,27062,1,8,0:0:0:0:
210,365,27365,1,8,0:1:0:0:
128,330,27668,1,8,0:0:0:0:
87,250,27971,6,0,P|78:197|100:137,1,98.9999969787598,8|8,0:0|0:0,0:0:0:0:
114,117,28426,1,0,0:0:0:0:
193,77,28729,2,0,P|257:77|301:97,1,98.9999969787598
324,115,29183,2,0,L|320:225,1,98.9999969787598,0|8,3:0|0:0,0:0:0:0:
264,283,29789,2,2,P|255:320|260:364,1,49.4999984893799,8|8,0:0|0:3,0:1:0:0:
268,373,30092,1,8,0:3:0:0:
356,359,30396,6,0,P|441:358|481:333,1,98.9999969787598,4|0,3:2|0:0,0:0:0:0:
501,278,31002,1,8,0:0:0:0:
494,189,31305,1,0,3:0:0:0:
431,126,31608,2,0,L|317:138,1,98.9999969787598
270,200,32214,2,0,L|171:189,1,98.9999969787598,8|0,0:0|0:0,0:0:0:0:
129,174,32668,1,0,3:0:0:0:
129,174,32820,6,0,P|115:117|133:65,1,98.9999969787598,4|0,3:2|0:0,0:0:0:0:
189,17,33426,1,12,0:0:0:0:
278,18,33729,1,4,3:2:0:0:
278,18,33880,2,0,L|282:75,2,49.4999984893799,4|0|8,3:2|0:0|0:0,0:0:0:0:
366,26,34486,2,0,P|445:30|479:60,1,98.9999969787598
480,79,34941,2,0,B|482:149,1,49.4999984893799,8|8,0:0|0:0,0:0:0:0:
505,166,35244,6,0,L|497:284,1,98.9999969787598,4|0,3:2|0:0,0:0:0:0:
464,347,35850,1,8,0:0:0:0:
377,368,36153,1,0,3:0:0:0:
293,337,36456,2,0,P|284:286|305:232,1,98.9999969787598
354,173,37062,2,0,P|363:122|342:68,1,98.9999969787598,8|0,0:0|0:0,0:0:0:0:
316,46,37517,1,0,0:0:0:0:
316,46,37668,6,0,L|179:50,1,98.9999969787598,4|0,3:2|0:0,0:0:0:0:
136,11,38274,1,8,0:0:0:0:
56,50,38577,1,4,3:2:0:0:
44,138,38880,2,0,P|32:197|43:244,1,98.9999969787598,0|8,0:0|0:0,0:0:0:0:
67,275,39319,2,0,L|184:268,1,119
213,215,39773,1,4,0:3:0:0:
307,255,40092,5,0,0:0:0:0:
486,362,44940,6,0,P|505:308|491:251,1,110,4|0,3:2|3:0,0:0:0:0:
457,225,45395,2,0,L|343:233,1,110,8|8,0:0|0:1,0:0:0:0:
305,259,45849,1,0,3:0:0:0:
236,330,46153,1,8,0:0:0:0:
236,330,46309,2,0,P|184:340|110:316,1,110
105,284,46778,2,0,L|97:167,1,110,0|0,3:0|3:0,0:0:0:0:
24,107,47376,6,0,P|18:44|70:9,1,110,4|8,3:2|0:0,0:0:0:0:
147,11,47934,2,0,L|231:20,1,55,8|8,0:0|0:0,0:0:0:0:
239,48,48238,2,0,L|295:43,1,55,8|8,0:0|0:0,0:0:0:0:
333,13,48587,2,2,L|510:29,2,165,0|0|0,0:0|2:0|0:0,0:0:0:0:
346,111,49799,6,0,P|355:173|334:237,1,110,6|0,3:1|3:0,0:0:0:0:
258,268,50405,2,0,L|146:258,1,110,0|0,3:0|3:0,0:0:0:0:
53,229,51011,2,0,P|41:282|50:336,1,110,0|0,3:0|3:0,0:0:0:0:
91,363,51465,2,0,L|200:372,1,110
250,375,51920,1,0,3:0:0:0:
345,348,52223,6,0,P|412:338|445:288,1,110,4|0,3:2|3:0,0:0:0:0:
460,264,52677,2,0,L|454:144,1,110
453,104,53132,1,0,3:0:0:0:
375,42,53435,1,0,3:0:0:0:
281,73,53738,1,0,3:0:0:0:
263,170,54041,1,0,3:0:0:0:
332,240,54344,2,0,L|325:313,1,55,4|0,3:2|0:0,0:0:0:0:
301,337,54647,6,0,P|247:354|186:335,1,110,4|0,3:2|3:0,0:0:0:0:
154,315,55102,1,0,0:0:0:0:
154,315,55253,2,0,L|18:307,1,110,0|0,3:0|3:0,0:0:0:0:
8,216,55859,2,0,P|4:149|39:109,1,110,0|0,3:0|3:0,0:0:0:0:
70,90,56314,2,0,L|192:100,1,110
228,101,56768,1,0,3:0:0:0:
295,173,57071,5,4,3:2:0:0:
222,240,57374,2,0,P|204:298|217:360,1,110,0|0,3:0|3:0,0:0:0:0:
306,371,57980,1,0,3:0:0:0:
390,318,58283,2,0,L|472:324,2,55,0|8|0,3:0|0:0|3:0,0:0:0:0:
351,227,58890,2,0,P|348:197|364:158,1,55,0|8,0:3|0:3,0:0:0:0:
382,132,59193,1,0,3:0:0:0:
467,81,59496,6,0,P|462:25|413:-4,1,110,4|0,3:2|3:0,0:0:0:0:
371,3,59950,1,0,0:0:0:0:
284,51,60253,1,0,0:0:0:0:
259,146,60556,1,0,0:0:0:0:
259,146,60708,2,0,P|272:219|265:277,1,110,4|0,3:2|3:0,0:0:0:0:
228,344,61314,1,2,3:1:0:0:
131,366,61617,1,2,3:1:0:0:
38,330,61920,6,0,P|23:269|35:204,1,110,0|4,3:0|3:2,0:0:0:0:
59,184,62374,1,0,0:0:0:0:
59,184,62526,2,0,L|188:176,1,110,4|4,3:2|3:2,0:0:0:0:
259,217,63132,2,2,B|363:198|330:260|429:237,2,165,0|0|0,0:0|2:0|0:0,0:0:0:0:
168,177,64344,6,0,P|158:116|186:58,1,110,14|8,3:1|0:0,0:0:0:0:
213,41,64799,1,0,0:0:0:0:
213,41,64950,1,0,3:0:0:0:
306,7,65253,1,8,0:0:0:0:
397,44,65556,2,0,P|415:108|403:158,1,110,0|8,3:0|0:0,0:0:0:0:
365,177,66011,2,0,P|336:247|342:322,1,110,0|0,0:0|3:0,0:0:0:0:
352,326,66465,1,8,0:0:0:0:
438,374,66768,6,0,P|497:348|512:286,1,110,0|8,3:0|0:0,0:0:0:0:
504,259,67223,1,0,0:0:0:0:
504,259,67374,2,0,L|512:135,1,110,0|8,3:0|0:0,0:0:0:0:
503,100,67829,1,0,0:0:0:0:
438,32,68132,1,0,3:0:0:0:
438,32,68283,1,8,0:0:0:0:
339,19,68586,1,0,3:0:0:0:
250,63,68890,1,8,0:0:0:0:
217,156,69193,6,0,P|215:246|208:300,1,110,6|8,3:1|0:0,0:0:0:0:
194,311,69647,1,0,0:0:0:0:
194,311,69799,2,0,P|133:326|81:309,1,110,0|8,3:0|0:0,0:0:0:0:
11,251,70405,1,0,3:0:0:0:
15,152,70708,1,8,0:0:0:0:
87,84,71011,1,0,3:0:0:0:
185,85,71314,1,8,0:0:0:0:
257,152,71617,6,0,P|323:167|378:148,1,110,4|8,3:2|0:0,0:0:0:0:
406,133,72071,2,0,L|397:262,1,110,0|0,0:0|3:0,0:0:0:0:
392,292,72526,1,8,0:0:0:0:
326,365,72829,1,4,3:2:0:0:
229,341,73132,1,8,0:0:0:0:
203,245,73435,2,0,L|197:174,1,55,0|8,3:0|0:0,0:0:0:0:
240,163,73738,2,0,L|246:92,1,55,8|8,0:0|0:0,0:0:0:0:
269,65,74041,6,0,L|160:60,1,110,4|8,3:2|0:0,0:0:0:0:
117,33,74496,1,0,0:0:0:0:
117,33,74647,1,0,3:0:0:0:
20,55,74950,1,8,0:0:0:0:
28,153,75253,2,0,L|10:283,1,110,4|8,3:2|0:0,0:0:0:0:
52,352,75859,1,0,3:0:0:0:
149,367,76162,1,8,0:0:0:0:
236,321,76465,6,0,P|309:317|354:335,1,110,4|8,3:2|0:0,0:0:0:0:
378,364,76920,1,0,3:0:0:0:
378,364,77071,2,0,P|430:378|484:371,1,110,8|8,0:0|0:0,0:0:0:0:
487,272,77677,1,8,0:0:0:0:
512,179,77980,1,8,0:0:0:0:
512,179,78132,2,0,P|521:120|492:65,1,110,0|4,0:0|0:3,0:0:0:0:
471,43,78586,1,4,0:3:0:0:
471,43,78738,6,2,L|341:60,1,110,6|2,3:1|0:1,0:1:0:0:
312,62,79193,1,0,3:0:0:0:
270,151,79496,2,0,L|276:217,1,55,0|0,3:0|0:0,0:0:0:0:
302,247,79799,1,2,3:1:0:0:
253,333,80102,1,0,3:0:0:0:
253,333,80253,2,0,P|182:360|125:338,1,110
109,326,80708,2,0,L|122:201,1,110,2|0,3:1|3:0,0:0:0:0:
35,166,81314,6,0,L|24:51,1,110,6|0,3:1|3:0,0:0:0:0:
60,22,81768,2,0,P|125:10|179:30,1,110
207,50,82223,1,2,3:1:0:0:
283,113,82526,1,0,3:0:0:0:
283,113,82677,2,0,P|335:125|388:113,1,110
422,76,83132,1,0,3:0:0:0:
494,143,83435,1,8,0:0:0:0:
442,227,83738,6,0,L|431:359,1,110,6|0,3:1|3:0,0:0:0:0:
388,359,84193,2,0,P|311:369|265:347,1,110
241,329,84647,1,0,3:0:0:0:
149,360,84950,1,0,3:0:0:0:
149,360,85102,2,0,L|161:234,1,110
191,212,85556,2,0,L|267:210,2,55,0|8|4,3:0|0:0|3:2,0:0:0:0:
116,147,86162,6,0,P|58:152|15:120,1,110,4|6,3:2|3:1,0:0:0:0:
4,75,86617,1,2,0:1:0:0:
4,75,86768,2,0,P|35:21|88:3,1,110,8|4,0:0|3:2,0:0:0:0:
178,25,87374,1,6,3:1:0:0:
178,25,87526,2,0,L|299:28,1,110,2|0,0:1|0:0,0:0:0:0:
336,35,87980,2,0,L|339:111,2,55,8|10|10,3:1|3:1|3:1,0:0:0:0:
384,22,88435,1,10,3:1:0:0:
