osu file format v14

[General]
AudioFilename: audio.mp3
AudioLeadIn: 0
PreviewTime: -1
Countdown: 0
SampleSet: Normal
StackLeniency: 0.7
Mode: 1
LetterboxInBreaks: 0
WidescreenStoryboard: 0

[Editor]
Bookmarks: 21950,43893,65836,87779,109722,131665,153608,175550,197493,219436,263322
DistanceSpacing: 0.8
BeatDivisor: 4
GridSize: 4
TimelineZoom: 3.299999

[Metadata]
Title:Defy The legends
TitleUnicode:Defy The legends
Artist:Kamex
ArtistUnicode:Kamex
Creator:Coryn
Version:World Calamity
Source:ポケモン不思議のダンジョン
Tags:gba ds red blue rescue team pokemon pokémon mystery dungeon nintendo gamefreak spike chunsoft arata iiyoshi atsuhiro ishizuna
BeatmapID:1654586
BeatmapSetID:788307

[Difficulty]
HPDrainRate:5
CircleSize:5
OverallDifficulty:7
ApproachRate:10
SliderMultiplier:1.4
SliderTickRate:1

[Events]
//Background and Video events
0,0,"Rayquaza.png",0,0
//Break Periods
//Storyboard Layer 0 (Background)
//Storyboard Layer 1 (Fail)
//Storyboard Layer 2 (Pass)
//Storyboard Layer 3 (Foreground)
//Storyboard Sound Samples

[TimingPoints]
8,342.857142857143,4,1,0,100,1,0
21950,-125,4,1,0,50,0,0
26236,-121.951219512195,4,1,0,50,0,0
28979,-119.047619047619,4,1,0,50,0,0
30350,-116.279069767442,4,1,0,50,0,0
31722,-113.636363636364,4,1,0,50,0,0
33093,-116.279069767442,4,1,0,50,0,0
33265,-119.047619047619,4,1,0,50,0,0
33436,-121.951219512195,4,1,0,50,0,0
33608,-125,4,1,0,50,0,0
37208,-121.951219512195,4,1,0,50,0,0
39950,-119.047619047619,4,1,0,50,0,0
41322,-116.279069767442,4,1,0,50,0,0
42693,-111.111111111111,4,1,0,80,0,0
42865,-106.382978723404,4,1,0,80,0,0
43036,-102.040816326531,4,1,0,80,0,0
43208,-98.0392156862745,4,1,0,80,0,0
43379,-94.3396226415094,4,1,0,80,0,0
43550,-90.9090909090909,4,1,0,80,0,0
43722,-87.719298245614,4,1,0,90,0,0
43893,-83.3333333333333,4,1,0,100,0,1
44236,-95.2380952380952,4,1,0,90,0,1
66179,-100,4,1,0,90,0,0
87608,-101.010101010101,4,1,0,80,0,0
87693,-102.040816326531,4,1,0,70,0,0
87779,-103.092783505155,4,1,0,60,0,0
87951,-105.263157894737,4,1,0,50,0,0
90008,-104.166666666667,4,1,0,60,0,0
90093,-103.092783505155,4,1,0,70,0,0
90179,-102.040816326531,4,1,0,80,0,0
90351,-100,4,1,0,80,0,0
90694,-98.0392156862745,4,1,0,80,0,0
92065,-96.1538461538461,4,1,0,80,0,0
94808,-94.3396226415094,4,1,0,80,0,0
96179,-92.5925925925926,4,1,0,80,0,0
97551,-90.9090909090909,4,1,0,80,0,0
98750,-91.743119266055,4,1,0,80,0,0
98922,-92.5925925925926,4,1,0,80,0,0
99094,-93.4579439252336,4,1,0,80,0,0
99265,-94.3396226415094,4,1,0,80,0,0
100294,-92.5925925925926,4,1,0,80,0,0
101665,-90.9090909090909,4,1,0,80,0,0
103037,-89.2857142857143,4,1,0,80,0,0
103894,-88.4955752212389,4,1,0,80,0,0
103979,-87.719298245614,4,1,0,80,0,0
104065,-86.9565217391304,4,1,0,80,0,0
104151,-86.2068965517241,4,1,0,80,0,0
104237,-85.4700854700855,4,1,0,80,0,0
104408,-84.7457627118644,4,1,0,80,0,0
105608,-84.0336134453781,4,1,0,95,0,0
109893,-83.3333333333333,4,1,0,90,0,0
132008,-84.7457627118644,4,1,0,75,0,0
134408,-86.2068965517241,4,1,0,75,0,0
137150,-87.719298245614,4,1,0,75,0,0
139893,-89.2857142857143,4,1,0,75,0,0
142636,-90.9090909090909,4,1,0,75,0,0
145379,-92.5925925925926,4,1,0,75,0,0
148122,-94.3396226415094,4,1,0,75,0,0
150865,-96.1538461538461,4,1,0,75,0,0
153608,-96.1538461538461,4,1,0,75,0,1
153950,-95.2380952380952,4,1,0,90,0,1
175893,-100,4,1,0,70,0,0
195779,-100,4,1,0,80,0,0
195950,-100,4,1,0,90,0,0
197665,-100,4,1,0,70,0,0
197836,-102.941176470588,4,1,0,70,0,0
198008,-106.060606060606,4,1,0,70,0,0
198179,-109.375,4,1,0,70,0,0
198350,-112.903225806452,4,1,0,70,0,0
198522,-116.666666666667,4,1,0,70,0,0
198693,-120.689655172414,4,1,0,70,0,0
198865,-125,4,1,0,70,0,0
207779,-121.951219512195,4,1,0,75,0,0
207950,-119.047619047619,4,1,0,75,0,0
208122,-116.279069767442,4,1,0,75,0,0
208293,-113.636363636364,4,1,0,75,0,0
208465,-111.111111111111,4,1,0,90,0,0
212579,-109.89010989011,4,1,0,80,0,1
212665,-108.695652173913,4,1,0,80,0,1
212750,-107.52688172043,4,1,0,80,0,1
212836,-106.382978723404,4,1,0,80,0,1
212922,-105.263157894737,4,1,0,80,0,1
213008,-104.166666666667,4,1,0,80,0,1
213093,-103.092783505155,4,1,0,80,0,1
213179,-102.040816326531,4,1,0,80,0,1
213265,-101.010101010101,4,1,0,80,0,1
213350,-100,4,1,0,80,0,1
213436,-99.009900990099,4,1,0,80,0,1
213522,-98.0392156862745,4,1,0,80,0,1
213608,-97.0873786407767,4,1,0,80,0,1
213693,-96.1538461538461,4,1,0,80,0,1
213779,-95.2380952380952,4,1,0,80,0,1
213865,-94.3396226415094,4,1,0,80,0,1
213950,-93.4579439252336,4,1,0,80,0,1
216693,-92.7947598253275,4,1,0,80,0,1
216779,-92.1409214092141,4,1,0,80,0,1
216865,-91.4962325080732,4,1,0,80,0,1
216950,-90.8605024051309,4,1,0,80,0,1
217036,-90.2335456475584,4,1,0,80,0,1
217122,-89.6151818661044,4,1,0,80,0,1
217208,-89.0052356020942,4,1,0,80,0,1
217293,-88.4035361414457,4,1,0,80,0,1
217379,-87.8099173553719,4,1,0,80,0,1
217465,-87.2242175474602,4,1,0,80,0,1
217550,-86.6462793068298,4,1,0,80,0,1
217636,-86.0759493670886,4,1,0,80,0,1
217722,-85.513078470825,4,1,0,80,0,1
217808,-84.9575212393803,4,1,0,80,0,1
217893,-84.4091360476664,4,1,0,80,0,1
217979,-83.8677849037987,4,1,0,80,0,1
218065,-83.3333333333333,4,1,0,80,0,1
219779,-90.9090909090909,4,1,0,80,0,0
219950,-95.2380952380952,4,1,0,80,0,0
220122,-100,4,1,0,80,0,0
220208,-101.010101010101,4,1,0,80,0,0
220293,-102.040816326531,4,1,0,80,0,0
220465,-104.166666666667,4,1,0,80,0,0
220636,-105.263157894737,4,1,0,80,0,0
241722,-106.382978723404,4,1,0,65,0,0
244122,-107.52688172043,4,1,0,65,0,0
246865,-108.695652173913,4,1,0,65,0,0
249608,-109.89010989011,4,1,0,65,0,0
252350,-111.111111111111,4,1,0,65,0,0
255093,-112.359550561798,4,1,0,65,0,0
257836,-113.636363636364,4,1,0,65,0,0
260579,-114.942528735632,4,1,0,65,0,0

[HitObjects]
364,192,21950,5,0,0:0:0:0:
304,172,22122,1,8,0:0:0:0:
304,172,22293,1,0,0:0:0:0:
304,172,22465,1,0,0:0:0:0:
304,172,22636,1,8,0:0:0:0:
336,204,22808,1,8,0:0:0:0:
336,204,22979,1,0,0:0:0:0:
336,204,23150,1,8,0:0:0:0:
336,204,23493,1,8,0:0:0:0:
424,252,23665,1,0,0:0:0:0:
424,252,23836,1,0,0:0:0:0:
424,252,24008,1,8,0:0:0:0:
424,252,24179,1,8,0:0:0:0:
424,252,24350,1,0,0:0:0:0:
424,252,24522,1,0,0:0:0:0:
148,184,24865,1,8,0:0:0:0:
148,184,25036,1,0,0:0:0:0:
148,184,25208,1,0,0:0:0:0:
148,184,25379,1,8,0:0:0:0:
148,184,25550,1,0,0:0:0:0:
184,128,25722,1,0,0:0:0:0:
184,128,25893,1,8,0:0:0:0:
120,100,26236,1,8,0:0:0:0:
120,100,26408,1,0,0:0:0:0:
120,100,26579,1,0,0:0:0:0:
120,100,26750,1,8,0:0:0:0:
120,100,26922,1,0,0:0:0:0:
120,100,27093,1,0,0:0:0:0:
120,100,27265,1,8,0:0:0:0:
392,212,27350,1,0,0:0:0:0:
120,100,27436,1,0,0:0:0:0:
160,112,27608,1,8,0:0:0:0:
160,112,27779,1,0,0:0:0:0:
160,112,27950,1,0,0:0:0:0:
160,112,28122,1,8,0:0:0:0:
160,112,28293,1,8,0:0:0:0:
160,112,28465,1,0,0:0:0:0:
160,112,28636,1,8,0:0:0:0:
160,112,28979,1,8,0:0:0:0:
160,112,29150,1,0,0:0:0:0:
160,112,29322,1,0,0:0:0:0:
160,112,29493,1,8,0:0:0:0:
160,112,29665,1,8,0:0:0:0:
160,112,29836,1,0,0:0:0:0:
160,112,30008,1,0,0:0:0:0:
160,112,30350,1,8,0:0:0:0:
160,112,30522,1,0,0:0:0:0:
160,112,30693,1,0,0:0:0:0:
160,112,30865,1,8,0:0:0:0:
160,112,31036,1,0,0:0:0:0:
160,112,31208,1,0,0:0:0:0:
160,112,31379,1,8,0:0:0:0:
196,128,31722,1,8,0:0:0:0:
196,128,31893,1,0,0:0:0:0:
196,128,32065,1,0,0:0:0:0:
216,296,32150,1,0,0:0:0:0:
196,128,32236,1,8,0:0:0:0:
196,128,32408,1,8,0:0:0:0:
196,128,32579,1,0,0:0:0:0:
196,128,32665,1,0,0:0:0:0:
196,128,32750,1,0,0:0:0:0:
344,156,32808,1,0,0:0:0:0:
48,112,32865,1,0,0:0:0:0:
196,128,32922,1,0,0:0:0:0:
216,144,33093,1,8,0:0:0:0:
216,144,33265,1,0,0:0:0:0:
296,128,33436,1,0,0:0:0:0:
296,128,33608,1,8,0:0:0:0:
296,128,33779,1,8,0:0:0:0:
296,128,33950,1,0,0:0:0:0:
296,128,34122,1,8,0:0:0:0:
296,128,34465,1,8,0:0:0:0:
296,128,34636,1,0,0:0:0:0:
296,128,34808,1,0,0:0:0:0:
296,128,34979,1,8,0:0:0:0:
296,128,35150,1,8,0:0:0:0:
296,128,35322,1,0,0:0:0:0:
296,128,35493,1,0,0:0:0:0:
296,128,35836,1,8,0:0:0:0:
296,128,36008,1,0,0:0:0:0:
296,128,36179,1,0,0:0:0:0:
296,128,36350,1,8,0:0:0:0:
296,128,36522,1,0,0:0:0:0:
296,128,36693,1,0,0:0:0:0:
296,128,36865,1,8,0:0:0:0:
296,128,37208,1,8,0:0:0:0:
296,128,37379,1,0,0:0:0:0:
296,128,37550,1,0,0:0:0:0:
296,128,37722,1,8,0:0:0:0:
296,128,37893,1,0,0:0:0:0:
296,128,38065,1,0,0:0:0:0:
296,128,38236,1,8,0:0:0:0:
216,296,38322,1,0,0:0:0:0:
16,164,38408,1,0,0:0:0:0:
184,128,38579,1,8,0:0:0:0:
184,128,38750,1,0,0:0:0:0:
184,128,38922,1,0,0:0:0:0:
184,128,39093,1,8,0:0:0:0:
184,128,39265,1,8,0:0:0:0:
184,128,39436,1,0,0:0:0:0:
184,128,39608,1,8,0:0:0:0:
184,128,39950,1,8,0:0:0:0:
184,128,40122,1,0,0:0:0:0:
184,128,40293,1,0,0:0:0:0:
184,128,40465,1,8,0:0:0:0:
184,128,40636,1,8,0:0:0:0:
392,212,40722,1,8,0:0:0:0:
184,128,40808,1,0,0:0:0:0:
184,128,40979,1,0,0:0:0:0:
184,128,41322,1,8,0:0:0:0:
184,128,41493,1,0,0:0:0:0:
184,128,41665,1,0,0:0:0:0:
392,212,41750,1,0,0:0:0:0:
184,128,41836,1,8,0:0:0:0:
184,128,42008,1,0,0:0:0:0:
184,128,42179,1,0,0:0:0:0:
392,212,42265,1,0,0:0:0:0:
184,128,42350,1,8,0:0:0:0:
184,128,42693,1,8,0:0:0:0:
184,128,42865,1,0,0:0:0:0:
184,128,43036,1,0,0:0:0:0:
184,128,43208,1,8,0:0:0:0:
184,128,43379,1,0,0:0:0:0:
184,128,43550,1,0,0:0:0:0:
184,128,43722,1,8,0:0:0:0:
184,128,43893,1,4,0:0:0:0:
148,192,44236,1,8,0:0:0:0:
380,216,44408,1,0,0:0:0:0:
380,216,44493,1,8,0:0:0:0:
380,216,44579,1,8,0:0:0:0:
380,216,44665,1,8,0:0:0:0:
380,216,44750,1,0,0:0:0:0:
380,216,44922,1,8,0:0:0:0:
380,216,45093,1,8,0:0:0:0:
460,256,45179,1,8,0:0:0:0:
380,216,45265,1,0,0:0:0:0:
380,216,45436,1,8,0:0:0:0:
380,216,45608,1,8,0:0:0:0:
380,216,45779,1,0,0:0:0:0:
380,216,45865,1,8,0:0:0:0:
380,216,46036,1,8,0:0:0:0:
380,216,46122,1,0,0:0:0:0:
380,216,46208,1,0,0:0:0:0:
380,216,46293,1,8,0:0:0:0:
380,216,46465,1,8,0:0:0:0:
460,256,46550,1,8,0:0:0:0:
380,216,46636,1,0,0:0:0:0:
380,216,46808,1,8,0:0:0:0:
380,216,46979,1,8,0:0:0:0:
380,216,47150,1,0,0:0:0:0:
380,216,47236,1,8,0:0:0:0:
380,216,47322,1,8,0:0:0:0:
380,216,47408,1,8,0:0:0:0:
380,216,47493,1,0,0:0:0:0:
380,216,47665,1,8,0:0:0:0:
380,216,47836,1,8,0:0:0:0:
460,256,47922,1,8,0:0:0:0:
380,216,48008,1,0,0:0:0:0:
300,104,48179,1,8,0:0:0:0:
300,104,48350,1,8,0:0:0:0:
300,104,48522,1,0,0:0:0:0:
300,104,48608,1,8,0:0:0:0:
460,256,48693,1,0,0:0:0:0:
300,104,48779,1,8,0:0:0:0:
300,104,48865,1,0,0:0:0:0:
300,104,48950,1,0,0:0:0:0:
300,104,49036,1,8,0:0:0:0:
300,104,49208,1,8,0:0:0:0:
192,164,49379,1,0,0:0:0:0:
460,256,49465,1,0,0:0:0:0:
192,164,49550,1,8,0:0:0:0:
460,256,49636,1,0,0:0:0:0:
192,164,49722,1,8,0:0:0:0:
180,196,49893,1,0,0:0:0:0:
180,196,49979,1,8,0:0:0:0:
180,196,50065,1,8,0:0:0:0:
180,196,50150,1,8,0:0:0:0:
180,196,50236,1,0,0:0:0:0:
180,196,50408,1,8,0:0:0:0:
180,196,50579,1,8,0:0:0:0:
460,256,50665,1,8,0:0:0:0:
180,196,50750,1,0,0:0:0:0:
180,196,50922,1,8,0:0:0:0:
180,196,51093,1,8,0:0:0:0:
180,196,51265,1,0,0:0:0:0:
180,196,51350,1,8,0:0:0:0:
180,196,51522,1,8,0:0:0:0:
180,196,51608,1,0,0:0:0:0:
180,196,51693,1,0,0:0:0:0:
180,196,51779,1,8,0:0:0:0:
180,196,51950,1,8,0:0:0:0:
180,196,52122,1,0,0:0:0:0:
460,256,52208,1,0,0:0:0:0:
180,196,52293,1,8,0:0:0:0:
180,196,52465,1,8,0:0:0:0:
180,196,52636,1,0,0:0:0:0:
180,196,52722,1,8,0:0:0:0:
180,196,52808,1,8,0:0:0:0:
180,196,52893,1,8,0:0:0:0:
180,196,52979,1,0,0:0:0:0:
460,256,53065,1,0,0:0:0:0:
180,196,53150,1,8,0:0:0:0:
180,196,53322,1,8,0:0:0:0:
460,256,53408,1,8,0:0:0:0:
180,196,53493,1,0,0:0:0:0:
180,196,53665,1,8,0:0:0:0:
180,196,53836,5,8,0:0:0:0:
180,196,54008,1,0,0:0:0:0:
180,196,54093,1,8,0:0:0:0:
180,196,54179,1,8,0:0:0:0:
180,196,54265,1,8,0:0:0:0:
180,196,54350,1,0,0:0:0:0:
180,196,54522,1,8,0:0:0:0:
460,256,54608,1,0,0:0:0:0:
180,196,54693,1,8,0:0:0:0:
180,196,54779,1,8,0:0:0:0:
304,148,54865,5,0,0:0:0:0:
304,148,55036,1,8,0:0:0:0:
304,148,55208,1,8,0:0:0:0:
304,148,55379,1,0,0:0:0:0:
304,148,55465,1,8,0:0:0:0:
304,148,55550,1,8,0:0:0:0:
304,148,55636,1,8,0:0:0:0:
304,148,55722,1,0,0:0:0:0:
460,228,55893,1,8,0:0:0:0:
460,228,56065,1,8,0:0:0:0:
460,256,56150,1,8,0:0:0:0:
456,300,56236,1,0,0:0:0:0:
456,300,56408,1,8,0:0:0:0:
456,300,56579,1,8,0:0:0:0:
456,300,56750,1,0,0:0:0:0:
456,300,56836,1,8,0:0:0:0:
456,300,57008,1,8,0:0:0:0:
456,300,57093,1,0,0:0:0:0:
292,100,57179,1,0,0:0:0:0:
292,100,57265,1,8,0:0:0:0:
292,100,57436,1,8,0:0:0:0:
292,100,57608,1,0,0:0:0:0:
460,256,57693,1,0,0:0:0:0:
292,100,57779,1,8,0:0:0:0:
292,100,57950,1,8,0:0:0:0:
324,152,58122,1,0,0:0:0:0:
324,152,58208,1,8,0:0:0:0:
324,152,58293,1,8,0:0:0:0:
324,152,58379,1,8,0:0:0:0:
324,152,58465,1,0,0:0:0:0:
324,152,58636,1,8,0:0:0:0:
324,152,58808,1,8,0:0:0:0:
460,256,58893,1,8,0:0:0:0:
324,152,58979,1,0,0:0:0:0:
324,152,59150,1,8,0:0:0:0:
460,256,59236,1,8,0:0:0:0:
324,152,59322,1,8,0:0:0:0:
324,152,59493,1,0,0:0:0:0:
324,152,59579,1,8,0:0:0:0:
460,256,59665,1,0,0:0:0:0:
324,152,59750,1,8,0:0:0:0:
324,152,59836,1,0,0:0:0:0:
324,152,59922,1,0,0:0:0:0:
324,152,60008,1,8,0:0:0:0:
324,152,60179,1,8,0:0:0:0:
228,208,60350,5,8,0:0:0:0:
228,208,60436,1,8,0:0:0:0:
228,208,60522,1,0,0:0:0:0:
228,208,60693,1,8,0:0:0:0:
228,208,60779,1,8,0:0:0:0:
228,208,60865,1,0,0:0:0:0:
228,208,61036,1,0,0:0:0:0:
228,208,61207,1,0,0:0:0:0:
460,256,61293,1,0,0:0:0:0:
228,208,61379,1,8,0:0:0:0:
228,208,61550,1,8,0:0:0:0:
228,208,61722,1,8,0:0:0:0:
284,140,62065,1,0,0:0:0:0:
284,140,62236,1,8,0:0:0:0:
460,256,62408,1,8,0:0:0:0:
284,140,62579,1,0,0:0:0:0:
284,140,62665,1,0,0:0:0:0:
284,140,62750,1,8,0:0:0:0:
284,140,62922,1,8,0:0:0:0:
228,208,63093,1,8,0:0:0:0:
460,256,63179,1,8,0:0:0:0:
284,140,63265,1,8,0:0:0:0:
228,208,63436,1,0,0:0:0:0:
284,140,63607,1,8,0:0:0:0:
284,140,63693,1,8,0:0:0:0:
228,208,63779,1,0,0:0:0:0:
228,208,63950,1,8,0:0:0:0:
228,208,64122,1,8,0:0:0:0:
344,252,64293,1,0,0:0:0:0:
344,252,64350,1,0,0:0:0:0:
344,252,64408,1,0,0:0:0:0:
344,252,64465,1,8,0:0:0:0:
236,204,64636,1,0,0:0:0:0:
236,204,64722,1,8,0:0:0:0:
236,204,64808,1,8,0:0:0:0:
236,204,64893,1,0,0:0:0:0:
236,204,64979,1,8,0:0:0:0:
236,204,65150,1,0,0:0:0:0:
236,204,65236,1,8,0:0:0:0:
236,204,65322,1,8,0:0:0:0:
236,204,65408,1,8,0:0:0:0:
236,204,65493,1,0,0:0:0:0:
448,160,65665,1,0,0:0:0:0:
448,160,65722,1,0,0:0:0:0:
448,160,65779,1,0,0:0:0:0:
448,160,65836,1,8,0:0:0:0:
148,192,66179,5,8,0:0:0:0:
348,192,66265,5,0,0:0:0:0:
380,216,66351,1,0,0:0:0:0:
380,216,66436,1,8,0:0:0:0:
380,216,66608,1,8,0:0:0:0:
380,216,66693,1,0,0:0:0:0:
380,216,66865,1,8,0:0:0:0:
380,216,67036,1,8,0:0:0:0:
300,328,67122,1,8,0:0:0:0:
380,216,67208,1,0,0:0:0:0:
380,216,67379,1,8,0:0:0:0:
300,328,67465,1,8,0:0:0:0:
380,216,67551,1,8,0:0:0:0:
380,216,67722,1,0,0:0:0:0:
380,216,67808,1,8,0:0:0:0:
292,128,67893,1,8,0:0:0:0:
380,216,67979,1,8,0:0:0:0:
380,216,68065,1,0,0:0:0:0:
380,216,68151,1,0,0:0:0:0:
380,216,68236,1,8,0:0:0:0:
380,216,68408,1,8,0:0:0:0:
300,328,68493,1,8,0:0:0:0:
380,216,68579,1,0,0:0:0:0:
380,216,68751,1,8,0:0:0:0:
380,216,68922,1,8,0:0:0:0:
380,216,69093,1,0,0:0:0:0:
380,216,69179,1,8,0:0:0:0:
380,216,69351,1,8,0:0:0:0:
380,216,69436,1,0,0:0:0:0:
380,216,69608,1,8,0:0:0:0:
380,216,69779,1,8,0:0:0:0:
300,328,69865,1,8,0:0:0:0:
380,216,69951,1,0,0:0:0:0:
300,104,70122,1,8,0:0:0:0:
300,104,70293,1,8,0:0:0:0:
300,104,70465,1,0,0:0:0:0:
300,104,70551,1,8,0:0:0:0:
292,128,70636,1,8,0:0:0:0:
300,104,70722,1,8,0:0:0:0:
300,104,70808,1,0,0:0:0:0:
300,104,70979,1,8,0:0:0:0:
300,104,71151,1,8,0:0:0:0:
300,104,71322,1,0,0:0:0:0:
300,328,71408,1,0,0:0:0:0:
300,104,71493,1,8,0:0:0:0:
300,104,71665,1,8,0:0:0:0:
300,104,71836,1,0,0:0:0:0:
300,104,71922,1,8,0:0:0:0:
300,104,72093,1,8,0:0:0:0:
300,104,72179,1,0,0:0:0:0:
300,328,72265,1,0,0:0:0:0:
300,104,72351,1,8,0:0:0:0:
300,104,72522,1,8,0:0:0:0:
200,80,72608,1,8,0:0:0:0:
300,104,72693,1,0,0:0:0:0:
300,104,72865,1,8,0:0:0:0:
300,104,73036,1,8,0:0:0:0:
300,104,73208,1,0,0:0:0:0:
300,104,73293,1,8,0:0:0:0:
292,128,73379,1,8,0:0:0:0:
300,104,73465,1,8,0:0:0:0:
300,104,73551,1,0,0:0:0:0:
200,80,73636,1,0,0:0:0:0:
300,104,73722,1,8,0:0:0:0:
300,104,73893,1,8,0:0:0:0:
200,80,73979,1,8,0:0:0:0:
300,104,74065,1,0,0:0:0:0:
300,104,74236,1,8,0:0:0:0:
300,104,74408,1,8,0:0:0:0:
300,104,74579,1,0,0:0:0:0:
300,104,74665,1,8,0:0:0:0:
300,104,74836,1,8,0:0:0:0:
300,104,74922,1,0,0:0:0:0:
200,80,75008,1,0,0:0:0:0:
300,104,75093,1,8,0:0:0:0:
300,104,75265,1,8,0:0:0:0:
200,80,75350,1,8,0:0:0:0:
300,104,75436,1,0,0:0:0:0:
300,104,75608,1,8,0:0:0:0:
300,104,75779,1,8,0:0:0:0:
300,104,75951,1,0,0:0:0:0:
300,104,76036,1,8,0:0:0:0:
292,128,76122,1,8,0:0:0:0:
300,104,76208,1,8,0:0:0:0:
300,104,76293,1,0,0:0:0:0:
300,104,76465,1,8,0:0:0:0:
304,148,76636,1,8,0:0:0:0:
304,148,76808,1,0,0:0:0:0:
192,156,76893,1,0,0:0:0:0:
304,148,76979,1,8,0:0:0:0:
304,148,77151,1,8,0:0:0:0:
192,156,77236,1,0,0:0:0:0:
304,148,77322,1,0,0:0:0:0:
304,148,77408,1,8,0:0:0:0:
304,148,77579,1,8,0:0:0:0:
304,148,77665,1,0,0:0:0:0:
192,156,77750,1,0,0:0:0:0:
460,228,77836,1,8,0:0:0:0:
192,156,77922,1,0,0:0:0:0:
460,228,78008,1,8,0:0:0:0:
456,300,78179,1,0,0:0:0:0:
192,156,78265,1,0,0:0:0:0:
456,300,78351,1,8,0:0:0:0:
456,300,78522,1,8,0:0:0:0:
456,300,78693,1,0,0:0:0:0:
456,300,78779,1,8,0:0:0:0:
356,152,78865,5,8,0:0:0:0:
456,300,78951,1,8,0:0:0:0:
456,300,79036,1,0,0:0:0:0:
292,100,79122,1,0,0:0:0:0:
292,100,79208,1,8,0:0:0:0:
292,100,79379,1,8,0:0:0:0:
292,100,79551,1,0,0:0:0:0:
192,156,79636,1,0,0:0:0:0:
292,100,79722,1,8,0:0:0:0:
292,100,79893,1,8,0:0:0:0:
324,152,80065,1,0,0:0:0:0:
324,152,80151,1,8,0:0:0:0:
324,152,80322,1,8,0:0:0:0:
324,152,80408,1,0,0:0:0:0:
324,152,80579,1,8,0:0:0:0:
192,156,80665,1,8,0:0:0:0:
324,152,80751,1,8,0:0:0:0:
324,152,80922,1,0,0:0:0:0:
192,156,81008,1,0,0:0:0:0:
324,152,81093,1,8,0:0:0:0:
324,152,81265,1,8,0:0:0:0:
324,152,81436,1,0,0:0:0:0:
324,152,81522,1,8,0:0:0:0:
168,40,81608,1,8,0:0:0:0:
324,152,81693,1,8,0:0:0:0:
324,152,81779,1,0,0:0:0:0:
324,152,81951,1,8,0:0:0:0:
324,152,82122,1,8,0:0:0:0:
144,116,82208,1,8,0:0:0:0:
324,152,82293,1,0,0:0:0:0:
324,152,82465,1,8,0:0:0:0:
324,152,82636,1,8,0:0:0:0:
232,204,82808,1,0,0:0:0:0:
232,204,82893,1,8,0:0:0:0:
232,204,83065,1,8,0:0:0:0:
232,204,83151,1,0,0:0:0:0:
232,204,83322,1,8,0:0:0:0:
232,204,83493,1,8,0:0:0:0:
144,116,83579,1,8,0:0:0:0:
232,204,83665,1,0,0:0:0:0:
232,204,83836,1,8,0:0:0:0:
232,204,84008,1,8,0:0:0:0:
232,204,84179,1,0,0:0:0:0:
232,204,84265,1,8,0:0:0:0:
272,136,84350,1,8,0:0:0:0:
232,204,84436,1,8,0:0:0:0:
232,204,84522,1,0,0:0:0:0:
232,204,84608,1,0,0:0:0:0:
232,204,84693,1,8,0:0:0:0:
232,204,84865,1,8,0:0:0:0:
232,204,85036,1,0,0:0:0:0:
216,176,85122,1,0,0:0:0:0:
232,204,85208,1,8,0:0:0:0:
232,204,85379,1,8,0:0:0:0:
216,176,85465,1,0,0:0:0:0:
232,204,85551,1,0,0:0:0:0:
232,204,85636,1,8,0:0:0:0:
232,204,85808,1,8,0:0:0:0:
232,204,85893,1,0,0:0:0:0:
232,204,86065,1,8,0:0:0:0:
232,204,86236,1,8,0:0:0:0:
376,224,86293,1,8,0:0:0:0:
376,224,86351,1,8,0:0:0:0:
376,224,86408,1,8,0:0:0:0:
216,160,86579,1,0,0:0:0:0:
216,160,86665,1,8,0:0:0:0:
216,160,86751,1,0,0:0:0:0:
216,160,86836,1,8,0:0:0:0:
216,160,86922,1,8,0:0:0:0:
56,136,87093,1,8,0:0:0:0:
56,136,87179,1,8,0:0:0:0:
56,136,87265,1,0,0:0:0:0:
56,136,87351,1,8,0:0:0:0:
56,136,87436,1,8,0:0:0:0:
328,176,87608,1,8,0:0:0:0:
328,176,87693,1,8,0:0:0:0:
364,192,87779,5,0,0:0:0:0:
304,172,87951,1,8,0:0:0:0:
304,172,88122,1,0,0:0:0:0:
304,172,88294,1,0,0:0:0:0:
304,172,88465,1,8,0:0:0:0:
336,204,88637,1,8,0:0:0:0:
336,204,88808,1,0,0:0:0:0:
336,204,88979,1,8,0:0:0:0:
336,204,89322,1,8,0:0:0:0:
424,252,89494,1,0,0:0:0:0:
424,252,89665,1,0,0:0:0:0:
424,252,89837,1,8,0:0:0:0:
424,252,90008,1,8,0:0:0:0:
216,176,90093,1,8,0:0:0:0:
424,252,90179,1,0,0:0:0:0:
424,252,90351,1,0,0:0:0:0:
148,184,90694,1,8,0:0:0:0:
148,184,90865,1,0,0:0:0:0:
148,184,91037,1,0,0:0:0:0:
216,176,91122,1,0,0:0:0:0:
148,184,91208,1,8,0:0:0:0:
148,184,91379,1,0,0:0:0:0:
184,128,91551,1,0,0:0:0:0:
216,176,91636,1,8,0:0:0:0:
184,128,91722,1,8,0:0:0:0:
120,100,92065,1,8,0:0:0:0:
120,100,92237,1,0,0:0:0:0:
208,192,92322,1,8,0:0:0:0:
120,100,92408,1,0,0:0:0:0:
216,176,92493,1,8,0:0:0:0:
120,100,92579,1,8,0:0:0:0:
120,100,92751,1,0,0:0:0:0:
120,100,92922,1,0,0:0:0:0:
216,176,93008,1,0,0:0:0:0:
120,100,93094,1,8,0:0:0:0:
392,212,93179,1,8,0:0:0:0:
120,100,93265,1,0,0:0:0:0:
160,112,93437,1,8,0:0:0:0:
160,112,93608,1,0,0:0:0:0:
216,176,93693,1,0,0:0:0:0:
160,112,93779,1,0,0:0:0:0:
160,112,93951,1,8,0:0:0:0:
160,112,94122,1,8,0:0:0:0:
208,192,94208,1,8,0:0:0:0:
160,112,94294,1,0,0:0:0:0:
216,296,94379,1,0,0:0:0:0:
160,112,94465,1,8,0:0:0:0:
160,112,94808,1,8,0:0:0:0:
160,112,94979,1,0,0:0:0:0:
208,192,95065,1,8,0:0:0:0:
160,112,95151,1,0,0:0:0:0:
216,296,95237,1,0,0:0:0:0:
160,112,95322,1,8,0:0:0:0:
160,112,95494,1,8,0:0:0:0:
216,296,95579,1,8,0:0:0:0:
160,112,95665,1,0,0:0:0:0:
160,112,95837,1,0,0:0:0:0:
160,112,96179,1,8,0:0:0:0:
216,176,96265,1,8,0:0:0:0:
160,112,96351,1,0,0:0:0:0:
208,192,96436,1,8,0:0:0:0:
160,112,96522,1,0,0:0:0:0:
160,112,96694,1,8,0:0:0:0:
216,296,96779,1,8,0:0:0:0:
160,112,96865,1,0,0:0:0:0:
208,192,96950,1,8,0:0:0:0:
160,112,97037,1,0,0:0:0:0:
216,296,97122,1,0,0:0:0:0:
160,112,97208,1,8,0:0:0:0:
196,128,97551,1,8,0:0:0:0:
216,176,97636,1,8,0:0:0:0:
196,128,97722,1,0,0:0:0:0:
208,192,97808,1,8,0:0:0:0:
196,128,97894,1,0,0:0:0:0:
216,296,97979,1,0,0:0:0:0:
196,128,98065,1,8,0:0:0:0:
196,128,98237,1,8,0:0:0:0:
208,192,98322,1,0,0:0:0:0:
196,128,98408,1,0,0:0:0:0:
216,176,98493,1,0,0:0:0:0:
196,128,98579,1,8,0:0:0:0:
312,164,98750,1,0,0:0:0:0:
216,144,98922,1,8,0:0:0:0:
216,144,99094,1,0,0:0:0:0:
296,128,99265,1,0,0:0:0:0:
296,128,99437,1,8,0:0:0:0:
296,128,99608,1,8,0:0:0:0:
296,128,99779,1,0,0:0:0:0:
216,176,99865,1,0,0:0:0:0:
296,128,99951,1,8,0:0:0:0:
296,128,100294,1,8,0:0:0:0:
296,128,100465,1,0,0:0:0:0:
296,128,100637,1,0,0:0:0:0:
296,128,100808,1,8,0:0:0:0:
296,128,100979,1,8,0:0:0:0:
216,176,101065,1,8,0:0:0:0:
296,128,101151,1,0,0:0:0:0:
296,128,101322,1,0,0:0:0:0:
296,128,101665,1,8,0:0:0:0:
296,128,101837,1,0,0:0:0:0:
296,128,102008,1,0,0:0:0:0:
216,176,102093,1,0,0:0:0:0:
296,128,102179,1,8,0:0:0:0:
296,128,102351,1,0,0:0:0:0:
296,128,102522,1,0,0:0:0:0:
216,176,102608,1,0,0:0:0:0:
296,128,102694,1,8,0:0:0:0:
296,128,103037,1,8,0:0:0:0:
244,104,103122,1,8,0:0:0:0:
296,128,103208,1,0,0:0:0:0:
296,128,103379,1,0,0:0:0:0:
244,104,103465,1,0,0:0:0:0:
296,128,103551,1,8,0:0:0:0:
296,128,103722,1,0,0:0:0:0:
296,128,103894,1,0,0:0:0:0:
296,144,103979,1,0,0:0:0:0:
296,128,104065,1,8,0:0:0:0:
216,296,104151,1,8,0:0:0:0:
16,164,104237,1,0,0:0:0:0:
184,128,104408,1,8,0:0:0:0:
48,152,104493,1,8,0:0:0:0:
184,128,104579,5,0,0:0:0:0:
184,128,104751,1,0,0:0:0:0:
48,152,104836,1,0,0:0:0:0:
184,128,104922,1,8,0:0:0:0:
48,152,105008,1,0,0:0:0:0:
184,128,105094,1,8,0:0:0:0:
184,128,105265,1,8,0:0:0:0:
216,296,105351,1,0,0:0:0:0:
184,128,105437,1,8,0:0:0:0:
224,320,105608,5,8,0:0:0:0:
464,88,105779,1,0,0:0:0:0:
464,88,105950,1,0,0:0:0:0:
464,88,106122,1,8,0:0:0:0:
464,88,106293,1,0,0:0:0:0:
296,200,106379,1,0,0:0:0:0:
464,88,106465,1,0,0:0:0:0:
464,88,106636,1,8,0:0:0:0:
440,152,106808,1,0,0:0:0:0:
228,64,106979,1,8,0:0:0:0:
228,64,107150,1,0,0:0:0:0:
228,64,107322,1,0,0:0:0:0:
228,64,107493,1,0,0:0:0:0:
228,64,107579,1,8,0:0:0:0:
140,108,107665,1,8,0:0:0:0:
228,64,107750,1,8,0:0:0:0:
228,64,107836,1,0,0:0:0:0:
32,176,107922,1,0,0:0:0:0:
228,64,108008,1,8,0:0:0:0:
228,64,108179,1,0,0:0:0:0:
228,64,108265,1,8,0:0:0:0:
228,64,108350,1,8,0:0:0:0:
228,64,108436,1,8,0:0:0:0:
380,104,108522,5,8,0:0:0:0:
380,104,108579,1,8,0:0:0:0:
380,104,108636,1,8,0:0:0:0:
380,104,108693,1,0,0:0:0:0:
228,64,108865,1,8,0:0:0:0:
380,104,109036,1,8,0:0:0:0:
380,104,109093,1,8,0:0:0:0:
380,104,109150,1,8,0:0:0:0:
380,104,109208,1,0,0:0:0:0:
208,160,109293,1,0,0:0:0:0:
176,224,109379,1,0,0:0:0:0:
176,224,109436,1,0,0:0:0:0:
176,224,109493,1,0,0:0:0:0:
176,224,109550,1,8,0:0:0:0:
176,224,109608,1,8,0:0:0:0:
176,224,109665,1,8,0:0:0:0:
176,224,109722,1,0,0:0:0:0:
424,212,109893,1,0,0:0:0:0:
424,212,110065,1,8,0:0:0:0:
264,104,110236,1,0,0:0:0:0:
264,104,110408,1,8,0:0:0:0:
172,196,110579,1,0,0:0:0:0:
172,196,110665,1,8,0:0:0:0:
172,196,110750,1,0,0:0:0:0:
172,196,110836,1,0,0:0:0:0:
172,196,110922,1,8,0:0:0:0:
160,168,111093,1,0,0:0:0:0:
160,168,111179,1,0,0:0:0:0:
160,168,111265,1,8,0:0:0:0:
312,164,111436,1,0,0:0:0:0:
312,164,111608,1,0,0:0:0:0:
312,164,111779,1,8,0:0:0:0:
312,164,111950,1,0,0:0:0:0:
312,164,112036,1,8,0:0:0:0:
312,164,112122,1,8,0:0:0:0:
312,164,112208,1,8,0:0:0:0:
312,164,112293,1,0,0:0:0:0:
312,164,112465,1,0,0:0:0:0:
312,164,112636,1,0,0:0:0:0:
312,164,112808,1,8,0:0:0:0:
312,164,112979,1,0,0:0:0:0:
312,164,113065,1,8,0:0:0:0:
312,164,113150,1,0,0:0:0:0:
312,164,113236,1,0,0:0:0:0:
312,164,113322,1,8,0:0:0:0:
448,192,113493,1,0,0:0:0:0:
448,192,113579,1,8,0:0:0:0:
448,192,113750,1,8,0:0:0:0:
448,192,113836,1,8,0:0:0:0:
448,192,113922,1,8,0:0:0:0:
448,192,114008,1,0,0:0:0:0:
448,192,114179,1,8,0:0:0:0:
448,192,114350,1,0,0:0:0:0:
448,192,114436,1,8,0:0:0:0:
448,192,114522,1,0,0:0:0:0:
448,192,114608,1,0,0:0:0:0:
448,192,114693,1,8,0:0:0:0:
448,192,114779,1,8,0:0:0:0:
392,96,114865,1,8,0:0:0:0:
392,96,114922,1,8,0:0:0:0:
392,96,114979,1,8,0:0:0:0:
392,96,115036,1,0,0:0:0:0:
360,104,115122,1,0,0:0:0:0:
360,104,115208,1,0,0:0:0:0:
232,128,115379,1,0,0:0:0:0:
232,128,115550,1,8,0:0:0:0:
232,128,115722,1,0,0:0:0:0:
232,128,115893,1,8,0:0:0:0:
232,128,116065,1,0,0:0:0:0:
232,128,116150,1,8,0:0:0:0:
232,128,116236,1,0,0:0:0:0:
232,128,116322,1,0,0:0:0:0:
232,128,116408,1,8,0:0:0:0:
232,128,116579,1,0,0:0:0:0:
232,128,116665,1,0,0:0:0:0:
232,128,116750,1,8,0:0:0:0:
232,128,116922,1,0,0:0:0:0:
232,128,117008,1,0,0:0:0:0:
360,132,117093,1,0,0:0:0:0:
360,132,117150,1,0,0:0:0:0:
360,132,117208,1,0,0:0:0:0:
360,132,117265,1,8,0:0:0:0:
208,160,117436,1,0,0:0:0:0:
208,160,117522,1,8,0:0:0:0:
208,160,117608,1,8,0:0:0:0:
208,160,117693,1,8,0:0:0:0:
208,160,117779,1,0,0:0:0:0:
208,160,117950,1,0,0:0:0:0:
208,160,118122,1,0,0:0:0:0:
208,160,118293,1,8,0:0:0:0:
208,160,118465,1,0,0:0:0:0:
208,160,118636,1,8,0:0:0:0:
208,160,118808,1,0,0:0:0:0:
208,160,118893,1,8,0:0:0:0:
208,160,118979,1,0,0:0:0:0:
208,160,119065,1,0,0:0:0:0:
208,160,119150,1,8,0:0:0:0:
208,160,119322,1,0,0:0:0:0:
208,160,119408,1,0,0:0:0:0:
208,160,119493,1,0,0:0:0:0:
208,160,119579,1,0,0:0:0:0:
208,160,119665,1,8,0:0:0:0:
208,160,119836,1,0,0:0:0:0:
208,160,119922,1,8,0:0:0:0:
208,160,120008,1,0,0:0:0:0:
208,160,120093,1,0,0:0:0:0:
208,160,120179,1,8,0:0:0:0:
208,160,120350,1,8,0:0:0:0:
208,160,120522,1,8,0:0:0:0:
208,160,120693,1,0,0:0:0:0:
208,160,120865,1,0,0:0:0:0:
208,160,121036,1,8,0:0:0:0:
208,160,121208,1,0,0:0:0:0:
208,160,121379,1,8,0:0:0:0:
208,160,121550,1,0,0:0:0:0:
208,160,121636,1,8,0:0:0:0:
208,160,121722,1,0,0:0:0:0:
208,160,121808,1,0,0:0:0:0:
208,160,121893,1,0,0:0:0:0:
352,108,121950,1,0,0:0:0:0:
352,108,122008,1,0,0:0:0:0:
352,108,122065,1,8,0:0:0:0:
448,64,122236,1,0,0:0:0:0:
380,124,122322,1,8,0:0:0:0:
380,124,122408,1,0,0:0:0:0:
380,124,122493,1,0,0:0:0:0:
380,124,122579,1,8,0:0:0:0:
380,124,122750,1,0,0:0:0:0:
380,124,122836,1,8,0:0:0:0:
380,124,122922,1,0,0:0:0:0:
380,124,123008,1,0,0:0:0:0:
380,124,123093,1,8,0:0:0:0:
232,64,123265,1,0,0:0:0:0:
232,64,123350,1,8,0:0:0:0:
232,64,123436,1,0,0:0:0:0:
232,64,123608,1,0,0:0:0:0:
232,64,123779,1,8,0:0:0:0:
232,64,123950,1,0,0:0:0:0:
232,64,124036,1,8,0:0:0:0:
232,64,124122,1,0,0:0:0:0:
232,64,124208,1,0,0:0:0:0:
232,64,124293,1,8,0:0:0:0:
232,64,124465,1,0,0:0:0:0:
232,64,124550,1,8,0:0:0:0:
232,64,124722,1,8,0:0:0:0:
232,64,124808,1,8,0:0:0:0:
232,64,124893,1,8,0:0:0:0:
232,64,124979,1,0,0:0:0:0:
232,64,125150,1,8,0:0:0:0:
232,64,125322,1,0,0:0:0:0:
232,64,125408,1,8,0:0:0:0:
232,64,125493,1,0,0:0:0:0:
232,64,125579,1,0,0:0:0:0:
232,64,125665,1,8,0:0:0:0:
232,64,125750,1,8,0:0:0:0:
444,52,125836,1,8,0:0:0:0:
444,52,125893,1,8,0:0:0:0:
444,52,125950,1,8,0:0:0:0:
444,52,126008,1,0,0:0:0:0:
396,136,126093,1,0,0:0:0:0:
396,136,126179,1,0,0:0:0:0:
396,136,126350,1,0,0:0:0:0:
396,136,126522,1,8,0:0:0:0:
396,136,126693,1,0,0:0:0:0:
396,136,126865,1,8,0:0:0:0:
396,136,127036,1,0,0:0:0:0:
396,136,127122,1,8,0:0:0:0:
396,136,127208,1,0,0:0:0:0:
396,136,127293,1,0,0:0:0:0:
396,136,127379,1,8,0:0:0:0:
396,136,127550,1,0,0:0:0:0:
396,136,127636,1,0,0:0:0:0:
396,136,127722,1,8,0:0:0:0:
396,136,127893,1,0,0:0:0:0:
396,136,127979,1,0,0:0:0:0:
396,136,128065,1,0,0:0:0:0:
452,24,128122,1,0,0:0:0:0:
452,24,128179,1,0,0:0:0:0:
452,24,128236,1,8,0:0:0:0:
404,84,128408,1,0,0:0:0:0:
404,84,128493,1,8,0:0:0:0:
404,84,128579,1,8,0:0:0:0:
404,84,128665,1,8,0:0:0:0:
404,84,128750,1,0,0:0:0:0:
404,84,128922,1,0,0:0:0:0:
404,84,129093,1,0,0:0:0:0:
404,84,129265,5,8,0:0:0:0:
404,84,129436,1,0,0:0:0:0:
404,84,129608,1,8,0:0:0:0:
272,108,129779,1,0,0:0:0:0:
272,108,129865,1,8,0:0:0:0:
272,108,129950,1,0,0:0:0:0:
272,108,130036,1,0,0:0:0:0:
272,108,130122,1,8,0:0:0:0:
344,220,130293,5,12,0:0:0:0:
420,108,130465,1,0,0:0:0:0:
344,220,130636,1,12,0:0:0:0:
420,108,130808,1,0,0:0:0:0:
344,220,130979,1,12,0:0:0:0:
420,108,131150,1,0,0:0:0:0:
128,160,131236,1,0,0:0:0:0:
360,232,131322,1,8,0:0:0:0:
360,232,131365,1,8,0:0:0:0:
360,232,131408,1,0,0:0:0:0:
352,112,131493,1,8,0:0:0:0:
352,112,131550,1,8,0:0:0:0:
352,112,131608,1,8,0:0:0:0:
272,264,131665,1,0,0:0:0:0:
304,140,132008,1,8,0:0:0:0:
304,140,132179,1,0,0:0:0:0:
248,160,132265,1,0,0:0:0:0:
304,140,132350,1,8,0:0:0:0:
304,140,132436,1,8,0:0:0:0:
304,140,132522,1,0,0:0:0:0:
304,140,132608,1,0,0:0:0:0:
304,140,132693,1,8,0:0:0:0:
116,136,132865,1,8,0:0:0:0:
304,140,133036,1,0,0:0:0:0:
244,188,133208,1,0,0:0:0:0:
116,136,133293,1,0,0:0:0:0:
244,188,133379,1,8,0:0:0:0:
248,160,133550,1,0,0:0:0:0:
248,160,133636,1,0,0:0:0:0:
248,160,133722,1,8,0:0:0:0:
248,160,133808,1,8,0:0:0:0:
248,160,133893,1,0,0:0:0:0:
248,160,133979,1,0,0:0:0:0:
248,160,134065,1,8,0:0:0:0:
228,204,134408,1,0,0:0:0:0:
228,204,134579,1,0,0:0:0:0:
116,136,134665,1,0,0:0:0:0:
228,204,134750,1,8,0:0:0:0:
228,204,134922,1,0,0:0:0:0:
228,204,135008,1,0,0:0:0:0:
228,204,135093,1,8,0:0:0:0:
228,204,135179,1,0,0:0:0:0:
228,204,135265,1,0,0:0:0:0:
228,204,135350,1,0,0:0:0:0:
228,204,135436,1,8,0:0:0:0:
116,136,135608,1,8,0:0:0:0:
136,180,135779,1,0,0:0:0:0:
136,180,135950,1,0,0:0:0:0:
116,136,136036,1,0,0:0:0:0:
136,180,136122,1,8,0:0:0:0:
272,212,136293,1,0,0:0:0:0:
272,212,136379,1,0,0:0:0:0:
272,212,136465,1,8,0:0:0:0:
272,212,136550,1,0,0:0:0:0:
272,212,136636,1,0,0:0:0:0:
272,212,136722,1,0,0:0:0:0:
272,212,136808,1,8,0:0:0:0:
272,212,137150,1,8,0:0:0:0:
272,212,137322,1,0,0:0:0:0:
116,136,137408,1,0,0:0:0:0:
272,212,137493,1,8,0:0:0:0:
192,184,137665,1,8,0:0:0:0:
192,184,137750,1,8,0:0:0:0:
192,184,137836,1,0,0:0:0:0:
192,184,137922,1,8,0:0:0:0:
192,184,138008,1,0,0:0:0:0:
192,184,138093,1,0,0:0:0:0:
192,184,138179,1,8,0:0:0:0:
116,136,138350,1,8,0:0:0:0:
192,184,138522,1,8,0:0:0:0:
192,184,138693,1,0,0:0:0:0:
116,136,138779,1,0,0:0:0:0:
192,184,138865,1,8,0:0:0:0:
192,184,139036,1,8,0:0:0:0:
192,184,139122,1,8,0:0:0:0:
192,184,139208,1,0,0:0:0:0:
192,184,139293,1,8,0:0:0:0:
192,184,139379,1,0,0:0:0:0:
192,184,139465,1,0,0:0:0:0:
192,184,139550,1,8,0:0:0:0:
192,184,139893,1,0,0:0:0:0:
192,184,140065,1,0,0:0:0:0:
116,136,140150,1,0,0:0:0:0:
192,184,140236,1,8,0:0:0:0:
344,180,140408,1,0,0:0:0:0:
192,184,140493,1,0,0:0:0:0:
344,180,140579,1,8,0:0:0:0:
344,180,140665,1,0,0:0:0:0:
344,180,140750,1,0,0:0:0:0:
344,180,140836,1,0,0:0:0:0:
344,180,140922,1,8,0:0:0:0:
116,136,141093,1,8,0:0:0:0:
344,180,141265,1,0,0:0:0:0:
344,180,141436,1,0,0:0:0:0:
116,136,141522,1,0,0:0:0:0:
344,180,141608,1,8,0:0:0:0:
344,180,141779,1,8,0:0:0:0:
344,180,141865,1,0,0:0:0:0:
344,180,141950,1,8,0:0:0:0:
344,180,142036,1,8,0:0:0:0:
344,180,142122,1,0,0:0:0:0:
344,180,142208,1,0,0:0:0:0:
344,180,142293,1,8,0:0:0:0:
312,136,142636,1,0,0:0:0:0:
240,156,142808,1,0,0:0:0:0:
116,136,142893,1,0,0:0:0:0:
240,156,142979,1,8,0:0:0:0:
240,156,143150,1,0,0:0:0:0:
240,156,143236,1,0,0:0:0:0:
240,156,143322,1,8,0:0:0:0:
240,156,143408,1,8,0:0:0:0:
240,156,143493,1,0,0:0:0:0:
240,156,143579,1,0,0:0:0:0:
240,156,143665,1,8,0:0:0:0:
116,136,143836,1,8,0:0:0:0:
160,136,144008,1,0,0:0:0:0:
160,136,144179,1,0,0:0:0:0:
116,136,144265,1,0,0:0:0:0:
60,188,144350,1,8,0:0:0:0:
60,188,144522,1,0,0:0:0:0:
60,188,144608,1,0,0:0:0:0:
60,188,144693,1,8,0:0:0:0:
60,188,144779,1,8,0:0:0:0:
60,188,144865,1,0,0:0:0:0:
60,188,144950,1,0,0:0:0:0:
60,188,145036,1,8,0:0:0:0:
60,188,145379,1,0,0:0:0:0:
60,188,145550,1,0,0:0:0:0:
116,136,145636,1,0,0:0:0:0:
60,188,145722,1,8,0:0:0:0:
60,188,145893,1,0,0:0:0:0:
60,188,145979,1,0,0:0:0:0:
60,188,146065,1,8,0:0:0:0:
60,188,146150,1,0,0:0:0:0:
60,188,146236,1,0,0:0:0:0:
60,188,146322,1,0,0:0:0:0:
60,188,146408,1,8,0:0:0:0:
116,136,146579,1,8,0:0:0:0:
60,188,146750,1,0,0:0:0:0:
60,188,146922,1,0,0:0:0:0:
116,136,147008,1,0,0:0:0:0:
60,188,147093,1,8,0:0:0:0:
60,188,147265,1,0,0:0:0:0:
60,188,147350,1,0,0:0:0:0:
60,188,147436,1,8,0:0:0:0:
60,188,147522,1,0,0:0:0:0:
60,188,147608,1,0,0:0:0:0:
60,188,147693,1,0,0:0:0:0:
60,188,147779,1,8,0:0:0:0:
256,256,148122,1,8,0:0:0:0:
256,256,148293,1,0,0:0:0:0:
116,136,148379,1,0,0:0:0:0:
256,256,148465,1,8,0:0:0:0:
256,256,148636,1,8,0:0:0:0:
256,256,148722,1,8,0:0:0:0:
256,256,148808,1,0,0:0:0:0:
256,256,148893,1,8,0:0:0:0:
256,256,148979,1,0,0:0:0:0:
256,256,149065,1,0,0:0:0:0:
256,256,149150,1,8,0:0:0:0:
116,136,149322,1,8,0:0:0:0:
256,256,149493,1,8,0:0:0:0:
256,256,149665,1,0,0:0:0:0:
116,136,149750,1,0,0:0:0:0:
256,256,149836,1,8,0:0:0:0:
256,256,150008,1,8,0:0:0:0:
256,256,150093,1,8,0:0:0:0:
256,256,150179,1,0,0:0:0:0:
256,256,150265,1,8,0:0:0:0:
256,256,150350,1,0,0:0:0:0:
256,256,150436,1,0,0:0:0:0:
256,256,150522,1,8,0:0:0:0:
256,256,150865,1,0,0:0:0:0:
256,256,151036,1,0,0:0:0:0:
116,136,151122,1,0,0:0:0:0:
256,256,151208,5,8,0:0:0:0:
256,256,151379,1,0,0:0:0:0:
256,256,151465,1,0,0:0:0:0:
256,256,151550,1,8,0:0:0:0:
256,256,151636,1,0,0:0:0:0:
256,256,151722,1,0,0:0:0:0:
256,256,151808,1,0,0:0:0:0:
256,256,151893,1,8,0:0:0:0:
116,136,152065,1,8,0:0:0:0:
164,192,152236,5,0,0:0:0:0:
164,192,152322,1,0,0:0:0:0:
164,192,152408,1,0,0:0:0:0:
164,192,152493,1,0,0:0:0:0:
164,192,152579,1,8,0:0:0:0:
468,192,152750,1,0,0:0:0:0:
164,192,152836,1,8,0:0:0:0:
280,320,152922,1,8,0:0:0:0:
280,320,153008,1,0,0:0:0:0:
164,192,153093,1,8,0:0:0:0:
272,152,153265,1,8,0:0:0:0:
112,128,153308,1,8,0:0:0:0:
112,128,153350,1,0,0:0:0:0:
384,160,153436,1,8,0:0:0:0:
384,160,153493,1,8,0:0:0:0:
384,160,153550,1,8,0:0:0:0:
184,128,153608,1,0,0:0:0:0:
280,268,153950,1,8,0:0:0:0:
280,268,154122,1,0,0:0:0:0:
184,232,154208,1,8,0:0:0:0:
280,268,154293,1,8,0:0:0:0:
184,232,154379,1,8,0:0:0:0:
280,268,154465,1,0,0:0:0:0:
184,232,154636,1,8,0:0:0:0:
184,232,154808,1,8,0:0:0:0:
184,148,154893,1,8,0:0:0:0:
184,232,154979,1,0,0:0:0:0:
272,312,155150,1,8,0:0:0:0:
272,312,155322,1,8,0:0:0:0:
272,312,155493,1,0,0:0:0:0:
272,312,155579,1,8,0:0:0:0:
272,312,155750,1,8,0:0:0:0:
272,312,155836,1,0,0:0:0:0:
272,312,155922,1,0,0:0:0:0:
272,312,156008,1,8,0:0:0:0:
272,312,156179,1,8,0:0:0:0:
272,312,156350,1,0,0:0:0:0:
184,148,156436,1,0,0:0:0:0:
272,312,156522,1,8,0:0:0:0:
272,312,156693,1,8,0:0:0:0:
272,312,156865,1,0,0:0:0:0:
272,312,156950,1,8,0:0:0:0:
272,312,157036,1,8,0:0:0:0:
272,312,157122,1,8,0:0:0:0:
272,312,157208,1,0,0:0:0:0:
272,312,157379,1,8,0:0:0:0:
184,148,157465,1,8,0:0:0:0:
272,312,157550,1,8,0:0:0:0:
272,312,157722,1,0,0:0:0:0:
184,148,157808,1,0,0:0:0:0:
272,312,157893,1,8,0:0:0:0:
272,312,158065,5,8,0:0:0:0:
320,176,158236,1,0,0:0:0:0:
320,176,158322,1,8,0:0:0:0:
320,176,158493,1,8,0:0:0:0:
320,176,158579,1,0,0:0:0:0:
320,176,158665,1,0,0:0:0:0:
320,176,158750,1,8,0:0:0:0:
184,148,158836,1,0,0:0:0:0:
320,176,158922,1,8,0:0:0:0:
228,208,159093,5,8,0:0:0:0:
228,208,159179,1,8,0:0:0:0:
228,208,159265,1,0,0:0:0:0:
228,208,159436,1,8,0:0:0:0:
228,208,159522,1,8,0:0:0:0:
228,208,159608,1,0,0:0:0:0:
228,208,159779,1,0,0:0:0:0:
228,208,159950,1,0,0:0:0:0:
184,148,160036,1,0,0:0:0:0:
228,208,160122,1,8,0:0:0:0:
228,208,160293,1,8,0:0:0:0:
228,208,160465,1,8,0:0:0:0:
284,140,160808,1,0,0:0:0:0:
284,140,160979,1,8,0:0:0:0:
284,140,161322,1,0,0:0:0:0:
284,140,161408,1,0,0:0:0:0:
284,140,161493,1,8,0:0:0:0:
284,140,161665,1,8,0:0:0:0:
228,208,161836,1,8,0:0:0:0:
184,148,161922,1,8,0:0:0:0:
284,140,162008,1,8,0:0:0:0:
228,208,162179,1,0,0:0:0:0:
284,140,162350,1,8,0:0:0:0:
284,140,162436,1,8,0:0:0:0:
228,208,162522,1,0,0:0:0:0:
228,208,162693,1,8,0:0:0:0:
228,208,162865,1,8,0:0:0:0:
88,104,163036,5,8,0:0:0:0:
284,140,163122,1,0,0:0:0:0:
284,140,163208,1,0,0:0:0:0:
284,140,163293,1,0,0:0:0:0:
228,208,163379,1,8,0:0:0:0:
284,140,163550,1,8,0:0:0:0:
228,208,163722,1,0,0:0:0:0:
228,208,163808,1,0,0:0:0:0:
496,264,163893,1,8,0:0:0:0:
496,264,163979,1,8,0:0:0:0:
496,264,164065,1,0,0:0:0:0:
496,264,164150,1,0,0:0:0:0:
496,264,164236,1,8,0:0:0:0:
396,160,164408,1,8,0:0:0:0:
396,160,164493,1,8,0:0:0:0:
284,140,164579,1,0,0:0:0:0:
320,176,164922,1,8,0:0:0:0:
320,176,165093,1,0,0:0:0:0:
320,176,165179,1,8,0:0:0:0:
320,176,165265,1,8,0:0:0:0:
320,176,165350,1,8,0:0:0:0:
320,176,165436,1,0,0:0:0:0:
320,176,165608,1,8,0:0:0:0:
320,176,165779,1,8,0:0:0:0:
376,116,165865,1,8,0:0:0:0:
320,176,165950,1,0,0:0:0:0:
320,176,166122,1,8,0:0:0:0:
320,176,166293,1,8,0:0:0:0:
320,176,166465,1,0,0:0:0:0:
320,176,166550,1,8,0:0:0:0:
320,176,166722,1,8,0:0:0:0:
320,176,166808,1,0,0:0:0:0:
320,176,166893,1,0,0:0:0:0:
320,176,166979,1,8,0:0:0:0:
320,176,167150,1,8,0:0:0:0:
320,176,167322,1,0,0:0:0:0:
376,116,167408,1,0,0:0:0:0:
320,176,167493,1,8,0:0:0:0:
320,176,167665,1,8,0:0:0:0:
320,176,167836,1,0,0:0:0:0:
320,176,167922,1,8,0:0:0:0:
320,176,168008,1,8,0:0:0:0:
320,176,168093,1,8,0:0:0:0:
320,176,168179,1,0,0:0:0:0:
320,176,168265,1,0,0:0:0:0:
320,176,168350,1,8,0:0:0:0:
320,176,168522,1,8,0:0:0:0:
376,116,168608,1,8,0:0:0:0:
320,176,168693,1,0,0:0:0:0:
320,176,168865,1,8,0:0:0:0:
376,116,168950,1,8,0:0:0:0:
320,176,169036,1,8,0:0:0:0:
320,176,169208,1,0,0:0:0:0:
320,176,169293,1,8,0:0:0:0:
320,176,169465,1,8,0:0:0:0:
320,176,169550,1,0,0:0:0:0:
320,176,169636,1,0,0:0:0:0:
320,176,169722,1,8,0:0:0:0:
376,116,169808,1,0,0:0:0:0:
320,176,169893,1,8,0:0:0:0:
320,176,170065,1,8,0:0:0:0:
320,176,170150,1,8,0:0:0:0:
320,176,170236,1,0,0:0:0:0:
248,200,170408,1,8,0:0:0:0:
248,200,170493,1,8,0:0:0:0:
248,200,170579,1,0,0:0:0:0:
248,200,170750,1,0,0:0:0:0:
248,200,170922,1,0,0:0:0:0:
376,116,171008,1,0,0:0:0:0:
248,200,171093,1,8,0:0:0:0:
248,200,171265,1,8,0:0:0:0:
248,200,171436,5,8,0:0:0:0:
252,168,171779,1,0,0:0:0:0:
252,168,171950,1,8,0:0:0:0:
252,168,172293,1,0,0:0:0:0:
252,168,172379,1,0,0:0:0:0:
232,204,172465,5,8,0:0:0:0:
232,204,172637,1,8,0:0:0:0:
88,104,172808,1,8,0:0:0:0:
88,104,172893,1,8,0:0:0:0:
232,204,172980,1,8,0:0:0:0:
232,204,173151,1,8,0:0:0:0:
232,204,173323,1,0,0:0:0:0:
232,204,173408,1,8,0:0:0:0:
232,204,173494,1,8,0:0:0:0:
232,204,173580,1,8,0:0:0:0:
232,204,173665,1,0,0:0:0:0:
232,204,173837,1,8,0:0:0:0:
232,204,174008,1,8,0:0:0:0:
376,224,174065,1,8,0:0:0:0:
376,224,174123,1,8,0:0:0:0:
376,224,174180,1,8,0:0:0:0:
216,160,174351,1,0,0:0:0:0:
216,160,174437,1,8,0:0:0:0:
216,160,174523,1,0,0:0:0:0:
216,160,174608,1,8,0:0:0:0:
216,160,174694,1,8,0:0:0:0:
292,140,174865,1,8,0:0:0:0:
56,136,174951,1,8,0:0:0:0:
56,136,175037,1,0,0:0:0:0:
56,136,175123,1,8,0:0:0:0:
56,136,175208,1,8,0:0:0:0:
328,132,175380,1,8,0:0:0:0:
328,132,175437,1,8,0:0:0:0:
328,132,175494,1,8,0:0:0:0:
184,128,175551,1,0,0:0:0:0:
384,96,175893,1,0,0:0:0:0:
472,256,176065,1,8,0:0:0:0:
384,96,176236,1,8,0:0:0:0:
384,96,176408,1,0,0:0:0:0:
100,160,176493,1,0,0:0:0:0:
100,160,176579,1,8,0:0:0:0:
384,96,176750,1,8,0:0:0:0:
384,96,177093,1,0,0:0:0:0:
268,72,177179,1,0,0:0:0:0:
384,96,177265,1,8,0:0:0:0:
384,96,177436,1,8,0:0:0:0:
384,96,177608,1,0,0:0:0:0:
472,256,177779,1,0,0:0:0:0:
472,256,177865,1,0,0:0:0:0:
384,96,177950,1,8,0:0:0:0:
384,96,178122,1,0,0:0:0:0:
100,160,178208,1,0,0:0:0:0:
384,96,178293,1,12,0:0:0:0:
128,124,178636,1,8,0:0:0:0:
432,248,178979,1,0,0:0:0:0:
272,208,179065,5,0,0:0:0:0:
432,248,179150,1,8,0:0:0:0:
272,208,179322,1,8,0:0:0:0:
432,248,179493,1,8,0:0:0:0:
204,128,179579,1,8,0:0:0:0:
204,128,179665,1,8,0:0:0:0:
432,248,179836,1,0,0:0:0:0:
204,128,179922,1,0,0:0:0:0:
432,248,180008,1,8,0:0:0:0:
432,248,180179,1,8,0:0:0:0:
432,248,180350,1,0,0:0:0:0:
432,248,180436,1,0,0:0:0:0:
432,248,180522,1,8,0:0:0:0:
204,128,180608,1,8,0:0:0:0:
204,128,180693,1,0,0:0:0:0:
432,248,181036,1,12,0:0:0:0:
432,248,181379,1,8,0:0:0:0:
432,248,181722,1,0,0:0:0:0:
272,108,181808,1,0,0:0:0:0:
432,248,181893,1,8,0:0:0:0:
272,108,182065,1,8,0:0:0:0:
432,248,182236,1,8,0:0:0:0:
272,108,182322,1,8,0:0:0:0:
272,108,182408,1,8,0:0:0:0:
432,248,182579,1,0,0:0:0:0:
432,248,182750,1,8,0:0:0:0:
432,248,182922,1,8,0:0:0:0:
432,248,183093,1,0,0:0:0:0:
432,248,183179,1,0,0:0:0:0:
432,248,183265,1,8,0:0:0:0:
272,108,183350,1,8,0:0:0:0:
272,108,183436,1,0,0:0:0:0:
432,248,183779,1,12,0:0:0:0:
432,248,184122,1,8,0:0:0:0:
120,240,184293,1,0,0:0:0:0:
432,248,184465,1,0,0:0:0:0:
432,248,184636,1,8,0:0:0:0:
120,240,184808,1,8,0:0:0:0:
432,248,184979,1,8,0:0:0:0:
120,240,185065,1,8,0:0:0:0:
120,240,185150,1,8,0:0:0:0:
432,248,185322,1,0,0:0:0:0:
432,248,185493,1,8,0:0:0:0:
432,248,185665,1,8,0:0:0:0:
120,240,185750,1,8,0:0:0:0:
432,248,185836,1,0,0:0:0:0:
432,248,185922,1,0,0:0:0:0:
432,248,186008,1,8,0:0:0:0:
120,240,186093,1,8,0:0:0:0:
120,240,186179,1,0,0:0:0:0:
432,248,186522,1,12,0:0:0:0:
432,248,186865,1,8,0:0:0:0:
76,196,187036,1,0,0:0:0:0:
432,248,187208,1,0,0:0:0:0:
76,196,187293,1,0,0:0:0:0:
432,248,187379,1,8,0:0:0:0:
76,196,187550,1,8,0:0:0:0:
432,248,187722,1,8,0:0:0:0:
76,196,187808,1,8,0:0:0:0:
76,196,187893,1,8,0:0:0:0:
432,248,188065,1,0,0:0:0:0:
432,248,188236,1,8,0:0:0:0:
432,248,188408,1,8,0:0:0:0:
432,248,188579,1,0,0:0:0:0:
76,196,188665,1,8,0:0:0:0:
432,248,188750,1,0,0:0:0:0:
432,248,188836,1,0,0:0:0:0:
432,248,188922,1,8,0:0:0:0:
432,248,189265,1,12,0:0:0:0:
432,248,189608,1,8,0:0:0:0:
432,248,189950,1,0,0:0:0:0:
432,248,190122,1,8,0:0:0:0:
224,124,190293,1,8,0:0:0:0:
432,248,190465,1,8,0:0:0:0:
224,124,190550,1,8,0:0:0:0:
224,124,190636,1,8,0:0:0:0:
432,248,190808,1,0,0:0:0:0:
224,124,190893,1,0,0:0:0:0:
432,248,190979,1,8,0:0:0:0:
432,248,191150,1,8,0:0:0:0:
224,124,191236,1,8,0:0:0:0:
432,248,191322,1,0,0:0:0:0:
76,196,191408,1,8,0:0:0:0:
432,248,191493,1,0,0:0:0:0:
432,248,191579,1,0,0:0:0:0:
432,248,191665,1,8,0:0:0:0:
432,248,192008,1,12,0:0:0:0:
432,248,192350,1,8,0:0:0:0:
224,124,192522,1,0,0:0:0:0:
432,248,192693,1,0,0:0:0:0:
432,248,192865,1,8,0:0:0:0:
224,124,193036,1,8,0:0:0:0:
432,248,193208,1,8,0:0:0:0:
224,124,193293,1,8,0:0:0:0:
224,124,193379,1,8,0:0:0:0:
432,248,193550,1,0,0:0:0:0:
432,248,193722,1,8,0:0:0:0:
224,124,193808,1,8,0:0:0:0:
432,248,193893,1,8,0:0:0:0:
432,248,194065,1,0,0:0:0:0:
76,196,194150,1,8,0:0:0:0:
432,248,194236,1,0,0:0:0:0:
432,248,194322,1,0,0:0:0:0:
432,248,194408,1,8,0:0:0:0:
432,248,194750,1,12,0:0:0:0:
432,248,195093,5,8,0:0:0:0:
224,124,195265,1,0,0:0:0:0:
432,248,195436,1,0,0:0:0:0:
432,248,195608,1,8,0:0:0:0:
224,124,195779,1,8,0:0:0:0:
224,124,195865,1,8,0:0:0:0:
360,200,195950,5,0,0:0:0:0:
360,200,196008,1,0,0:0:0:0:
360,200,196065,1,0,0:0:0:0:
360,200,196122,1,8,0:0:0:0:
328,152,196293,1,0,0:0:0:0:
28,152,196379,1,0,0:0:0:0:
328,152,196465,1,0,0:0:0:0:
328,152,196636,1,8,0:0:0:0:
328,152,196808,1,0,0:0:0:0:
28,152,196893,1,0,0:0:0:0:
328,152,196979,1,0,0:0:0:0:
328,152,197065,1,0,0:0:0:0:
328,152,197150,1,8,0:0:0:0:
328,152,197236,1,8,0:0:0:0:
328,152,197322,1,0,0:0:0:0:
360,208,197408,1,0,0:0:0:0:
244,100,197493,1,12,0:0:0:0:
432,192,197665,1,0,0:0:0:0:
432,192,197836,1,0,0:0:0:0:
212,144,198008,1,12,0:0:0:0:
136,220,198350,1,0,0:0:0:0:
212,144,198522,1,12,0:0:0:0:
136,220,198693,1,0,0:0:0:0:
136,220,198865,1,0,0:0:0:0:
212,144,199036,1,12,0:0:0:0:
136,220,199208,1,0,0:0:0:0:
136,220,199379,1,0,0:0:0:0:
212,144,199550,1,12,0:0:0:0:
212,144,199722,1,12,0:0:0:0:
212,144,199893,1,12,0:0:0:0:
212,144,200065,1,12,0:0:0:0:
212,144,200236,1,12,0:0:0:0:
136,220,200408,1,0,0:0:0:0:
136,220,200579,1,0,0:0:0:0:
212,144,200750,1,12,0:0:0:0:
136,220,201093,1,8,0:0:0:0:
212,144,201265,1,12,0:0:0:0:
136,220,201436,1,0,0:0:0:0:
136,220,201608,1,0,0:0:0:0:
212,144,201779,1,12,0:0:0:0:
136,220,201950,1,8,0:0:0:0:
136,220,202122,1,8,0:0:0:0:
212,144,202293,1,12,0:0:0:0:
212,144,202465,1,12,0:0:0:0:
212,144,202636,1,12,0:0:0:0:
212,144,202808,1,12,0:0:0:0:
212,144,202979,1,12,0:0:0:0:
136,220,203322,1,0,0:0:0:0:
212,144,203493,1,12,0:0:0:0:
212,144,204008,1,12,0:0:0:0:
212,144,204522,1,12,0:0:0:0:
212,144,205036,1,12,0:0:0:0:
136,220,205208,1,0,0:0:0:0:
212,144,205379,1,12,0:0:0:0:
136,220,205550,1,0,0:0:0:0:
212,144,205722,1,12,0:0:0:0:
212,144,206236,1,12,0:0:0:0:
212,144,206750,1,12,0:0:0:0:
212,144,207265,1,12,0:0:0:0:
212,144,207779,1,12,0:0:0:0:
136,220,207950,1,0,0:0:0:0:
212,144,208122,1,12,0:0:0:0:
136,220,208293,1,0,0:0:0:0:
232,248,208465,5,0,0:0:0:0:
232,248,208636,1,0,0:0:0:0:
232,248,208808,1,8,0:0:0:0:
232,248,208979,1,0,0:0:0:0:
232,248,209150,1,8,0:0:0:0:
352,168,209322,1,8,0:0:0:0:
352,168,209493,1,0,0:0:0:0:
316,76,209579,1,8,0:0:0:0:
352,168,209665,1,0,0:0:0:0:
316,76,209750,1,8,0:0:0:0:
352,168,209836,1,0,0:0:0:0:
352,168,210008,1,8,0:0:0:0:
352,168,210179,1,0,0:0:0:0:
352,168,210350,1,8,0:0:0:0:
352,168,210522,1,8,0:0:0:0:
352,168,210693,1,0,0:0:0:0:
352,168,210865,1,0,0:0:0:0:
316,76,210950,1,8,0:0:0:0:
352,168,211036,1,8,0:0:0:0:
316,76,211122,1,8,0:0:0:0:
352,168,211208,1,0,0:0:0:0:
352,168,211379,1,8,0:0:0:0:
352,168,211550,1,8,0:0:0:0:
352,168,211722,1,0,0:0:0:0:
352,168,211893,1,8,0:0:0:0:
352,168,212065,1,8,0:0:0:0:
352,168,212236,1,0,0:0:0:0:
352,168,212408,1,8,0:0:0:0:
328,240,212579,5,8,0:0:0:0:
328,240,212665,1,0,0:0:0:0:
320,112,212750,1,8,0:0:0:0:
320,112,212836,1,8,0:0:0:0:
320,112,212922,1,8,0:0:0:0:
264,72,213008,1,0,0:0:0:0:
264,72,213093,1,0,0:0:0:0:
264,72,213179,1,8,0:0:0:0:
264,72,213265,1,0,0:0:0:0:
264,72,213350,1,0,0:0:0:0:
264,72,213436,1,0,0:0:0:0:
264,72,213522,1,8,0:0:0:0:
268,212,213608,1,8,0:0:0:0:
268,212,213693,1,0,0:0:0:0:
184,108,213779,1,0,0:0:0:0:
184,108,213865,1,8,0:0:0:0:
184,108,213950,1,0,0:0:0:0:
412,128,214036,1,8,0:0:0:0:
184,108,214122,1,0,0:0:0:0:
184,108,214208,1,0,0:0:0:0:
184,108,214293,1,8,0:0:0:0:
412,128,214379,1,0,0:0:0:0:
412,128,214465,1,0,0:0:0:0:
412,128,214550,1,8,0:0:0:0:
412,128,214636,1,8,0:0:0:0:
412,128,214722,1,0,0:0:0:0:
412,128,214808,1,8,0:0:0:0:
412,128,214893,1,8,0:0:0:0:
412,128,214979,1,0,0:0:0:0:
412,128,215150,1,8,0:0:0:0:
220,116,215322,1,0,0:0:0:0:
220,116,215408,1,0,0:0:0:0:
220,116,215493,1,8,0:0:0:0:
220,116,215579,1,0,0:0:0:0:
220,116,215665,1,8,0:0:0:0:
168,144,215750,1,8,0:0:0:0:
168,144,215836,1,0,0:0:0:0:
168,144,215922,1,0,0:0:0:0:
168,144,216008,1,8,0:0:0:0:
168,144,216093,1,8,0:0:0:0:
168,144,216179,1,0,0:0:0:0:
168,144,216265,1,0,0:0:0:0:
168,144,216350,1,8,0:0:0:0:
96,136,216436,1,8,0:0:0:0:
96,136,216522,1,0,0:0:0:0:
96,136,216608,1,8,0:0:0:0:
96,136,216693,1,0,0:0:0:0:
96,136,216779,1,0,0:0:0:0:
120,96,216865,1,8,0:0:0:0:
120,96,216950,1,0,0:0:0:0:
120,96,217036,1,8,0:0:0:0:
240,104,217122,1,8,0:0:0:0:
48,100,217208,1,0,0:0:0:0:
144,64,217293,1,8,0:0:0:0:
144,64,217379,1,8,0:0:0:0:
144,64,217465,1,8,0:0:0:0:
144,64,217550,1,0,0:0:0:0:
144,64,217636,1,0,0:0:0:0:
144,64,217722,1,8,0:0:0:0:
144,64,217808,1,8,0:0:0:0:
144,64,217893,1,0,0:0:0:0:
144,64,217979,1,0,0:0:0:0:
184,120,218065,1,0,0:0:0:0:
184,120,218122,1,0,0:0:0:0:
184,120,218179,1,0,0:0:0:0:
320,128,218236,1,8,0:0:0:0:
320,128,218293,1,8,0:0:0:0:
320,128,218350,1,8,0:0:0:0:
184,120,218408,1,0,0:0:0:0:
204,172,218493,1,0,0:0:0:0:
332,172,218579,1,8,0:0:0:0:
332,172,218636,1,0,0:0:0:0:
332,172,218693,1,0,0:0:0:0:
332,172,218750,1,8,0:0:0:0:
204,172,218836,1,0,0:0:0:0:
332,172,218922,1,8,0:0:0:0:
332,172,218979,1,0,0:0:0:0:
332,172,219036,1,0,0:0:0:0:
332,172,219093,1,8,0:0:0:0:
204,172,219179,1,0,0:0:0:0:
172,108,219265,1,8,0:0:0:0:
172,108,219322,1,0,0:0:0:0:
172,108,219379,1,0,0:0:0:0:
172,108,219436,1,8,0:0:0:0:
196,232,219779,1,8,0:0:0:0:
196,232,219950,1,0,0:0:0:0:
196,232,220122,1,8,0:0:0:0:
196,232,220208,1,8,0:0:0:0:
196,232,220293,1,0,0:0:0:0:
196,232,220465,1,8,0:0:0:0:
196,232,220636,1,8,0:0:0:0:
452,184,220722,1,8,0:0:0:0:
196,232,220808,1,0,0:0:0:0:
196,232,221150,1,8,0:0:0:0:
280,156,221322,1,0,0:0:0:0:
280,156,221408,1,8,0:0:0:0:
280,156,221579,1,8,0:0:0:0:
280,156,221665,1,0,0:0:0:0:
280,156,221750,1,0,0:0:0:0:
280,156,221836,1,8,0:0:0:0:
280,156,222008,1,8,0:0:0:0:
452,184,222093,1,8,0:0:0:0:
280,156,222179,1,0,0:0:0:0:
280,156,222522,1,8,0:0:0:0:
280,156,222693,1,0,0:0:0:0:
280,156,222779,1,8,0:0:0:0:
280,156,222865,1,8,0:0:0:0:
280,156,222950,1,8,0:0:0:0:
280,156,223036,1,0,0:0:0:0:
280,156,223208,1,8,0:0:0:0:
280,156,223379,1,8,0:0:0:0:
280,156,223550,1,0,0:0:0:0:
280,156,223893,1,8,0:0:0:0:
280,156,224065,1,0,0:0:0:0:
280,156,224150,1,8,0:0:0:0:
280,156,224322,1,8,0:0:0:0:
280,156,224408,1,0,0:0:0:0:
280,156,224493,1,0,0:0:0:0:
280,156,224579,1,8,0:0:0:0:
280,156,224750,1,8,0:0:0:0:
452,184,224836,1,8,0:0:0:0:
280,156,224922,1,0,0:0:0:0:
280,156,225265,1,8,0:0:0:0:
280,156,225436,1,0,0:0:0:0:
280,156,225608,1,8,0:0:0:0:
280,156,225693,1,8,0:0:0:0:
280,156,225779,1,0,0:0:0:0:
280,156,225950,1,8,0:0:0:0:
232,136,226036,5,8,0:0:0:0:
280,156,226122,1,8,0:0:0:0:
280,156,226293,1,0,0:0:0:0:
280,156,226636,1,8,0:0:0:0:
280,156,226808,1,0,0:0:0:0:
280,156,226893,1,8,0:0:0:0:
280,156,227065,1,8,0:0:0:0:
280,156,227150,1,0,0:0:0:0:
280,156,227236,1,0,0:0:0:0:
280,156,227322,1,8,0:0:0:0:
232,136,227408,1,0,0:0:0:0:
280,156,227493,1,8,0:0:0:0:
280,156,227665,1,0,0:0:0:0:
280,156,228008,1,8,0:0:0:0:
280,156,228179,1,0,0:0:0:0:
280,156,228265,1,8,0:0:0:0:
280,156,228350,1,8,0:0:0:0:
280,156,228436,1,8,0:0:0:0:
280,156,228522,1,0,0:0:0:0:
280,156,228693,1,8,0:0:0:0:
232,136,228779,1,8,0:0:0:0:
280,156,228865,1,8,0:0:0:0:
280,156,229036,1,0,0:0:0:0:
280,156,229379,1,8,0:0:0:0:
280,156,229550,1,0,0:0:0:0:
280,156,229636,1,8,0:0:0:0:
280,156,229808,1,8,0:0:0:0:
280,156,229893,1,0,0:0:0:0:
260,96,229979,1,0,0:0:0:0:
280,156,230065,1,8,0:0:0:0:
260,96,230150,1,0,0:0:0:0:
280,156,230236,1,8,0:0:0:0:
280,156,230408,1,0,0:0:0:0:
280,156,230750,1,8,0:0:0:0:
280,156,230922,1,0,0:0:0:0:
280,156,231093,1,8,0:0:0:0:
280,156,231179,1,8,0:0:0:0:
280,156,231265,1,0,0:0:0:0:
280,156,231436,1,8,0:0:0:0:
132,128,231522,1,8,0:0:0:0:
280,156,231608,1,8,0:0:0:0:
280,156,231779,1,0,0:0:0:0:
304,224,232122,1,8,0:0:0:0:
304,224,232293,1,0,0:0:0:0:
304,224,232379,1,8,0:0:0:0:
304,224,232550,1,8,0:0:0:0:
304,224,232636,1,0,0:0:0:0:
304,224,232722,1,0,0:0:0:0:
304,224,232808,1,8,0:0:0:0:
304,224,232979,1,8,0:0:0:0:
296,164,233065,1,8,0:0:0:0:
304,224,233150,1,0,0:0:0:0:
304,224,233493,1,8,0:0:0:0:
304,224,233665,1,0,0:0:0:0:
304,224,233750,1,8,0:0:0:0:
304,224,233836,1,8,0:0:0:0:
304,224,233922,1,8,0:0:0:0:
304,224,234008,1,0,0:0:0:0:
304,224,234179,1,8,0:0:0:0:
304,224,234350,1,8,0:0:0:0:
264,96,234436,1,8,0:0:0:0:
304,224,234522,1,0,0:0:0:0:
304,224,234865,1,8,0:0:0:0:
304,224,235036,1,0,0:0:0:0:
304,224,235122,1,8,0:0:0:0:
304,224,235293,1,8,0:0:0:0:
304,224,235379,1,0,0:0:0:0:
304,224,235465,1,0,0:0:0:0:
304,224,235550,1,8,0:0:0:0:
304,224,235722,1,8,0:0:0:0:
216,112,235808,1,8,0:0:0:0:
304,224,235893,1,0,0:0:0:0:
304,224,236236,1,8,0:0:0:0:
304,224,236408,1,0,0:0:0:0:
304,224,236493,1,8,0:0:0:0:
304,224,236579,1,8,0:0:0:0:
304,224,236665,1,8,0:0:0:0:
304,224,236750,1,0,0:0:0:0:
216,112,236836,1,0,0:0:0:0:
304,224,236922,1,8,0:0:0:0:
304,224,237093,1,8,0:0:0:0:
216,112,237179,1,8,0:0:0:0:
304,224,237265,1,0,0:0:0:0:
304,224,237608,1,8,0:0:0:0:
304,224,237779,1,0,0:0:0:0:
304,224,237865,1,8,0:0:0:0:
304,224,238036,1,8,0:0:0:0:
304,224,238122,1,0,0:0:0:0:
304,224,238208,1,0,0:0:0:0:
304,224,238293,1,8,0:0:0:0:
216,112,238379,1,0,0:0:0:0:
304,224,238465,1,8,0:0:0:0:
304,224,238636,1,0,0:0:0:0:
216,112,238722,1,0,0:0:0:0:
216,112,238808,1,0,0:0:0:0:
304,224,238979,1,8,0:0:0:0:
216,112,239065,1,8,0:0:0:0:
304,224,239150,1,0,0:0:0:0:
216,112,239236,1,0,0:0:0:0:
216,112,239322,1,8,0:0:0:0:
304,224,239493,1,0,0:0:0:0:
216,112,239579,1,0,0:0:0:0:
216,112,239665,1,0,0:0:0:0:
304,224,239836,1,8,0:0:0:0:
408,228,239922,1,8,0:0:0:0:
304,224,240008,1,0,0:0:0:0:
248,72,240093,1,0,0:0:0:0:
248,72,240179,1,8,0:0:0:0:
304,224,240350,1,8,0:0:0:0:
304,224,240522,1,0,0:0:0:0:
304,224,240608,1,8,0:0:0:0:
304,224,240779,1,8,0:0:0:0:
304,224,240865,1,0,0:0:0:0:
304,224,240950,1,0,0:0:0:0:
304,224,241036,1,8,0:0:0:0:
304,224,241208,1,8,0:0:0:0:
304,224,241379,1,4,0:0:0:0:
304,224,241722,1,8,0:0:0:0:
408,228,242065,1,0,0:0:0:0:
408,228,242236,1,8,0:0:0:0:
140,152,242408,1,8,0:0:0:0:
408,228,242579,1,8,0:0:0:0:
248,72,242665,1,8,0:0:0:0:
248,72,242750,1,8,0:0:0:0:
408,228,242922,1,0,0:0:0:0:
408,228,243093,1,8,0:0:0:0:
408,228,243265,1,8,0:0:0:0:
300,200,243350,1,8,0:0:0:0:
408,228,243436,1,0,0:0:0:0:
408,228,243608,1,0,0:0:0:0:
408,228,243693,1,0,0:0:0:0:
408,228,243779,1,8,0:0:0:0:
408,228,244122,1,0,0:0:0:0:
408,228,244465,1,8,0:0:0:0:
408,228,244808,1,0,0:0:0:0:
408,228,244979,1,8,0:0:0:0:
140,152,245150,1,8,0:0:0:0:
408,228,245322,1,8,0:0:0:0:
140,152,245408,1,8,0:0:0:0:
140,152,245493,1,8,0:0:0:0:
408,228,245665,1,0,0:0:0:0:
408,228,245836,1,8,0:0:0:0:
408,228,246008,1,8,0:0:0:0:
140,152,246093,1,8,0:0:0:0:
408,228,246179,1,0,0:0:0:0:
408,228,246350,1,0,0:0:0:0:
408,228,246436,1,0,0:0:0:0:
408,228,246522,1,8,0:0:0:0:
408,228,246865,1,0,0:0:0:0:
220,140,247208,1,8,0:0:0:0:
408,228,247379,1,8,0:0:0:0:
220,140,247550,1,8,0:0:0:0:
220,140,247722,1,0,0:0:0:0:
43,183,247808,1,0,0:0:0:0:
408,228,247893,1,8,0:0:0:0:
125,232,248065,1,8,0:0:0:0:
408,228,248236,1,0,0:0:0:0:
125,232,248408,1,8,0:0:0:0:
220,140,248579,1,8,0:0:0:0:
408,228,248750,1,0,0:0:0:0:
152,116,248836,1,8,0:0:0:0:
152,116,248922,1,8,0:0:0:0:
152,116,249008,1,8,0:0:0:0:
220,140,249093,1,0,0:0:0:0:
220,140,249179,1,0,0:0:0:0:
408,228,249265,1,8,0:0:0:0:
8,80,249436,1,8,0:0:0:0:
408,228,249608,1,0,0:0:0:0:
152,116,249950,1,8,0:0:0:0:
152,116,250293,1,0,0:0:0:0:
152,116,250465,1,8,0:0:0:0:
224,176,250636,1,8,0:0:0:0:
152,116,250808,1,8,0:0:0:0:
224,176,250893,1,8,0:0:0:0:
224,176,250979,1,8,0:0:0:0:
296,192,251150,1,0,1:0:0:0:
296,192,251322,1,8,1:0:0:0:
296,192,251493,1,8,1:0:0:0:
296,192,251665,1,0,1:0:0:0:
296,192,251836,1,0,1:0:0:0:
296,192,251922,1,0,1:0:0:0:
296,192,252008,1,8,1:0:0:0:
296,192,252350,1,0,1:0:0:0:
296,192,252693,1,8,1:0:0:0:
296,192,253036,1,8,1:0:0:0:
296,192,253208,1,0,1:0:0:0:
296,192,253379,1,8,1:0:0:0:
296,192,253550,1,8,1:0:0:0:
224,176,253722,1,8,0:0:0:0:
296,192,253893,1,0,1:0:0:0:
96,136,253979,1,0,0:0:0:0:
296,192,254065,1,8,1:0:0:0:
296,192,254236,1,8,1:0:0:0:
296,192,254408,1,0,1:0:0:0:
296,192,254579,1,0,1:0:0:0:
296,192,254665,1,0,1:0:0:0:
296,192,254750,1,8,1:0:0:0:
296,192,255093,1,0,0:0:0:0:
296,192,255436,1,8,0:0:0:0:
332,224,255779,1,0,0:0:0:0:
332,224,255950,1,8,0:0:0:0:
200,92,256122,1,0,0:0:0:0:
332,224,256293,1,8,0:0:0:0:
200,92,256379,1,8,0:0:0:0:
200,92,256465,1,8,0:0:0:0:
332,224,256636,1,0,0:0:0:0:
332,224,256808,1,8,0:0:0:0:
332,224,256979,1,8,0:0:0:0:
332,224,257150,1,0,0:0:0:0:
200,92,257236,1,8,0:0:0:0:
332,224,257322,1,0,0:0:0:0:
332,224,257408,1,0,0:0:0:0:
332,224,257493,1,8,0:0:0:0:
332,224,257836,1,0,0:0:0:0:
332,224,258179,1,8,0:0:0:0:
332,224,258522,1,0,0:0:0:0:
332,224,258693,1,8,0:0:0:0:
200,92,258865,1,8,0:0:0:0:
332,224,259036,1,8,0:0:0:0:
200,92,259122,1,8,0:0:0:0:
200,92,259208,1,0,0:0:0:0:
332,224,259379,1,0,0:0:0:0:
332,224,259550,1,8,0:0:0:0:
332,224,259722,1,8,0:0:0:0:
332,224,259893,1,0,0:0:0:0:
332,224,260065,1,0,0:0:0:0:
332,224,260150,1,0,0:0:0:0:
332,224,260236,1,8,0:0:0:0:
332,224,260579,1,0,0:0:0:0:
332,224,260922,5,8,0:0:0:0:
332,224,261265,1,0,0:0:0:0:
332,224,261436,1,8,0:0:0:0:
200,92,261608,1,8,0:0:0:0:
304,188,261779,5,0,0:0:0:0:
448,176,261836,1,0,0:0:0:0:
448,176,261893,1,0,0:0:0:0:
448,176,261950,1,8,0:0:0:0:
356,184,262122,1,0,0:0:0:0:
356,184,262208,1,8,0:0:0:0:
356,184,262293,1,8,0:0:0:0:
356,184,262379,1,0,0:0:0:0:
356,184,262465,1,8,0:0:0:0:
356,184,262636,1,8,0:0:0:0:
356,184,262722,1,8,0:0:0:0:
356,184,262808,1,0,0:0:0:0:
356,184,262893,1,8,0:0:0:0:
356,184,262979,1,8,0:0:0:0:
332,224,263150,1,8,0:0:0:0:
332,224,263236,1,8,0:0:0:0:
332,224,263322,1,0,0:0:0:0:
