osu file format v14

[General]
AudioFilename: audio.mp3
AudioLeadIn: 0
PreviewTime: 87541
Countdown: 0
SampleSet: Soft
StackLeniency: 0.7
Mode: 0
LetterboxInBreaks: 0
EpilepsyWarning: 1
WidescreenStoryboard: 1

[Editor]
DistanceSpacing: 0.6
BeatDivisor: 4
GridSize: 4
TimelineZoom: 2.199999

[Metadata]
Title:Great Canyon Remix
TitleUnicode:Great Canyon Remix
Artist:Kamex + Brotad
ArtistUnicode:Kamex + Brotad
Creator:kundi
Version:Sunset
Source:ポケモン不思議のダンジョン 青の救助隊・赤の救助隊
Tags:DTM9 Nowa Pokémon Mystery Dungeon おおいなる きょうこく PMD Rescue Team Explorers Red Blue Xatu Meteor video game nintendo DS gameboy stream freak collab POKEMON SUMMER MEGAMIX 2017 PokéTube AlmightyArceus Instrumental electronic Arata liyoshi Los Angeles dnb drum bass & and Remix!
BeatmapID:2262537
BeatmapSetID:1081579

[Difficulty]
HPDrainRate:5
CircleSize:4.2
OverallDifficulty:8.5
ApproachRate:9.2
SliderMultiplier:1.9
SliderTickRate:1

[Events]
//Background and Video events
0,0,"8cadc43d865dca43c5b7bbaccc3a08a5434c8eb7_s2_n1.jpg",0,0
//Break Periods
//Storyboard Layer 0 (Background)
//Storyboard Layer 1 (Fail)
//Storyboard Layer 2 (Pass)
//Storyboard Layer 3 (Foreground)
//Storyboard Layer 4 (Overlay)
//Storyboard Sound Samples

[TimingPoints]
20,707.964601769911,4,2,3,40,1,0
2674,-100,4,2,2,5,0,0
2851,-100,4,2,2,40,0,0
4798,-100,4,2,2,5,0,0
4975,-100,4,2,2,40,0,0
5506,-100,4,2,2,5,0,0
5683,-100,4,2,2,40,0,0
8338,-100,4,2,2,5,0,0
8515,-100,4,2,2,40,0,0
9754,-100,4,2,2,5,0,0
9931,-100,4,2,2,40,0,0
10816,-100,4,2,2,5,0,0
10993,-100,4,2,2,40,0,0
14002,-100,4,2,2,5,0,0
14179,-100,4,2,2,40,0,0
15418,-100,4,2,2,5,0,0
15595,-100,4,2,2,40,0,0
16126,-100,4,2,2,5,0,0
16303,-100,4,2,2,40,0,0
16834,-100,4,2,2,5,0,0
17011,-100,4,2,2,40,0,0
19666,-100,4,2,2,5,0,0
19843,-100,4,2,2,40,0,0
22600,352.941176470588,4,2,2,60,1,0
22600,-153.846153846154,4,2,2,60,0,0
25423,-117.647058823529,4,2,2,40,0,0
39541,-153.846153846154,4,2,2,40,0,0
40247,-117.647058823529,4,2,2,40,0,0
40952,-105.263157894737,4,2,2,40,0,0
41658,-117.647058823529,4,2,2,40,0,0
45188,-250,4,2,3,40,0,0
45364,-250,4,2,2,25,0,0
56482,-117.647058823529,4,2,2,60,0,0
61776,-117.647058823529,4,2,2,80,0,0
61864,-117.647058823529,4,2,2,60,0,0
66894,-78.7401574803149,4,2,2,60,0,0
67247,-66.6666666666667,4,2,2,60,0,0
67423,-66.6666666666667,4,2,2,80,0,0
67776,-100,4,2,2,60,0,0
89658,-78.7401574803149,4,2,2,60,0,0
90011,-66.6666666666667,4,2,2,60,0,0
90364,-83.3333333333333,4,2,3,80,0,1
90452,-83.3333333333333,4,2,2,80,0,1
112952,-100,4,2,3,40,0,0
118599,-100,4,2,2,40,0,0
163775,-200,4,2,2,60,0,0
176129,-100,4,2,2,60,0,0
176482,-200,4,2,2,60,0,0
184952,-100,4,2,2,60,0,0
185305,-78.7401574803149,4,2,2,60,0,0
185658,-66.6666666666667,4,2,2,60,0,0
186364,-83.3333333333333,4,2,3,80,0,1
186452,-83.3333333333333,4,2,2,80,0,1
231541,-100,4,2,2,60,0,0
254128,-100,4,2,3,60,0,0

[Colours]
Combo1 : 103,88,73
Combo2 : 226,136,92
Combo3 : 99,66,29
Combo4 : 255,134,13
Combo5 : 166,96,0
Combo6 : 171,155,148

[HitObjects]
86,221,20,70,0,B|116:193|163:152|228:179|228:179|218:244|165:266|165:266|148:200|122:153|80:128|80:128|4:171|-2:229|13:293|13:293|57:306|108:289,1,712.5,4|0,1:0|0:0,0:0:0:0:
169,336,2851,6,0,B|214:327|214:327|230:251|230:251|168:264|168:264|183:230|185:195|185:195|230:181|267:152|267:152|270:193|308:235|308:235|288:319,1,522.5,2|0,2:0|0:0,0:0:0:0:
362,344,4975,2,0,L|391:202,1,142.5,2|0,0:0|0:0,0:0:0:0:
466,212,5683,70,0,B|543:157|525:73|525:73|481:92|428:64|428:64|404:50|316:61|336:169|399:190|460:184|502:99|455:76|428:63|421:43|361:7|361:7|324:28|241:31,1,712.5,2|0,0:0|0:0,0:0:0:0:
186,41,8515,2,0,B|196:103|251:119|291:112|291:112|270:218|219:157|224:284,1,332.5,2|0,0:0|0:0,0:0:0:0:
149,203,9931,2,0,B|137:241|145:291|145:291|122:313|122:313|91:306|91:306|81:242|47:202,1,237.5,2|0,0:0|0:0,0:0:0:0:
58,215,10993,1,2,0:0:0:0:
195,341,11347,6,0,B|172:356|143:349|143:349|169:382|221:364|221:364|255:353|284:365|284:365|289:338|257:309|257:309|222:280|215:226|215:226|207:198|231:174|249:170|274:162|324:174|316:237|296:257|271:265|238:274|215:232|215:232|142:216|150:130,1,712.5,2|0,0:0|0:0,0:0:0:0:
184,96,14179,2,0,B|264:56|353:105|353:105|402:16|491:7,1,332.5,2|0,0:0|0:0,0:0:0:0:
466,91,15595,2,0,P|416:157|442:245,1,142.5,2|0,0:0|0:0,0:0:0:0:
495,241,16303,2,0,P|527:317|481:396,1,142.5,2|0,0:0|0:0,0:0:0:0:
431,311,17011,70,0,B|323:243|247:298|247:298|246:338|301:367|301:367|355:327|352:257|331:206|331:206|293:173|293:173|247:159|182:195|229:239|147:255|91:231,1,712.5,2|0,0:0|0:0,0:0:0:0:
126,144,19843,1,0,0:0:0:0:
256,192,20019,12,0,22142,0:0:0:0:
52,30,22600,6,0,L|54:104,1,61.7499971733095,0|0,1:0|0:0,0:0:0:0:
142,142,22952,2,0,L|143:80,1,61.7499971733095,0|0,0:0|0:0,0:0:0:0:
322,30,23305,2,0,L|320:104,1,61.7499971733095,0|0,1:0|0:0,0:0:0:0:
232,142,23658,2,0,L|230:80,1,61.7499971733095,0|0,0:0|0:0,0:0:0:0:
324,275,24011,70,0,L|322:201,1,61.7499971733095,0|0,1:0|0:0,0:0:0:0:
234,163,24364,2,0,L|232:224,1,61.7499971733095,0|0,0:0|0:0,0:0:0:0:
54,279,24717,2,0,L|56:205,1,61.7499971733095,0|0,1:0|0:0,0:0:0:0:
144,167,25070,2,0,L|145:228,1,61.7499971733095,0|0,0:0|0:0,0:0:0:0:
260,297,25423,5,2,1:2:0:0:
315,204,25600,2,0,P|363:189|414:199,1,80.750001540184,0|8,0:0|0:3,0:0:0:0:
469,248,25952,1,0,0:0:0:0:
356,343,26129,2,0,L|364:279,1,40.375000770092,0|0,1:0|0:0,0:0:0:0:
365,267,26305,1,8,0:3:0:0:
297,138,26482,1,0,0:0:0:0:
427,84,26658,1,0,0:0:0:0:
276,119,26835,70,0,L|188:100,1,80.750001540184,8|0,1:3|0:0,0:0:0:0:
119,172,27188,1,0,0:0:0:0:
105,86,27364,1,8,0:3:0:0:
204,197,27541,1,0,1:0:0:0:
35,162,27717,2,0,L|40:212,1,40.375000770092,8|0,0:3|0:0,0:0:0:0:
41,241,27894,2,0,L|34:321,1,80.750001540184,8|0,0:3|0:0,0:0:0:0:
119,355,28247,5,2,1:2:0:0:
191,284,28423,1,0,0:0:0:0:
269,342,28599,2,0,L|377:356,1,80.750001540184,8|0,0:3|0:0,0:0:0:0:
449,307,28952,2,0,L|437:246,1,40.375000770092,0|0,1:0|0:0,0:0:0:0:
434,232,29129,2,0,L|440:144,2,80.750001540184,8|0|0,0:3|0:0|0:0,0:0:0:0:
274,198,29658,70,0,P|268:158|283:103,1,80.750001540184,8|0,1:3|0:0,0:0:0:0:
323,35,30011,1,0,0:0:0:0:
385,99,30188,1,8,0:3:0:0:
213,44,30364,1,0,1:0:0:0:
162,128,30541,2,0,L|168:184,1,40.375000770092,8|0,0:3|0:0,0:0:0:0:
177,210,30717,2,0,L|163:325,1,80.750001540184,8|0,0:3|0:0,0:0:0:0:
256,355,31070,6,0,B|343:351|299:289|412:297,1,161.500003080368,2|8,1:2|0:3,0:0:0:0:
489,353,31599,1,0,0:0:0:0:
480,174,31776,2,0,L|468:242,1,40.375000770092,0|0,1:0|0:0,0:0:0:0:
463,253,31952,1,8,0:3:0:0:
394,109,32129,2,0,P|369:116|299:113,1,80.750001540184,0|0,0:0|0:0,0:0:0:0:
273,227,32482,70,0,P|296:214|365:205,2,80.750001540184,8|0|0,1:3|0:0|0:0,0:0:0:0:
173,276,33011,1,8,0:3:0:0:
253,331,33188,1,0,1:0:0:0:
236,150,33364,2,0,L|181:160,1,40.375000770092,8|0,0:3|0:0,0:0:0:0:
161,159,33541,2,0,L|52:152,1,80.750001540184,8|0,0:3|0:0,0:0:0:0:
66,296,33894,6,0,P|132:252|240:256,1,161.500003080368,2|8,1:2|0:0,0:0:0:0:
246,337,34423,1,2,0:0:0:0:
305,244,34599,1,0,0:0:0:0:
383,342,34776,1,0,1:0:0:0:
427,183,34952,2,0,L|416:263,1,80.750001540184,8|2,0:0|0:0,0:0:0:0:
243,319,35305,70,0,L|231:239,1,80.750001540184,2|0,1:2|0:0,0:0:0:0:
146,174,35658,1,8,0:0:0:0:
306,169,35835,2,0,P|268:147|232:143,1,80.750001540184,2|0,0:2|0:0,0:0:0:0:
61,262,36188,2,0,L|116:246,1,40.375000770092,0|0,1:0|0:0,0:0:0:0:
129,251,36364,2,0,L|229:271,1,80.750001540184,8|0,0:0|0:0,0:0:0:0:
291,355,36717,6,0,L|211:370,1,80.750001540184,2|0,1:2|0:0,0:0:0:0:
111,343,37070,1,8,0:0:0:0:
173,154,37247,1,2,0:0:0:0:
261,276,37423,1,0,0:0:0:0:
186,170,37599,1,0,1:0:0:0:
236,349,37776,2,0,P|270:323|329:310,1,80.750001540184,8|2,0:0|0:0,0:0:0:0:
354,195,38129,70,0,L|268:182,1,80.750001540184,2|0,1:2|0:0,0:0:0:0:
236,261,38482,1,8,0:0:0:0:
340,112,38658,2,0,L|419:99,1,80.750001540184,2|0,0:2|0:0,0:0:0:0:
486,277,39011,2,0,L|475:233,1,40.375000770092,0|0,1:0|0:0,0:0:0:0:
481,205,39188,2,0,L|498:104,1,80.750001540184,8|2,0:0|0:2,0:0:0:0:
376,103,39541,5,2,1:2:0:0:
334,170,39717,1,0,1:0:0:0:
297,98,39894,2,0,L|270:25,1,61.7499971733095,8|0,0:0|1:0,0:0:0:0:
367,144,40247,69,0,1:0:0:0:
330,231,40423,1,0,1:0:0:0:
272,153,40599,2,0,L|227:75,1,80.750001540184,8|0,0:0|1:0,0:0:0:0:
184,267,40952,5,0,1:0:0:0:
120,165,41129,1,0,1:0:0:0:
67,273,41305,2,0,L|27:380,1,90.2499975900651,8|0,0:0|1:0,0:0:0:0:
212,231,41658,69,0,1:0:0:0:
154,90,41835,1,0,1:0:0:0:
61,214,42011,2,0,L|0:315,1,80.750001540184,8|0,0:0|1:0,0:0:0:0:
313,180,42364,5,10,0:0:0:0:
160,16,42541,1,0,1:0:0:0:
160,16,42717,1,0,1:0:0:0:
148,244,42894,69,8,0:0:0:0:
320,80,43070,1,0,1:0:0:0:
320,80,43247,1,0,1:0:0:0:
91,95,43423,5,8,0:0:0:0:
235,244,43599,2,0,L|229:181,1,40.375000770092,0|0,1:0|1:0,0:0:0:0:
227,178,43776,1,0,1:0:0:0:
205,335,44835,69,8,0:0:0:0:
205,335,44923,1,8,0:0:0:0:
205,335,45011,1,0,1:0:0:0:
374,276,45188,6,0,L|370:221,1,38,4|0,1:0|0:0,0:0:0:0:
386,259,45717,2,0,L|390:204,1,38,0|0,0:0|0:0,0:0:0:0:
405,239,46247,2,0,L|418:185,1,38,0|0,0:0|0:0,0:0:0:0:
422,223,46776,2,0,L|444:172,1,38,0|0,0:0|0:0,0:0:0:0:
440,212,47305,2,0,L|467:185,1,38,0|0,0:0|0:0,0:0:0:0:
255,77,48011,70,0,P|279:83|301:79,1,38,0|0,0:0|0:0,0:0:0:0:
240,92,48541,2,0,P|264:93|285:85,1,38,0|0,0:0|0:0,0:0:0:0:
235,118,49070,2,0,P|259:115|278:104,1,38,0|0,0:0|0:0,0:0:0:0:
231,145,49599,2,0,P|254:138|271:123,1,38,0|0,0:0|0:0,0:0:0:0:
223,179,50129,2,0,P|268:165|292:140,1,76,0|0,0:0|0:0,0:0:0:0:
111,140,50835,6,0,L|113:98,1,38,0|0,0:0|0:0,0:0:0:0:
128,160,51364,2,0,L|123:118,1,38,0|0,0:0|0:0,0:0:0:0:
112,192,51894,2,0,L|114:150,1,38,0|0,0:0|0:0,0:0:0:0:
128,224,52423,2,0,L|126:182,1,38,0|0,0:0|0:0,0:0:0:0:
112,256,52952,2,0,L|114:214,1,38,0|0,0:0|0:0,0:0:0:0:
276,218,53658,70,0,L|326:214,1,38,0|0,0:0|0:0,0:0:0:0:
286,204,54188,2,0,L|336:200,1,38,0|0,0:0|0:0,0:0:0:0:
295,191,54717,2,0,L|345:187,1,38,0|0,0:0|0:0,0:0:0:0:
305,177,55247,2,0,L|355:173,1,38,0|0,0:0|0:0,0:0:0:0:
313,161,55776,2,0,L|388:155,1,76,0|0,0:0|0:0,0:0:0:0:
120,318,56482,38,0,L|110:357,1,40.375000770092,2|0,1:2|0:0,0:0:0:0:
135,308,56658,2,0,L|126:347,1,40.375000770092,2|0,2:0|0:0,0:0:0:0:
226,290,56835,2,0,L|235:251,1,40.375000770092,2|0,1:2|0:0,0:0:0:0:
241,280,57011,2,0,L|251:241,1,40.375000770092,2|0,2:0|0:0,0:0:0:0:
308,337,57188,1,2,1:2:0:0:
335,329,57276,1,0,2:0:0:0:
362,321,57364,2,0,L|434:302,1,40.375000770092,0|0,2:0|2:0,0:0:0:0:
387,215,57541,2,0,L|459:234,3,40.375000770092,10|0|0|0,1:2|2:0|0:2|2:0,0:0:0:0:
289,217,57894,70,0,L|279:256,1,40.375000770092,0|0,1:2|0:0,0:0:0:0:
276,228,58070,2,0,L|266:267,1,40.375000770092,2|0,2:0|2:0,0:0:0:0:
203,171,58247,2,0,L|193:131,1,40.375000770092,2|0,1:2|2:0,0:0:0:0:
210,158,58423,2,0,L|201:118,1,40.375000770092,2|0,2:0|0:0,0:0:0:0:
107,144,58599,1,2,1:2:0:0:
115,117,58688,1,0,0:0:0:0:
123,90,58776,2,0,L|142:18,1,40.375000770092,0|0,2:0|2:0,0:0:0:0:
220,39,58952,2,0,L|258:28,3,40.375000770092,10|0|0|0,1:2|2:0|0:2|2:0,0:0:0:0:
295,133,59305,6,0,L|305:94,1,40.375000770092,2|0,1:2|0:0,0:0:0:0:
302,148,59482,2,0,L|312:110,1,40.375000770092,2|0,2:0|0:0,0:0:0:0:
257,254,59658,2,0,L|242:200,1,40.375000770092,2|0,1:2|0:0,0:0:0:0:
239,245,59835,2,0,L|226:198,1,40.375000770092,2|0,2:0|0:0,0:0:0:0:
345,304,60011,1,2,1:2:0:0:
372,296,60099,1,0,0:0:0:0:
399,288,60188,2,0,L|471:269,1,40.375000770092,0|0,2:0|2:0,0:0:0:0:
459,189,60364,2,0,L|497:199,3,40.375000770092,10|0|0|0,1:2|2:0|0:2|2:0,0:0:0:0:
338,148,60717,70,0,L|327:102,1,40.375000770092,0|0,1:2|0:0,0:0:0:0:
344,132,60894,2,0,L|335:88,1,40.375000770092,2|0,2:0|2:0,0:0:0:0:
272,208,61070,2,0,L|261:252,1,40.375000770092,2|0,1:2|2:0,0:0:0:0:
260,212,61247,2,0,L|250:251,1,40.375000770092,2|0,2:0|0:0,0:0:0:0:
160,122,61423,1,2,1:2:0:0:
168,95,61511,1,0,0:0:0:0:
176,68,61599,2,0,L|186:28,1,40.375000770092,0|0,2:0|2:0,0:0:0:0:
267,53,61776,69,8,0:0:0:0:
56,336,62129,6,0,L|21:315,1,40.375000770092,2|0,1:2|2:0,0:0:0:0:
0,238,62305,2,0,L|20:204,1,40.375000770092,2|0,1:2|2:0,0:0:0:0:
101,177,62482,2,0,L|135:197,1,40.375000770092,10|0,1:2|2:0,0:0:0:0:
163,277,62658,2,0,L|142:311,1,40.375000770092,2|0,1:2|2:0,0:0:0:0:
238,345,62835,1,2,1:2:0:0:
262,313,62923,1,0,0:0:0:0:
301,304,63011,2,0,L|355:306,1,40.375000770092,0|0,2:0|2:0,0:0:0:0:
419,325,63188,2,0,L|454:372,3,40.375000770092,10|0|0|0,1:2|2:0|0:2|2:0,0:0:0:0:
383,95,63541,6,0,L|327:127,1,40.375000770092,2|0,1:2|2:0,0:0:0:0:
326,192,63717,2,0,L|347:227,1,40.375000770092,2|0,1:2|2:0,0:0:0:0:
428,254,63894,2,0,L|462:234,1,40.375000770092,10|0,1:2|2:0,0:0:0:0:
490,154,64070,2,0,L|462:105,1,40.375000770092,2|0,1:2|2:0,0:0:0:0:
383,95,64247,1,2,1:2:0:0:
355,81,64335,1,0,0:0:0:0:
327,69,64423,2,0,L|308:141,1,40.375000770092,0|0,2:0|2:0,0:0:0:0:
248,192,64599,2,0,L|257:244,3,40.375000770092,10|0|0|0,1:2|2:0|0:2|2:0,0:0:0:0:
192,85,64952,70,0,L|182:10,1,40.375000770092,2|0,1:2|2:0,0:0:0:0:
57,121,65129,2,0,L|67:46,1,40.375000770092,2|0,1:2|2:0,0:0:0:0:
207,72,65305,2,0,L|197:-3,1,40.375000770092,10|0,1:2|2:0,0:0:0:0:
47,110,65482,2,0,L|57:35,1,40.375000770092,2|0,1:2|2:0,0:0:0:0:
212,237,65658,6,0,L|202:162,1,40.375000770092,2|0,1:2|2:0,0:0:0:0:
33,273,65835,2,0,L|43:198,1,40.375000770092,0|0,1:0|2:0,0:0:0:0:
222,221,66011,2,0,L|212:146,1,40.375000770092,10|0,1:2|0:0,0:0:0:0:
16,256,66188,2,0,L|26:181,1,40.375000770092,8|0,0:2|1:0,0:0:0:0:
235,330,66364,69,8,0:2:0:0:
235,330,66452,1,8,0:2:0:0:
235,330,66541,2,0,L|291:321,1,40.375000770092,0|0,0:0|0:0,0:0:0:0:
410,253,66717,1,8,0:2:0:0:
409,253,66805,1,8,0:2:0:0:
409,253,66894,2,0,L|337:242,1,60.3249995397568,0|0,0:0|0:0,0:0:0:0:
248,163,67070,1,8,0:2:0:0:
248,163,67158,1,8,0:2:0:0:
248,163,67247,2,0,L|336:148,1,71.2500027179719,0|0,0:0|0:0,0:0:0:0:
472,110,67423,6,0,P|458:49|378:7,1,142.500005435944,8|0,0:2|0:0,0:0:0:0:
280,52,67776,69,0,1:0:0:0:
253,71,67864,1,0,0:0:0:0:
220,78,67952,1,0,0:0:0:0:
187,71,68041,1,0,0:0:0:0:
159,51,68129,1,8,0:2:0:0:
133,30,68217,1,0,0:0:0:0:
102,17,68305,1,0,0:0:0:0:
70,26,68394,1,0,0:0:0:0:
50,53,68482,6,0,P|36:92|35:118,1,47.5,0|0,0:0|0:0,0:0:0:0:
161,178,68658,2,0,P|175:139|176:113,1,47.5,0|0,1:0|0:0,0:0:0:0:
36,223,68835,2,0,P|22:181|21:155,3,47.5,8|0|0|0,0:2|0:0|0:0|0:0,0:0:0:0:
128,276,69188,1,0,1:0:0:0:
120,298,69276,1,0,0:0:0:0:
117,321,69364,1,0,0:0:0:0:
118,345,69452,1,0,0:0:0:0:
124,369,69541,69,8,0:2:0:0:
146,341,69629,1,0,0:0:0:0:
173,317,69717,1,0,0:0:0:0:
206,304,69805,1,0,0:0:0:0:
241,299,69894,1,0,0:0:0:0:
274,310,69982,1,0,0:0:0:0:
306,324,70070,2,0,L|385:327,1,47.5,0|0,1:0|0:0,0:0:0:0:
386,209,70247,2,0,L|343:275,1,47.5,8|0,0:2|0:0,0:0:0:0:
448,335,70423,2,0,L|411:265,1,47.5,0|0,1:0|0:0,0:0:0:0:
434,136,70599,5,0,1:0:0:0:
402,133,70688,1,0,0:0:0:0:
373,122,70776,1,0,0:0:0:0:
348,102,70864,1,0,0:0:0:0:
321,85,70952,69,8,0:2:0:0:
290,79,71041,1,0,0:0:0:0:
259,79,71129,1,0,0:0:0:0:
230,93,71217,1,0,0:0:0:0:
205,114,71305,2,0,P|184:141|173:178,1,47.5,0|0,0:0|0:0,0:0:0:0:
82,191,71482,2,0,P|69:159|42:131,1,47.5,0|0,1:0|0:0,0:0:0:0:
85,53,71658,2,0,P|118:57|156:48,3,47.5,8|0|0|0,0:2|0:0|0:0|0:0,0:0:0:0:
170,192,72011,6,0,P|175:246|192:302,1,95,2|0,0:0|1:0,0:0:0:0:
200,313,72276,1,0,0:0:0:0:
217,340,72364,1,10,0:2:0:0:
94,306,72541,1,0,0:0:0:0:
264,209,72717,70,0,L|328:213,1,47.5,2|0,0:0|0:0,0:0:0:0:
417,318,72894,2,0,L|343:330,1,47.5,0|0,1:0|0:0,0:0:0:0:
298,338,73070,1,10,0:2:0:0:
395,214,73247,1,8,0:2:0:0:
200,249,73423,6,0,P|186:210|186:168,3,47.5,2|0|0|0,1:2|0:0|0:0|0:0,0:0:0:0:
64,167,73776,2,0,P|78:128|78:86,3,47.5,8|0|0|0,0:2|0:0|0:0|0:0,0:0:0:0:
160,68,74129,1,0,0:0:0:0:
184,93,74217,1,0,0:0:0:0:
216,109,74305,1,0,1:0:0:0:
251,114,74394,1,0,0:0:0:0:
286,107,74482,69,8,0:2:0:0:
316,89,74570,1,0,0:0:0:0:
347,72,74658,1,0,0:0:0:0:
382,69,74747,1,0,0:0:0:0:
416,79,74835,6,0,P|430:114|432:143,1,47.5,2|0,1:2|0:0,0:0:0:0:
322,210,75011,2,0,P|327:186|337:165,1,47.5,0|0,1:0|0:0,0:0:0:0:
452,207,75188,2,0,P|457:263|429:317,1,95,10|2,0:2|0:0,0:0:0:0:
418,324,75452,1,0,0:0:0:0:
386,341,75541,1,0,0:0:0:0:
350,341,75629,1,0,0:0:0:0:
319,328,75717,70,0,P|285:316|250:315,1,47.5,2|0,1:2|0:0,0:0:0:0:
186,357,75894,2,0,P|194:300|199:239,1,95,8|2,0:2|1:2,0:0:0:0:
248,205,76158,1,2,0:2:0:0:
238,170,76247,2,0,P|230:136|233:92,1,47.5,2|0,1:2|0:0,0:0:0:0:
146,30,76423,2,0,P|147:63|141:108,1,47.5,2|0,0:0|0:0,0:0:0:0:
61,141,76599,6,0,P|46:200|48:260,1,95,8|2,0:2|0:0,0:0:0:0:
94,313,76864,1,0,1:0:0:0:
112,296,76952,2,0,P|139:284|183:279,1,47.5,0|0,0:0|0:0,0:0:0:0:
224,380,77129,2,0,P|201:374|179:364,1,47.5,2|0,1:2|0:0,0:0:0:0:
258,276,77305,1,10,0:2:0:0:
327,340,77482,1,2,0:0:0:0:
391,258,77658,70,0,P|414:248|457:246,1,47.5,2|0,0:0|0:0,0:0:0:0:
512,181,77835,2,0,P|488:177|466:167,1,47.5,2|0,1:2|0:0,0:0:0:0:
461,336,78011,1,8,0:2:0:0:
374,176,78188,1,2,0:0:0:0:
374,176,78276,1,2,0:0:0:0:
374,176,78364,2,0,L|381:120,1,47.5,2|0,0:0|0:0,0:0:0:0:
473,28,78541,2,0,L|482:97,1,47.5,2|0,1:2|0:0,0:0:0:0:
507,176,78717,1,10,0:2:0:0:
507,176,78805,1,8,0:2:0:0:
507,176,78894,2,0,L|459:170,1,47.5,2|0,1:2|0:0,0:0:0:0:
433,305,79070,6,0,L|385:299,1,47.5,6|0,1:2|0:0,0:0:0:0:
420,289,79247,2,0,L|372:283,1,47.5,0|0,1:0|0:0,0:0:0:0:
348,130,79423,2,0,L|354:178,3,47.5,8|0|2|0,0:2|0:0|0:0|0:0,0:0:0:0:
252,299,79776,2,0,L|246:251,3,47.5,0|0|0|0,0:0|0:0|1:0|0:0,0:0:0:0:
271,153,80129,2,0,P|233:163|160:147,1,95,10|0,0:2|0:0,0:0:0:0:
117,89,80394,1,8,0:2:0:0:
117,89,80482,2,0,P|96:81|69:83,1,47.5,0|0,1:0|0:0,0:0:0:0:
26,169,80658,1,2,0:0:0:0:
36,212,80747,1,0,0:0:0:0:
63,237,80835,69,8,0:2:0:0:
87,207,80923,1,0,0:0:0:0:
100,171,81011,1,0,0:0:0:0:
97,133,81099,1,0,0:0:0:0:
83,97,81188,6,0,P|102:74|143:51,1,47.5,2|0,0:0|0:0,0:0:0:0:
208,26,81364,2,0,P|231:45|254:86,1,47.5,0|0,1:0|0:0,0:0:0:0:
280,155,81541,2,0,P|261:178|220:201,1,47.5,10|0,0:2|0:0,0:0:0:0:
167,228,81717,2,0,P|144:209|121:168,1,47.5,0|0,1:0|0:0,0:0:0:0:
230,307,81894,69,2,1:2:0:0:
258,312,81982,1,0,0:0:0:0:
283,325,82070,1,2,0:0:0:0:
303,344,82158,1,0,0:0:0:0:
329,354,82247,1,10,0:2:0:0:
358,355,82335,1,0,0:0:0:0:
387,343,82423,1,2,0:0:0:0:
406,321,82511,1,0,1:0:0:0:
417,294,82599,6,0,P|422:258|418:232,1,47.5,2|0,0:0|0:0,0:0:0:0:
282,118,82776,2,0,P|271:139|265:162,1,47.5,2|0,1:2|0:0,0:0:0:0:
300,232,82952,1,8,0:2:0:0:
371,90,83129,1,2,1:2:0:0:
405,202,83305,2,0,P|374:174|340:159,3,47.5,0|0|2|0,1:0|0:0|0:0|0:0,0:0:0:0:
248,216,83658,70,0,P|258:264|263:333,1,95,10|2,0:2|0:0,0:0:0:0:
266,337,83923,1,0,1:0:0:0:
268,364,84011,1,2,0:0:0:0:
424,352,84188,1,2,1:2:0:0:
352,212,84364,1,10,0:2:0:0:
349,249,84452,1,8,0:2:0:0:
341,285,84541,1,2,1:2:0:0:
440,252,84717,6,0,L|434:204,5,47.5,2|0|0|0|8|0,1:2|0:0|0:0|0:0|0:2|0:0,0:0:0:0:
356,176,85247,70,0,L|361:128,5,47.5,2|0|0|0|0|0,0:0|0:0|0:0|0:0|1:0|0:0,0:0:0:0:
460,100,85776,6,0,L|454:52,3,47.5,10|0|0|0,0:2|0:0|0:0|0:0,0:0:0:0:
368,52,86129,2,0,L|373:4,3,47.5,0|0|0|0,1:0|0:0|0:0|0:0,0:0:0:0:
286,131,86482,2,0,L|292:179,3,47.5,8|0|0|0,0:2|0:0|0:0|0:0,0:0:0:0:
257,35,86835,69,0,0:0:0:0:
228,38,86923,1,0,0:0:0:0:
204,53,87011,1,0,1:0:0:0:
186,75,87099,1,0,0:0:0:0:
164,94,87188,1,8,0:2:0:0:
138,105,87276,1,0,0:0:0:0:
109,100,87364,1,0,1:0:0:0:
89,79,87452,1,0,0:0:0:0:
81,51,87541,6,0,L|75:-13,5,47.5,2|0|0|0|8|0,1:2|0:0|0:0|0:0|0:2|0:0,0:0:0:0:
32,180,88070,70,0,L|22:246,5,47.5,2|0|0|0|0|0,1:2|0:0|0:0|0:0|1:0|0:0,0:0:0:0:
134,125,88599,5,10,0:2:0:0:
162,294,88776,1,0,1:0:0:0:
245,128,88952,69,8,0:2:0:0:
273,297,89129,1,0,1:0:0:0:
353,127,89305,5,8,0:2:0:0:
381,296,89482,1,0,1:0:0:0:
447,129,89658,69,10,0:2:0:0:
447,129,89747,1,8,0:2:0:0:
447,129,89835,2,0,L|533:114,1,60.3249995397568,0|0,1:0|0:0,0:0:0:0:
352,228,90011,1,8,0:2:0:0:
352,228,90099,1,8,0:2:0:0:
352,228,90188,2,0,L|253:214,1,71.2500027179719,0|0,1:0|0:0,0:0:0:0:
136,80,90364,38,0,P|165:17|231:11,1,113.999996520996,4|0,1:0|0:0,0:0:0:0:
270,149,90717,2,0,L|276:84,3,56.9999982604981,8|0|0|0,0:2|0:0|0:0|0:0,0:0:0:0:
152,160,91070,2,0,L|157:231,3,56.9999982604981,0|0|0|0,0:0|0:0|1:0|0:0,0:0:0:0:
340,206,91423,2,0,L|329:289,1,56.9999982604981,10|0,0:2|0:0,0:0:0:0:
221,330,91599,2,0,L|216:273,1,56.9999982604981,2|0,0:2|0:0,0:0:0:0:
382,125,91776,69,2,1:2:0:0:
401,128,91864,1,0,0:0:0:0:
421,130,91952,1,0,0:0:0:0:
441,133,92041,1,0,0:0:0:0:
464,132,92129,1,8,0:2:0:0:
488,114,92217,1,0,0:0:0:0:
502,79,92305,1,0,0:0:0:0:
493,43,92394,1,0,0:0:0:0:
464,19,92482,5,0,0:0:0:0:
427,18,92570,1,0,0:0:0:0:
396,39,92658,2,0,P|367:37|340:29,1,56.9999982604981,0|0,1:0|0:0,0:0:0:0:
302,160,92835,2,0,P|322:130|354:104,1,56.9999982604981,8|0,0:2|0:0,0:0:0:0:
238,19,93011,2,0,P|250:44|258:71,1,56.9999982604981,0|0,1:0|0:0,0:0:0:0:
233,208,93188,70,0,L|246:283,3,56.9999982604981,2|0|0|0,1:2|0:0|0:0|0:0,0:0:0:0:
248,282,93541,1,8,0:2:0:0:
251,301,93629,1,0,0:0:0:0:
255,319,93717,1,0,0:0:0:0:
258,338,93805,5,0,0:0:0:0:
223,336,93894,1,0,0:0:0:0:
189,329,93982,1,0,0:0:0:0:
156,320,94070,2,0,L|85:329,1,56.9999982604981,2|0,1:2|0:0,0:0:0:0:
0,243,94247,2,0,L|62:235,1,56.9999982604981,10|0,0:2|0:0,0:0:0:0:
202,145,94423,2,0,L|145:152,1,56.9999982604981,2|0,0:2|0:0,0:0:0:0:
33,65,94599,70,0,L|42:139,1,56.9999982604981,2|0,0:2|0:0,0:0:0:0:
54,74,94776,2,0,L|63:148,1,56.9999982604981,0|0,1:0|0:0,0:0:0:0:
153,248,94952,2,0,L|162:174,3,56.9999982604981,8|0|0|0,0:2|0:0|0:0|0:0,0:0:0:0:
33,65,95305,2,0,L|42:139,1,56.9999982604981,0|0,0:0|0:0,0:0:0:0:
54,74,95482,2,0,L|63:148,1,56.9999982604981,0|0,1:0|0:0,0:0:0:0:
153,248,95658,2,0,L|162:174,1,56.9999982604981,8|0,0:2|0:0,0:0:0:0:
264,72,95835,2,0,L|257:128,1,56.9999982604981,8|0,0:2|0:0,0:0:0:0:
361,241,96011,5,2,1:2:0:0:
357,212,96099,1,0,0:0:0:0:
353,183,96188,1,0,0:0:0:0:
349,153,96276,1,0,0:0:0:0:
346,125,96364,1,8,0:2:0:0:
353,91,96452,1,0,0:0:0:0:
376,67,96541,1,0,0:0:0:0:
408,57,96629,1,0,0:0:0:0:
441,65,96717,69,0,0:0:0:0:
464,89,96805,1,0,0:0:0:0:
474,122,96894,2,0,L|468:193,1,56.9999982604981,2|0,1:2|0:0,0:0:0:0:
370,193,97070,2,0,L|383:286,1,56.9999982604981,10|0,0:2|0:0,0:0:0:0:
484,336,97247,2,0,L|493:263,1,56.9999982604981,2|0,0:2|0:0,0:0:0:0:
397,341,97423,5,2,1:2:0:0:
472,198,97599,1,0,1:0:0:0:
300,276,97776,2,0,L|311:334,1,56.9999982604981,8|0,0:2|0:0,0:0:0:0:
371,210,97952,1,0,0:0:0:0:
373,181,98041,1,0,0:0:0:0:
374,153,98129,2,0,L|379:80,1,56.9999982604981,0|0,0:0|0:0,0:0:0:0:
272,125,98305,2,0,L|279:184,1,56.9999982604981,0|0,1:0|0:0,0:0:0:0:
169,77,98482,2,0,P|137:67|96:77,3,56.9999982604981,8|0|0|0,0:2|0:0|0:0|0:0,0:0:0:0:
218,234,98835,70,0,L|209:306,3,56.9999982604981,2|0|0|0,1:2|0:0|0:0|0:0,0:0:0:0:
51,206,99188,2,0,P|36:269|70:333,1,113.999996520996,8|0,0:2|0:0,0:0:0:0:
67,340,99452,1,0,1:0:0:0:
86,363,99541,2,0,L|142:357,1,56.9999982604981
263,263,99717,2,0,L|183:271,1,56.9999982604981,2|0,1:2|0:0,0:0:0:0:
371,365,99894,5,8,0:2:0:0:
376,336,99982,1,0,0:0:0:0:
383,308,100070,1,2,0:2:0:0:
389,281,100158,1,0,0:0:0:0:
395,253,100247,2,0,L|408:185,1,56.9999982604981,2|0,0:2|0:0,0:0:0:0:
253,131,100423,2,0,L|289:201,1,56.9999982604981,0|0,1:0|0:0,0:0:0:0:
393,49,100599,2,0,L|336:46,3,56.9999982604981,8|0|0|0,0:2|0:0|0:0|0:0,0:0:0:0:
166,26,100952,69,2,0:2:0:0:
143,28,101041,1,0,0:0:0:0:
122,36,101129,1,0,1:0:0:0:
106,52,101217,1,0,0:0:0:0:
95,73,101305,5,10,0:2:0:0:
100,106,101394,1,8,0:2:0:0:
107,139,101482,2,0,L|119:200,1,56.9999982604981,0|0,1:0|0:0,0:0:0:0:
284,136,101658,70,0,L|288:77,1,56.9999982604981,2|0,1:2|0:0,0:0:0:0:
143,291,101835,2,0,L|132:371,1,56.9999982604981,0|0,1:0|0:0,0:0:0:0:
231,233,102011,6,0,L|311:244,3,56.9999982604981,8|0|0|0,0:2|0:0|0:0|0:0,0:0:0:0:
310,331,102364,2,0,L|366:324,3,56.9999982604981,0|0|0|0,0:0|0:0|1:0|0:0,0:0:0:0:
364,166,102717,2,0,L|374:246,1,56.9999982604981,10|0,0:2|0:0,0:0:0:0:
467,330,102894,1,2,0:2:0:0:
467,330,102982,1,8,0:2:0:0:
467,330,103070,70,0,L|470:261,3,56.9999982604981,2|0|0|0,1:2|0:0|0:0|0:0,0:0:0:0:
472,244,103423,1,8,0:2:0:0:
464,216,103511,1,0,0:0:0:0:
442,196,103599,1,0,0:0:0:0:
414,187,103688,1,0,0:0:0:0:
369,196,103776,5,0,0:0:0:0:
334,226,103864,1,0,0:0:0:0:
296,253,103952,1,0,1:0:0:0:
251,259,104041,1,0,0:0:0:0:
217,228,104129,69,8,0:2:0:0:
221,200,104217,1,0,0:0:0:0:
226,172,104305,1,0,1:0:0:0:
231,143,104394,1,0,0:0:0:0:
235,115,104482,6,0,L|248:50,3,56.9999982604981,2|0|0|0,1:2|0:0|0:0|0:0,0:0:0:0:
46,113,104835,1,8,0:2:0:0:
52,140,104923,1,0,0:0:0:0:
57,167,105011,1,0,0:0:0:0:
106,152,105099,1,0,1:0:0:0:
157,158,105188,2,0,P|187:175|208:203,1,56.9999982604981
206,284,105364,2,0,P|199:318|180:347,1,56.9999982604981,2|0,1:2|0:0,0:0:0:0:
105,350,105541,2,0,L|49:341,1,56.9999982604981,10|0,0:2|0:0,0:0:0:0:
71,249,105717,2,0,L|127:258,1,56.9999982604981,2|0,1:2|0:0,0:0:0:0:
282,278,105894,70,0,L|288:336,3,56.9999982604981,2|0|0|0,1:2|0:0|0:0|0:0,0:0:0:0:
293,144,106247,1,8,0:2:0:0:
296,116,106335,1,0,0:0:0:0:
300,88,106423,1,0,0:0:0:0:
304,63,106511,1,0,1:0:0:0:
309,39,106599,6,0,L|365:39,1,56.9999982604981,0|0,0:0|0:0,0:0:0:0:
374,116,106776,2,0,L|430:116,1,56.9999982604981,0|0,1:0|0:0,0:0:0:0:
433,194,106952,1,8,0:2:0:0:
433,194,107041,1,8,0:2:0:0:
433,194,107129,2,0,L|489:194,1,56.9999982604981,0|0,1:0|0:0,0:0:0:0:
306,328,107305,70,0,L|320:264,3,56.9999982604981,2|0|0|0,1:2|0:0|0:0|0:0,0:0:0:0:
319,237,107658,1,8,0:2:0:0:
295,212,107747,1,0,0:0:0:0:
261,206,107835,1,0,0:0:0:0:
228,216,107923,1,0,0:0:0:0:
207,243,108011,5,0,0:0:0:0:
180,264,108099,1,0,0:0:0:0:
146,268,108188,2,0,L|58:249,1,56.9999982604981,2|0,1:2|0:0,0:0:0:0:
126,126,108364,2,0,L|153:211,1,56.9999982604981,10|0,0:2|0:0,0:0:0:0:
0,230,108541,2,0,L|60:163,1,56.9999982604981,2|0,0:2|0:0,0:0:0:0:
138,350,108717,69,2,1:2:0:0:
166,348,108805,1,0,0:0:0:0:
193,339,108894,1,0,0:0:0:0:
212,318,108982,1,0,0:0:0:0:
231,297,109070,1,8,0:2:0:0:
257,286,109158,1,0,0:0:0:0:
285,281,109247,1,0,0:0:0:0:
312,290,109335,1,0,0:0:0:0:
330,311,109423,2,0,L|320:388,3,56.9999982604981,0|0|0|0,0:0|0:0|1:0|0:0,0:0:0:0:
454,277,109776,2,0,L|447:221,3,56.9999982604981,8|0|0|0,0:2|0:0|0:0|0:0,0:0:0:0:
256,192,110129,6,0,L|263:135,3,56.9999982604981,2|0|0|0,1:2|0:0|0:0|0:0,0:0:0:0:
415,103,110482,2,0,L|408:47,1,56.9999982604981,8|0,0:2|0:0,0:0:0:0:
344,192,110658,1,0,1:0:0:0:
226,29,110835,1,0,0:0:0:0:
173,181,111011,2,0,L|162:265,1,56.9999982604981,2|0,1:2|0:0,0:0:0:0:
34,242,111188,2,0,L|112:209,1,56.9999982604981,10|0,0:2|0:0,0:0:0:0:
147,333,111364,2,0,L|79:281,1,56.9999982604981,2|0,1:2|0:0,0:0:0:0:
256,136,111541,69,10,0:2:0:0:
272,312,111717,1,0,1:0:0:0:
376,80,111894,5,8,0:2:0:0:
352,264,112070,1,0,1:0:0:0:
470,183,112247,69,10,0:2:0:0:
443,171,112335,1,8,0:2:0:0:
417,156,112423,2,0,L|333:181,1,56.9999982604981,0|0,1:0|0:0,0:0:0:0:
181,285,112599,5,10,0:2:0:0:
208,273,112688,1,8,0:2:0:0:
233,258,112776,2,0,L|317:283,1,56.9999982604981,0|0,1:0|0:0,0:0:0:0:
414,259,112952,5,4,1:0:0:0:
256,192,113305,12,0,118247,0:0:0:0:
152,134,118599,5,0,1:0:0:0:
253,70,118776,70,0,L|257:7,1,47.5
253,70,118952,2,0,L|309:41,1,47.5,8|0,0:3|0:0,0:0:0:0:
253,70,119129,2,0,L|305:104,1,47.5,0|0,0:0|0:0,0:0:0:0:
253,70,119305,2,0,L|248:133,1,47.5,0|0,0:0|0:0,0:0:0:0:
253,70,119482,2,0,L|196:98,1,47.5,0|0,0:0|0:0,0:0:0:0:
253,70,119658,2,0,L|200:35,1,47.5,8|0,0:3|0:0,0:0:0:0:
316,152,119835,6,0,L|379:146,1,47.5
323,161,120011,2,0,L|380:155,1,47.5,0|0,0:0|0:0,0:0:0:0:
331,168,120188,2,0,L|388:163,1,47.5,0|0,0:0|0:0,0:0:0:0:
248,215,120364,70,0,L|200:211,1,47.5,8|0,0:3|0:0,0:0:0:0:
238,223,120541,2,0,L|191:218,1,47.5,0|0,0:0|0:0,0:0:0:0:
230,231,120717,2,0,L|182:228,1,47.5,0|0,0:0|0:0,0:0:0:0:
222,241,120894,2,0,L|173:236,1,47.5,0|0,0:0|0:0,0:0:0:0:
275,353,121070,6,0,L|265:281,1,47.5,8|0,0:3|0:0,0:0:0:0:
282,343,121247,2,0,L|272:271,1,47.5,0|0,0:0|0:0,0:0:0:0:
366,220,121423,70,0,L|362:270,1,47.5,0|0,0:0|0:0,0:0:0:0:
373,232,121599,2,0,L|368:282,1,47.5,0|0,0:0|0:0,0:0:0:0:
380,244,121776,2,0,L|376:294,1,47.5,8|0,0:3|0:0,0:0:0:0:
385,256,121952,2,0,L|380:307,1,47.5,0|0,0:0|0:0,0:0:0:0:
473,187,122129,6,0,L|469:137,1,47.5
478,175,122305,2,0,L|473:125,1,47.5,0|0,0:0|0:0,0:0:0:0:
482,164,122482,2,0,L|478:114,1,47.5,8|0,0:3|0:0,0:0:0:0:
367,128,122658,70,0,L|363:178,1,47.5
375,140,122835,2,0,L|370:190,1,47.5,0|0,0:0|0:0,0:0:0:0:
381,153,123011,2,0,L|377:203,1,47.5,0|0,0:0|0:0,0:0:0:0:
256,272,123188,6,0,L|319:273,1,47.5,8|0,0:3|0:0,0:0:0:0:
256,272,123364,2,0,L|287:326,1,47.5,8|0,0:3|0:0,0:0:0:0:
256,272,123541,2,0,L|223:324,1,47.5,0|0,0:0|0:0,0:0:0:0:
256,272,123717,2,0,L|193:269,1,47.5,0|0,0:0|0:0,0:0:0:0:
256,192,123894,70,0,L|192:189,1,47.5,8|0,0:3|0:0,0:0:0:0:
256,192,124070,2,0,L|319:193,1,47.5,0|0,0:0|0:0,0:0:0:0:
256,56,124247,6,0,L|192:56,1,47.5
256,56,124423,2,0,L|200:24,1,47.5,0|0,0:0|0:0,0:0:0:0:
256,56,124599,2,0,L|223:0,1,47.5,8|0,0:3|0:0,0:0:0:0:
256,56,124776,2,0,L|255:-9,1,47.5,0|0,0:0|0:0,0:0:0:0:
256,56,124952,2,0,L|287:0,1,47.5,0|0,0:0|0:0,0:0:0:0:
256,56,125129,2,0,L|311:23,1,47.5,0|0,0:0|0:0,0:0:0:0:
256,56,125305,2,0,L|319:55,1,47.5,8|0,0:3|0:0,0:0:0:0:
216,136,125482,70,0,L|222:199,1,47.5
210,147,125658,2,0,L|216:210,1,47.5,0|0,0:0|0:0,0:0:0:0:
204,157,125835,2,0,L|210:220,1,47.5,0|0,0:0|0:0,0:0:0:0:
78,104,126011,6,0,L|128:100,1,47.5,8|0,0:3|0:0,0:0:0:0:
87,111,126188,2,0,L|137:106,1,47.5,0|0,0:0|0:0,0:0:0:0:
98,117,126364,2,0,L|148:113,1,47.5,0|0,0:0|0:0,0:0:0:0:
107,123,126541,2,0,L|158:118,1,47.5,0|0,0:0|0:0,0:0:0:0:
48,240,126717,70,0,L|58:168,1,47.5,8|0,0:3|0:0,0:0:0:0:
42,234,126894,2,0,L|52:162,1,47.5,0|0,0:0|0:0,0:0:0:0:
126,299,127070,6,0,L|122:249,1,47.5
131,290,127247,2,0,L|126:240,1,47.5,0|0,0:0|0:0,0:0:0:0:
136,277,127423,2,0,L|132:227,1,47.5,8|0,0:3|0:0,0:0:0:0:
143,267,127599,2,0,L|138:216,1,47.5,0|0,0:0|0:0,0:0:0:0:
240,258,127776,70,0,L|236:308,1,47.5
246,269,127952,2,0,L|241:319,1,47.5,0|0,0:0|0:0,0:0:0:0:
251,277,128129,2,0,L|247:327,1,47.5,8|0,0:3|0:0,0:0:0:0:
370,244,128305,6,0,L|374:294,1,47.5
364,253,128482,2,0,L|369:303,1,47.5,0|0,0:0|0:0,0:0:0:0:
360,263,128658,2,0,L|364:313,1,47.5,0|0,0:0|0:0,0:0:0:0:
284,192,128835,69,8,0:3:0:0:
348,121,129011,1,8,0:3:0:0:
286,48,129188,2,0,L|223:38,1,47.5,0|0,0:0|0:0,0:0:0:0:
191,130,129364,2,0,L|237:122,1,47.5,0|0,0:0|0:0,0:0:0:0:
348,144,129541,5,8,0:3:0:0:
347,162,129629,1,8,0:3:0:0:
346,199,129717,69,8,0:3:0:0:
346,217,129805,1,8,0:3:0:0:
342,264,129894,6,0,L|346:201,1,47.5,0|0,1:0|0:0,0:0:0:0:
253,314,130070,70,0,L|257:377,1,47.5
253,314,130247,2,0,L|309:343,1,47.5,8|0,0:3|0:0,0:0:0:0:
253,314,130423,2,0,L|305:280,1,47.5,0|0,0:0|0:0,0:0:0:0:
253,314,130599,2,0,L|248:251,1,47.5,0|0,0:0|0:0,0:0:0:0:
253,314,130776,2,0,L|196:286,1,47.5,0|0,0:0|0:0,0:0:0:0:
253,314,130952,2,0,L|200:349,1,47.5,8|0,0:3|0:0,0:0:0:0:
316,235,131129,6,0,L|379:241,1,47.5
393,152,131305,69,0,1:0:0:0:
381,160,131482,2,0,L|333:155,1,47.5,0|0,0:0|0:0,0:0:0:0:
254,171,131658,6,0,L|204:175,1,47.5,8|0,0:3|0:0,0:0:0:0:
245,165,131835,2,0,L|195:170,1,47.5,0|0,0:0|0:0,0:0:0:0:
236,159,132011,2,0,L|186:163,1,47.5,0|0,0:0|0:0,0:0:0:0:
228,154,132188,2,0,L|177:159,1,47.5,0|0,0:0|0:0,0:0:0:0:
292,47,132364,70,0,L|282:119,1,47.5,8|0,0:3|0:0,0:0:0:0:
297,56,132541,2,0,L|287:128,1,47.5,0|0,0:0|0:0,0:0:0:0:
366,162,132717,5,0,1:0:0:0:
374,154,132894,2,0,L|369:104,1,47.5,0|0,0:0|0:0,0:0:0:0:
380,144,133070,2,0,L|376:94,1,47.5,8|0,0:3|0:0,0:0:0:0:
387,137,133247,2,0,L|382:86,1,47.5,0|0,0:0|0:0,0:0:0:0:
457,194,133423,70,0,L|453:244,1,47.5
463,204,133599,2,0,L|458:254,1,47.5,0|0,0:0|0:0,0:0:0:0:
469,214,133776,2,0,L|465:264,1,47.5,8|0,0:3|0:0,0:0:0:0:
392,318,133952,6,0,L|388:268,1,47.5
303,233,134129,69,0,1:0:0:0:
310,242,134305,2,0,L|306:292,1,47.5,0|0,0:0|0:0,0:0:0:0:
256,160,134482,6,0,L|319:158,1,47.5,8|0,0:3|0:0,0:0:0:0:
256,160,134658,2,0,L|287:105,1,47.5,8|0,0:3|0:0,0:0:0:0:
256,160,134835,2,0,L|223:107,1,47.5,0|0,0:0|0:0,0:0:0:0:
256,160,135011,2,0,L|193:162,1,47.5,0|0,0:0|0:0,0:0:0:0:
256,240,135188,69,8,1:3:0:0:
256,240,135364,2,0,L|208:240,1,47.5,0|0,0:0|0:0,0:0:0:0:
256,320,135541,6,0,L|192:320,1,47.5,0|0,1:0|0:0,0:0:0:0:
256,320,135717,2,0,L|200:352,1,47.5,0|0,0:0|0:0,0:0:0:0:
256,320,135894,2,0,L|223:376,1,47.5,8|0,0:3|0:0,0:0:0:0:
256,320,136070,2,0,L|255:385,1,47.5,0|0,0:0|0:0,0:0:0:0:
256,320,136247,2,0,L|287:376,1,47.5,0|0,0:0|0:0,0:0:0:0:
256,320,136423,2,0,L|311:353,1,47.5,0|0,0:0|0:0,0:0:0:0:
256,320,136599,2,0,L|319:321,1,47.5,8|0,0:3|0:0,0:0:0:0:
224,240,136776,70,0,L|228:192,1,47.5
160,288,136952,5,0,1:0:0:0:
154,299,137129,2,0,L|160:362,1,47.5,0|0,0:0|0:0,0:0:0:0:
56,280,137305,70,0,L|52:230,1,47.5,8|0,0:3|0:0,0:0:0:0:
63,270,137482,2,0,L|58:220,1,47.5,0|0,0:0|0:0,0:0:0:0:
73,260,137658,2,0,L|69:210,1,47.5,0|0,0:0|0:0,0:0:0:0:
82,249,137835,2,0,L|77:198,1,47.5,0|0,0:0|0:0,0:0:0:0:
168,176,138011,6,0,L|240:166,1,47.5,8|0,0:3|0:0,0:0:0:0:
176,187,138188,2,0,L|248:177,1,47.5,0|0,0:0|0:0,0:0:0:0:
122,103,138364,69,0,1:0:0:0:
131,97,138541,2,0,L|181:102,1,47.5,0|0,0:0|0:0,0:0:0:0:
142,90,138717,2,0,L|192:94,1,47.5,8|0,0:3|0:0,0:0:0:0:
153,83,138894,2,0,L|204:88,1,47.5,0|0,0:0|0:0,0:0:0:0:
274,126,139070,6,0,L|324:130,1,47.5
286,119,139247,2,0,L|336:124,1,47.5,0|0,0:0|0:0,0:0:0:0:
299,113,139423,2,0,L|349:117,1,47.5,8|0,0:3|0:0,0:0:0:0:
337,199,139599,70,0,L|387:195,1,47.5
488,120,139776,5,0,1:0:0:0:
482,127,139952,2,0,L|432:123,1,47.5,0|0,0:0|0:0,0:0:0:0:
455,222,140129,1,8,1:3:0:0:
463,231,140305,2,0,L|513:227,1,47.5,8|0,0:3|0:0,0:0:0:0:
395,319,140482,2,0,L|254:328,1,95,0|0,1:0|0:0,0:0:0:0:
297,296,140747,1,0,1:0:0:0:
293,260,140835,69,8,0:3:0:0:
290,241,140923,1,8,0:3:0:0:
289,203,141011,5,8,0:3:0:0:
287,184,141099,1,8,0:3:0:0:
281,142,141188,70,0,L|276:74,1,47.5,4|0,1:2|0:0,0:0:0:0:
281,98,141541,2,0,L|285:50,1,47.5,8|0,1:3|0:0,0:0:0:0:
388,36,141894,1,0,1:0:0:0:
408,135,142070,1,0,0:0:0:0:
412,158,142158,1,0,1:0:0:0:
416,181,142247,1,8,0:3:0:0:
350,254,142423,1,0,1:0:0:0:
458,338,142599,6,0,L|406:318,1,47.5,0|0,1:0|0:0,0:0:0:0:
413,320,142952,2,0,L|361:340,1,47.5,8|0,1:3|0:0,0:0:0:0:
290,357,143305,1,0,1:0:0:0:
242,276,143482,1,0,0:0:0:0:
244,262,143570,1,0,0:0:0:0:
249,248,143658,1,8,0:3:0:0:
162,251,143835,1,0,1:0:0:0:
97,193,144011,70,0,L|78:121,1,47.5,0|0,1:0|0:0,0:0:0:0:
84,147,144364,2,0,L|104:93,1,47.5,8|0,1:3|0:0,0:0:0:0:
132,17,144717,1,0,1:0:0:0:
210,102,144894,1,0,0:0:0:0:
194,118,144982,1,0,0:0:0:0:
177,134,145070,1,8,0:3:0:0:
231,210,145247,1,0,1:0:0:0:
161,313,145423,6,0,L|223:303,1,47.5,0|0,1:0|0:0,0:0:0:0:
207,305,145776,2,0,L|269:315,1,47.5,8|0,1:3|0:0,0:0:0:0:
331,376,146129,1,0,1:0:0:0:
427,326,146305,1,0,0:0:0:0:
450,315,146394,1,0,1:0:0:0:
473,301,146482,1,8,0:3:0:0:
410,218,146658,1,0,1:0:0:0:
460,131,146835,70,0,L|400:113,1,47.5,0|0,1:0|0:0,0:0:0:0:
414,117,147188,2,0,L|354:135,1,47.5,8|0,1:3|0:0,0:0:0:0:
288,160,147541,1,0,1:0:0:0:
179,142,147717,1,0,0:0:0:0:
156,135,147805,1,0,1:0:0:0:
134,128,147894,1,8,0:3:0:0:
60,189,148070,1,0,1:0:0:0:
134,269,148247,6,0,L|120:318,1,47.5,0|0,1:0|0:0,0:0:0:0:
120,314,148599,2,0,L|134:363,1,47.5,8|0,1:3|0:0,0:0:0:0:
211,335,148952,1,0,1:0:0:0:
296,310,149129,1,0,0:0:0:0:
306,319,149217,1,0,1:0:0:0:
318,326,149305,1,8,0:3:0:0:
397,298,149482,1,0,1:0:0:0:
402,209,149658,70,0,L|434:124,1,47.5,0|0,1:0|0:0,0:0:0:0:
418,164,150011,2,0,L|405:118,1,47.5,8|0,1:3|0:0,0:0:0:0:
373,35,150364,1,0,1:0:0:0:
267,69,150541,1,0,0:0:0:0:
247,56,150629,1,0,1:0:0:0:
227,44,150717,1,8,0:3:0:0:
149,95,150894,1,0,1:0:0:0:
56,53,151070,6,0,L|66:113,1,47.5,0|0,1:0|0:0,0:0:0:0:
63,99,151423,2,0,L|53:159,1,47.5,8|0,1:3|0:0,0:0:0:0:
28,228,151776,1,0,1:0:0:0:
54,248,151952,2,0,L|62:307,1,47.5,0|0,0:0|1:0,0:0:0:0:
149,323,152129,69,8,0:3:0:0:
166,328,152217,1,8,0:3:0:0:
201,338,152305,5,8,0:3:0:0:
219,342,152394,1,8,0:3:0:0:
263,357,152482,70,0,L|202:337,1,47.5,0|0,1:0|0:0,0:0:0:0:
279,273,152658,1,0,0:0:0:0:
279,273,152747,1,0,0:0:0:0:
279,273,152835,2,0,L|324:258,1,47.5,8|0,1:3|0:0,0:0:0:0:
358,339,153011,6,0,L|343:384,1,47.5
279,273,153188,2,0,L|243:217,1,47.5,8|0,1:2|0:0,0:0:0:0:
360,161,153364,1,0,0:0:0:0:
360,161,153452,1,0,1:0:0:0:
360,161,153541,2,0,L|329:220,1,47.5,8|0,0:3|0:0,0:0:0:0:
225,155,153717,2,0,L|291:151,1,47.5,0|0,1:0|0:0,0:0:0:0:
176,255,153894,69,0,1:0:0:0:
176,255,153982,1,0,0:0:0:0:
180,259,154070,2,0,L|196:345,1,47.5,0|0,0:0|0:0,0:0:0:0:
89,246,154247,1,8,1:3:0:0:
89,246,154335,1,0,0:0:0:0:
89,246,154423,2,0,L|105:160,1,47.5,0|0,0:0|0:0,0:0:0:0:
121,94,154599,6,0,L|188:102,1,47.5,8|0,1:2|0:0,0:0:0:0:
189,222,154776,1,0,0:2:0:0:
189,222,154864,1,0,1:0:0:0:
189,222,154952,2,0,L|162:159,1,47.5,8|0,0:3|0:0,0:0:0:0:
269,97,155129,2,0,L|228:149,1,47.5,0|0,1:0|0:0,0:0:0:0:
369,119,155305,69,0,1:0:0:0:
369,119,155394,1,0,0:0:0:0:
369,119,155482,2,0,L|384:178,1,47.5,0|0,0:0|0:0,0:0:0:0:
282,260,155658,1,8,1:3:0:0:
282,260,155747,1,0,0:0:0:0:
282,260,155835,2,0,L|297:201,1,47.5,0|0,0:0|0:0,0:0:0:0:
417,254,156011,6,0,P|382:248|353:229,1,47.5,8|0,1:2|0:0,0:0:0:0:
371,339,156188,1,0,0:0:0:0:
371,339,156276,1,0,1:0:0:0:
371,339,156364,2,0,P|383:371|381:406,1,47.5,8|0,0:3|0:0,0:0:0:0:
459,334,156541,2,0,P|481:306|512:291,1,47.5,0|0,1:0|0:0,0:0:0:0:
409,233,156717,69,0,1:0:0:0:
409,233,156805,1,0,0:0:0:0:
409,233,156894,2,0,L|394:174,1,47.5,0|0,0:0|0:0,0:0:0:0:
496,169,157070,1,8,1:3:0:0:
496,169,157158,1,0,0:0:0:0:
496,169,157247,2,0,L|500:108,1,47.5,0|0,0:0|0:0,0:0:0:0:
395,30,157423,6,0,L|329:34,1,47.5,8|0,1:2|0:0,0:0:0:0:
386,36,157599,2,0,L|320:40,1,47.5,0|0,0:0|1:0,0:0:0:0:
353,157,157776,2,0,L|287:153,1,47.5,8|0,0:2|0:0,0:0:0:0:
344,151,157952,2,0,L|278:147,1,47.5,0|0,1:0|0:0,0:0:0:0:
221,85,158129,69,0,1:0:0:0:
221,85,158305,1,0,1:0:0:0:
141,152,158482,1,8,1:3:0:0:
141,152,158658,1,0,1:0:0:0:
214,239,158835,1,0,1:0:0:0:
214,239,159011,1,0,1:0:0:0:
144,321,159188,1,8,1:3:0:0:
144,321,159364,1,0,1:0:0:0:
214,239,159541,6,0,L|287:246,1,47.5,0|0,1:0|0:0,0:0:0:0:
220,245,159717,2,0,L|293:252,1,47.5,0|0,1:0|0:0,0:0:0:0:
132,173,159894,2,0,L|59:180,1,47.5,8|0,1:3|0:0,0:0:0:0:
126,179,160070,2,0,L|53:186,1,47.5,0|0,1:0|0:0,0:0:0:0:
257,111,160247,2,0,L|330:118,1,47.5,0|0,1:0|0:0,0:0:0:0:
263,117,160423,2,0,L|336:124,1,47.5,0|0,1:0|0:0,0:0:0:0:
117,23,160599,2,0,L|44:30,1,47.5,8|0,1:3|0:0,0:0:0:0:
111,29,160776,2,0,L|38:36,1,47.5,0|0,1:0|0:0,0:0:0:0:
129,135,160952,70,0,L|124:95,6,23.75,8|0|0|0|0|0|0,1:3|0:0|0:0|0:0|0:0|0:0|0:0,0:0:0:0:
51,169,161305,6,0,L|57:206,6,23.75,8|0|0|0|0|0|0,1:3|0:0|0:0|0:0|0:0|0:0|0:0,0:0:0:0:
139,256,161658,70,0,L|133:222,1,23.75,8|0,1:3|0:0,0:0:0:0:
160,274,161747,2,0,L|157:297,1,23.75,0|0,0:0|0:0,0:0:0:0:
196,288,161835,2,0,L|193:328,1,23.75,0|0,0:0|0:0,0:0:0:0:
231,277,161923,2,0,L|225:244,1,23.75,0|0,1:0|0:0,0:0:0:0:
261,249,162011,2,0,L|264:211,1,23.75,8|0,0:3|0:0,0:0:0:0:
302,251,162099,2,0,L|299:291,1,23.75,0|0,0:0|0:0,0:0:0:0:
333,264,162188,2,0,L|328:300,1,23.75,0|0,1:0|0:0,0:0:0:0:
371,288,162276,2,0,L|363:323,1,23.75,0|0,0:0|0:0,0:0:0:0:
399,294,162364,5,0,1:0:0:0:
407,287,162452,1,0,0:0:0:0:
415,282,162541,2,0,L|409:225,1,47.5,0|0,0:0|0:0,0:0:0:0:
349,187,162717,69,8,1:3:0:0:
341,180,162805,1,0,0:0:0:0:
333,175,162894,2,0,L|339:118,1,47.5,0|0,0:0|0:0,0:0:0:0:
424,110,163070,6,0,L|429:143,4,23.75,0|0|0|0|0,1:0|0:0|0:0|0:0|0:0,0:0:0:0:
429,100,163335,1,0,0:0:0:0:
434,92,163423,2,0,P|393:43|350:37,1,95,0|0,0:0|0:0,0:0:0:0:
158,87,163776,6,0,P|158:108|168:149,1,47.5,2|0,1:2|0:0,0:0:0:0:
285,206,164129,2,0,P|291:177|294:149,1,47.5,2|0,0:0|0:0,0:0:0:0:
126,355,164482,1,8,0:3:0:0:
350,299,164835,2,0,P|317:283|294:279,1,47.5,2|2,1:2|0:2,0:0:0:0:
438,277,165188,6,0,P|434:310|494:345,1,95,2|0,0:2|1:0,0:0:0:0:
316,66,165894,2,0,P|326:99|327:131,2,47.5,8|0|0,0:3|0:0|0:0,0:0:0:0:
73,186,166599,70,0,P|62:203|49:241,1,47.5,2|0,1:2|0:0,0:0:0:0:
142,347,166952,2,0,P|198:341|222:300,1,95,2|8,0:2|0:3,0:0:0:0:
300,112,167482,5,2,0:2:0:0:
332,282,167658,1,2,0:2:0:0:
162,137,167835,1,2,1:2:0:0:
408,72,168011,70,0,P|416:107|422:168,1,95,2|0,0:2|1:0,0:0:0:0:
266,302,168717,2,0,P|263:268|265:235,1,47.5,8|0,0:3|0:0,0:0:0:0:
297,183,169070,1,0,1:0:0:0:
16,127,169423,6,0,B|80:128|45:159|114:159,1,95,2|2,1:2|0:2,0:0:0:0:
188,142,170129,1,8,0:3:0:0:
64,173,170305,69,2,0:2:0:0:
148,337,170482,1,2,1:2:0:0:
181,229,170658,1,2,0:2:0:0:
283,326,170835,6,0,P|311:317|344:317,1,47.5,2|0,0:2|0:0,0:0:0:0:
431,282,171188,2,0,P|392:244|390:196,1,95,0|8,1:0|0:3,0:0:0:0:
462,153,171894,1,0,0:0:0:0:
215,303,172247,70,0,P|190:294|158:287,1,47.5,2|0,1:2|0:0,0:0:0:0:
42,348,172599,2,0,P|4:318|4:259,1,95,2|8,0:2|0:3,0:0:0:0:
111,173,173129,5,2,0:2:0:0:
19,184,173305,1,2,0:2:0:0:
167,279,173482,1,2,1:2:0:0:
125,96,173658,70,0,P|114:131|111:155,1,47.5,2|0,0:2|0:0,0:0:0:0:
248,231,174011,2,0,P|274:215|280:151,1,95,0|8,1:0|0:3,0:0:0:0:
245,83,174717,1,2,1:2:0:0:
42,224,175070,6,0,L|2:215,3,23.75,2|0|0|0,1:2|0:0|0:0|0:0,0:0:0:0:
190,352,175423,2,0,L|217:345,3,23.75,2|0|0|0,0:0|0:0|0:0|0:0,0:0:0:0:
137,139,175776,1,8,0:3:0:0:
140,173,175864,1,0,0:0:0:0:
143,199,175952,1,0,0:0:0:0:
145,216,176041,1,0,0:0:0:0:
145,225,176129,2,0,L|133:249,6,23.75,2|0|0|0|2|0|0,1:2|0:0|0:2|0:0|0:2|0:0|0:2,0:0:0:0:
235,197,176482,70,0,P|252:191|270:187,3,23.75,2|0|0|0,0:0|0:0|0:0|0:0,0:0:0:0:
337,262,176835,2,0,P|325:258|314:254,3,23.75,2|0|0|0,1:2|0:0|0:0|0:0,0:0:0:0:
420,204,177188,1,8,0:3:0:0:
422,188,177276,1,0,0:0:0:0:
424,172,177364,1,0,0:0:0:0:
427,157,177452,1,0,0:0:0:0:
404,144,177541,1,2,1:2:0:0:
401,128,177629,1,0,0:0:0:0:
399,112,177717,1,0,0:0:0:0:
396,97,177805,1,0,0:0:0:0:
394,85,177894,6,0,L|354:80,1,23.75,2|0,1:2|0:0,0:0:0:0:
308,144,178070,2,0,L|268:149,1,23.75,0|0,0:2|0:0,0:0:0:0:
210,82,178247,2,0,L|203:45,3,23.75,2|0|0|0,0:2|0:0|0:3|0:0,0:0:0:0:
229,212,178599,1,8,0:3:0:0:
30,106,178776,2,0,L|65:104,1,23.75,2|0,0:2|0:0,0:0:0:0:
89,176,178952,70,0,L|109:172,6,11.875,2|0|0|0|2|0|0,0:2|0:0|0:0|0:0|1:2|0:0|0:0,0:0:0:0:
49,288,179305,5,2,0:2:0:0:
60,280,179393,1,0,0:0:0:0:
72,274,179481,1,0,0:0:0:0:
84,268,179569,1,0,0:0:0:0:
91,246,179657,1,2,1:2:0:0:
104,243,179746,1,0,0:0:0:0:
117,241,179834,1,0,0:2:0:0:
131,241,179922,1,0,0:0:0:0:
147,245,180011,2,0,L|149:271,3,23.75,8|0|0|0,0:3|0:0|0:0|0:0,0:0:0:0:
236,346,180364,2,0,L|238:320,3,23.75,0|0|0|0,1:0|0:0|0:0|0:0,0:0:0:0:
309,233,180717,70,0,L|351:239,3,23.75,2|0|0|0,1:2|0:0|0:0|0:0,0:0:0:0:
413,309,181070,2,0,L|389:312,3,23.75,2|0|0|0,0:2|0:0|0:3|0:0,0:0:0:0:
469,235,181423,1,8,0:3:0:0:
358,66,181599,2,0,L|352:106,1,23.75,2|0,0:2|0:0,0:0:0:0:
420,150,181776,6,0,L|437:147,6,11.875,2|0|0|0|2|0|0,1:2|0:0|0:0|0:0|0:2|0:0|0:0,0:0:0:0:
354,210,182129,69,2,0:2:0:0:
338,212,182217,1,0,0:0:0:0:
322,214,182305,1,0,0:0:0:0:
307,216,182393,1,0,0:0:0:0:
280,191,182482,1,0,1:2:0:0:
264,188,182570,1,0,0:0:0:0:
248,186,182658,1,0,0:0:0:0:
233,184,182746,1,0,0:0:0:0:
212,183,182835,2,0,L|217:207,3,23.75,8|0|0|0,0:3|0:0|0:0|0:0,0:0:0:0:
161,96,183188,2,0,L|156:120,3,23.75,0|0|0|0,0:3|0:0|0:0|0:0,0:0:0:0:
227,36,183541,6,0,P|244:45|258:49,1,23.75,2|0,1:2|0:0,0:0:0:0:
327,67,183717,2,0,P|337:62|348:56,1,23.75,0|0,0:2|0:0,0:0:0:0:
419,43,183894,1,2,0:2:0:0:
416,56,183982,1,0,0:0:0:0:
414,69,184070,1,0,0:3:0:0:
412,83,184158,1,0,0:0:0:0:
410,96,184246,1,8,0:3:0:0:
408,110,184335,1,0,0:0:0:0:
406,123,184423,1,2,0:2:0:0:
403,136,184511,1,0,0:0:0:0:
393,155,184599,70,0,L|375:161,6,11.875,0|0|0|0|2|0|0,0:0|0:0|0:0|0:0|1:2|0:0|0:0,0:0:0:0:
257,89,184952,5,10,0:2:0:0:
248,81,185041,1,0,0:0:0:0:
238,74,185129,2,0,L|170:82,1,47.5,0|0,0:0|0:0,0:0:0:0:
28,132,185305,69,8,1:2:0:0:
38,125,185394,1,0,0:0:0:0:
49,120,185482,2,0,L|118:135,1,60.3249995397568,0|0,0:0|0:0,0:0:0:0:
229,200,185658,5,10,0:2:0:0:
219,193,185747,1,0,0:0:0:0:
208,188,185835,2,0,L|134:204,1,71.2500027179719,0|0,0:0|0:0,0:0:0:0:
137,299,186011,70,0,L|96:290,1,35.625001358986,10|0,1:2|0:0,0:0:0:0:
156,313,186099,2,0,L|114:314,1,35.625001358986,0|0,0:0|0:0,0:0:0:0:
177,324,186188,2,0,L|136:336,1,35.625001358986,0|0,0:0|0:0,0:0:0:0:
204,330,186276,2,0,L|168:352,1,35.625001358986,0|0,0:0|0:0,0:0:0:0:
240,331,186364,22,0,P|302:304|316:261,1,113.999996520996,4|0,1:0|0:0,0:0:0:0:
213,149,186717,5,8,0:2:0:0:
215,161,186805,1,0,0:0:0:0:
217,172,186894,1,0,0:0:0:0:
218,183,186982,1,0,0:0:0:0:
220,193,187070,2,0,L|229:256,1,56.9999982604981,0|0,0:0|0:0,0:0:0:0:
258,74,187247,70,0,L|339:86,1,56.9999982604981,2|0,1:2|0:0,0:0:0:0:
130,175,187423,2,0,L|74:167,1,56.9999982604981,10|0,0:2|0:0,0:0:0:0:
310,191,187599,2,0,L|392:202,1,56.9999982604981,2|0,0:2|0:0,0:0:0:0:
172,315,187776,1,2,1:2:0:0:
172,315,187864,1,0,0:0:0:0:
172,315,187952,1,0,0:0:0:0:
172,315,188041,1,0,0:0:0:0:
172,315,188129,2,0,L|180:259,3,56.9999982604981,8|0|0|0,0:2|0:0|0:0|0:0,0:0:0:0:
297,304,188482,6,0,P|306:281|304:248,1,56.9999982604981,2|0,0:2|0:0,0:0:0:0:
238,173,188658,2,0,P|209:162|180:168,1,56.9999982604981,0|0,1:2|0:0,0:0:0:0:
92,240,188835,2,0,L|36:240,3,56.9999982604981,10|0|0|0,0:2|0:0|0:0|0:0,0:0:0:0:
217,364,189188,69,2,1:2:0:0:
240,375,189276,1,0,0:0:0:0:
267,379,189364,1,0,0:0:0:0:
293,377,189452,1,0,0:0:0:0:
317,367,189541,5,8,0:2:0:0:
341,356,189629,1,0,0:0:0:0:
368,352,189717,1,0,0:0:0:0:
394,354,189805,1,0,0:0:0:0:
417,367,189894,70,0,L|425:311,1,56.9999982604981,2|0,0:2|0:0,0:0:0:0:
264,235,190070,2,0,L|272:292,1,56.9999982604981,0|0,1:2|0:0,0:0:0:0:
438,162,190247,2,0,L|430:219,3,56.9999982604981,8|0|0|0,0:2|0:0|0:0|0:0,0:0:0:0:
259,43,190599,5,2,1:2:0:0:
259,43,190688,1,0,0:0:0:0:
259,43,190776,2,0,P|221:55|182:49,1,56.9999982604981
426,126,190952,1,8,0:2:0:0:
426,126,191041,1,0,0:0:0:0:
426,126,191129,2,0,P|455:137|504:124,1,56.9999982604981
263,225,191305,70,0,L|186:219,1,56.9999982604981,2|0,0:2|0:0,0:0:0:0:
404,232,191482,2,0,L|461:236,1,56.9999982604981,0|0,1:2|0:0,0:0:0:0:
239,133,191658,1,8,0:2:0:0:
314,344,191835,1,0,1:0:0:0:
314,344,191923,1,8,0:2:0:0:
314,344,192011,6,0,P|339:328|388:330,3,56.9999982604981,2|0|0|0,1:2|0:0|0:0|0:0,0:0:0:0:
262,244,192364,2,0,P|239:233|191:232,1,56.9999982604981,8|0,0:2|0:0,0:0:0:0:
424,139,192541,1,0,0:0:0:0:
424,139,192629,1,0,1:0:0:0:
424,139,192717,2,0,L|413:211,1,56.9999982604981,0|0,0:0|0:0,0:0:0:0:
347,296,192894,2,0,L|338:240,1,56.9999982604981,2|0,1:2|0:0,0:0:0:0:
259,137,193070,2,0,L|268:207,1,56.9999982604981,10|0,0:2|0:0,0:0:0:0:
234,314,193247,2,0,L|225:244,1,56.9999982604981,2|0,0:2|0:0,0:0:0:0:
132,132,193423,70,0,L|139:61,1,56.9999982604981,2|0,1:2|0:0,0:0:0:0:
123,229,193599,2,0,L|117:286,1,56.9999982604981,0|0,1:2|0:0,0:0:0:0:
215,188,193776,2,0,P|272:158|354:188,1,113.999996520996,8|0,0:2|0:0,0:0:0:0:
346,181,194041,1,0,1:2:0:0:
346,181,194129,5,2,0:2:0:0:
369,384,194305,2,0,L|361:310,1,56.9999982604981,0|0,1:2|0:0,0:0:0:0:
442,253,194482,2,0,L|448:310,1,56.9999982604981,10|0,0:2|0:0,0:0:0:0:
423,123,194658,2,0,L|430:179,1,56.9999982604981,8|0,0:2|0:0,0:0:0:0:
295,64,194835,70,0,L|300:120,3,56.9999982604981,2|0|0|0,1:2|0:0|0:0|0:0,0:0:0:0:
190,237,195188,2,0,L|196:181,1,56.9999982604981,10|0,0:2|0:0,0:0:0:0:
143,39,195364,1,2,0:2:0:0:
117,26,195452,1,0,0:0:0:0:
89,23,195541,1,0,0:0:0:0:
61,29,195629,1,0,0:0:0:0:
37,44,195717,6,0,P|28:84|36:121,1,56.9999982604981,2|0,1:2|0:0,0:0:0:0:
153,183,195894,2,0,P|162:143|154:106,1,56.9999982604981,8|0,0:2|0:0,0:0:0:0:
53,211,196070,1,2,0:2:0:0:
220,241,196247,1,0,0:0:0:0:
63,352,196423,2,0,L|1:343,1,56.9999982604981,2|0,1:2|0:0,0:0:0:0:
245,323,196599,2,0,L|307:314,1,56.9999982604981,10|0,0:2|0:0,0:0:0:0:
80,331,196776,2,0,L|18:322,1,56.9999982604981,2|0,0:2|0:0,0:0:0:0:
53,211,196952,69,2,0:2:0:0:
220,241,197129,1,0,1:2:0:0:
63,352,197305,1,10,0:2:0:0:
34,347,197394,1,8,0:2:0:0:
6,343,197482,1,0,1:2:0:0:
137,179,197658,5,2,1:2:0:0:
155,163,197747,1,0,0:0:0:0:
176,151,197835,1,0,0:0:0:0:
200,147,197923,1,0,0:0:0:0:
225,147,198011,69,8,0:2:0:0:
248,152,198099,1,0,0:0:0:0:
269,165,198188,1,0,0:0:0:0:
293,171,198276,1,0,0:0:0:0:
317,173,198364,5,0,0:0:0:0:
342,169,198452,1,0,0:0:0:0:
363,154,198541,2,0,L|372:82,1,56.9999982604981,2|0,1:2|0:0,0:0:0:0:
248,51,198717,2,0,L|305:94,1,56.9999982604981,10|0,0:2|0:0,0:0:0:0:
396,2,198894,2,0,L|329:30,1,56.9999982604981,2|0,0:2|0:0,0:0:0:0:
440,197,199070,69,2,1:2:0:0:
461,58,199247,1,0,1:2:0:0:
336,210,199423,2,0,P|304:222|253:202,3,56.9999982604981,8|0|0|0,0:2|0:0|0:0|0:0,0:0:0:0:
276,311,199776,2,0,P|298:326|314:368,1,56.9999982604981,2|0,0:2|0:0,0:0:0:0:
386,312,199952,2,0,P|391:280|416:249,1,56.9999982604981,0|0,1:2|0:0,0:0:0:0:
470,164,200129,1,10,0:2:0:0:
471,144,200217,1,0,0:0:0:0:
473,124,200305,1,0,0:0:0:0:
474,104,200394,1,0,0:0:0:0:
475,81,200482,6,0,P|448:67|417:67,3,56.9999982604981,2|0|0|0,1:2|0:0|0:0|0:0,0:0:0:0:
309,121,200835,1,8,0:2:0:0:
315,142,200923,1,0,0:0:0:0:
315,165,201011,1,0,0:0:0:0:
310,187,201099,1,0,0:0:0:0:
296,207,201188,70,0,L|230:213,1,56.9999982604981,2|0,0:2|0:0,0:0:0:0:
146,47,201364,2,0,L|212:53,1,56.9999982604981,0|0,1:2|0:0,0:0:0:0:
122,165,201541,1,8,0:2:0:0:
94,156,201629,1,0,0:0:0:0:
67,147,201717,1,0,0:0:0:0:
40,154,201805,1,0,0:0:0:0:
13,163,201894,6,0,P|2:199|4:241,1,56.9999982604981,2|0,0:2|0:0,0:0:0:0:
188,311,202070,2,0,P|199:275|197:233,1,56.9999982604981,0|0,1:2|0:0,0:0:0:0:
146,79,202247,69,8,0:2:0:0:
125,75,202335,1,0,0:0:0:0:
106,71,202423,1,0,0:0:0:0:
87,66,202511,1,0,0:0:0:0:
68,61,202599,2,0,L|-1:84,1,56.9999982604981,2|0,0:2|0:0,0:0:0:0:
145,188,202776,2,0,L|214:211,1,56.9999982604981,0|0,1:2|0:0,0:0:0:0:
53,192,202952,6,0,P|16:208|-30:196,3,56.9999982604981,8|0|0|0,0:2|0:0|0:0|0:0,0:0:0:0:
195,86,203305,1,2,1:2:0:0:
222,77,203394,1,0,0:0:0:0:
250,73,203482,1,0,0:0:0:0:
278,74,203570,1,0,0:0:0:0:
306,80,203658,1,8,0:2:0:0:
333,88,203747,1,0,0:0:0:0:
361,92,203835,1,0,0:0:0:0:
389,91,203923,1,0,0:0:0:0:
417,85,204011,69,0,0:0:0:0:
402,53,204099,1,0,0:0:0:0:
374,31,204188,1,0,1:2:0:0:
339,26,204276,1,0,0:0:0:0:
305,37,204364,1,8,0:2:0:0:
281,63,204452,1,0,0:0:0:0:
272,97,204541,1,0,0:0:0:0:
280,131,204629,1,0,0:0:0:0:
303,158,204717,6,0,L|297:235,3,56.9999982604981,0|0|0|0,1:2|0:0|0:0|0:0,0:0:0:0:
467,311,205070,2,0,L|460:234,3,56.9999982604981,8|0|0|0,0:2|0:0|0:0|0:0,0:0:0:0:
497,149,205423,2,0,P|464:142|431:151,1,56.9999982604981
368,271,205599,2,0,P|361:240|370:205,1,56.9999982604981,0|0,1:2|0:0,0:0:0:0:
355,104,205776,2,0,L|347:23,3,56.9999982604981,8|0|0|0,0:2|0:0|0:0|0:0,0:0:0:0:
240,218,206129,70,0,L|229:292,3,56.9999982604981,2|0|0|0,1:2|0:0|0:0|0:0,0:0:0:0:
190,86,206482,1,8,0:2:0:0:
163,80,206570,1,0,0:0:0:0:
134,77,206658,1,0,0:0:0:0:
106,79,206747,1,0,0:0:0:0:
83,90,206835,6,0,L|67:169,1,56.9999982604981,2|0,0:2|0:0,0:0:0:0:
248,196,207011,2,0,L|259:117,1,56.9999982604981,0|0,1:2|0:0,0:0:0:0:
78,285,207188,2,0,L|85:228,3,56.9999982604981,8|0|0|0,0:2|0:0|0:0|0:0,0:0:0:0:
241,333,207541,70,0,L|297:322,3,56.9999982604981,2|0|0|0,1:2|0:0|0:0|0:0,0:0:0:0:
90,358,207894,1,8,0:2:0:0:
99,331,207982,1,0,0:0:0:0:
104,303,208070,1,0,0:0:0:0:
102,274,208158,1,0,0:0:0:0:
95,247,208247,6,0,L|22:253,1,56.9999982604981,2|0,0:2|0:0,0:0:0:0:
212,150,208423,2,0,L|285:155,1,56.9999982604981,0|0,1:2|0:0,0:0:0:0:
88,88,208599,2,0,L|31:83,3,56.9999982604981,8|0|0|0,0:2|0:0|0:0|0:0,0:0:0:0:
317,250,208952,70,0,L|251:231,1,56.9999982604981,2|0,1:2|0:0,0:0:0:0:
156,201,209129,1,0,0:0:0:0:
328,165,209305,2,0,L|262:146,1,56.9999982604981,10|0,0:2|0:0,0:0:0:0:
167,116,209482,1,0,0:0:0:0:
395,129,209658,6,0,L|329:148,1,56.9999982604981,2|0,0:2|0:0,0:0:0:0:
234,178,209835,1,0,1:2:0:0:
406,214,210011,2,0,L|340:233,1,56.9999982604981,10|0,0:2|0:0,0:0:0:0:
245,263,210188,1,2,0:2:0:0:
415,125,210364,70,0,L|492:131,1,56.9999982604981,2|0,1:2|0:0,0:0:0:0:
492,227,210541,1,2,0:2:0:0:
349,268,210717,1,10,0:2:0:0:
330,135,210894,1,2,0:2:0:0:
328,112,210982,1,0,0:0:0:0:
329,90,211070,1,0,0:0:0:0:
332,67,211158,1,0,0:0:0:0:
338,45,211247,6,0,P|373:39|408:45,1,56.9999982604981,2|0,1:2|0:0,0:0:0:0:
466,134,211423,2,0,P|437:137|410:131,1,56.9999982604981,10|0,0:2|0:0,0:0:0:0:
252,29,211599,1,2,0:2:0:0:
252,29,211688,1,2,0:2:0:0:
252,29,211776,2,0,P|223:19|174:32,1,56.9999982604981,2|0,1:2|0:0,0:0:0:0:
105,97,211952,2,0,P|95:123|97:151,1,56.9999982604981,2|0,0:2|0:0,0:0:0:0:
180,203,212129,1,8,0:2:0:0:
353,89,212305,70,0,P|381:87|410:95,3,56.9999982604981,2|0|0|0,0:2|0:0|0:0|0:0,0:0:0:0:
294,247,212658,2,0,L|297:190,1,56.9999982604981,2|0,1:2|0:0,0:0:0:0:
266,104,212835,1,10,0:2:0:0:
190,225,213011,1,2,0:2:0:0:
37,139,213188,6,0,L|17:224,3,56.9999982604981,0|0|2|0,1:0|0:0|0:2|0:0,0:0:0:0:
125,80,213541,2,0,L|111:24,3,56.9999982604981,8|0|2|0,0:2|0:0|0:2|0:0,0:0:0:0:
174,219,213894,1,0,0:0:0:0:
174,219,213982,1,0,0:0:0:0:
174,219,214070,2,0,L|257:210,1,56.9999982604981,2|0,1:2|0:0,0:0:0:0:
302,134,214247,2,0,L|385:143,1,56.9999982604981,10|0,0:2|0:0,0:0:0:0:
455,208,214423,1,2,0:2:0:0:
455,208,214511,1,8,0:2:0:0:
455,208,214599,70,0,P|499:154|479:92,1,113.999996520996,2|2,1:2|0:2,0:0:0:0:
377,23,214952,1,10,0:2:0:0:
272,120,215129,1,2,0:2:0:0:
272,120,215217,1,0,1:2:0:0:
272,120,215305,2,0,L|194:130,1,56.9999982604981,2|0,0:2|0:0,0:0:0:0:
240,204,215482,2,0,L|162:214,1,56.9999982604981,0|0,1:2|0:0,0:0:0:0:
209,292,215658,5,10,0:2:0:0:
370,348,215835,1,2,0:2:0:0:
191,372,216011,1,2,1:2:0:0:
359,254,216188,1,2,1:2:0:0:
205,196,216364,1,10,0:2:0:0:
267,348,216541,69,2,0:2:0:0:
267,348,216629,1,0,1:2:0:0:
267,348,216717,2,0,L|345:338,1,56.9999982604981,2|0,0:2|0:0,0:0:0:0:
293,262,216894,2,0,L|371:252,1,56.9999982604981,0|0,1:2|0:0,0:0:0:0:
323,177,217070,1,10,0:2:0:0:
458,253,217247,1,10,0:2:0:0:
323,154,217423,5,2,1:2:0:0:
432,31,217599,1,2,0:2:0:0:
284,45,217776,2,0,L|206:54,1,56.9999982604981,10|0,0:2|0:0,0:0:0:0:
206,182,217952,2,0,P|209:150|230:125,1,56.9999982604981,2|0,0:2|0:0,0:0:0:0:
343,122,218129,1,2,0:2:0:0:
343,122,218217,1,0,0:0:0:0:
343,122,218305,2,0,P|365:142|362:195,1,56.9999982604981,2|0,1:2|0:0,0:0:0:0:
272,238,218482,70,0,L|280:294,1,56.9999982604981,10|0,0:2|0:0,0:0:0:0:
398,308,218658,2,0,L|389:365,3,56.9999982604981,2|0|0|0,0:2|0:0|0:0|0:0,0:0:0:0:
417,224,219011,2,0,L|428:154,1,56.9999982604981,2|0,1:2|0:0,0:0:0:0:
276,244,219188,6,0,L|265:314,1,56.9999982604981,10|0,0:2|0:0,0:0:0:0:
150,314,219364,2,0,L|159:371,3,56.9999982604981,2|0|0|0,0:2|0:0|0:0|0:0,0:0:0:0:
131,230,219717,2,0,L|120:160,1,56.9999982604981,2|0,1:2|0:0,0:0:0:0:
235,41,219894,1,10,0:2:0:0:
235,41,219982,1,8,0:2:0:0:
235,41,220070,2,0,L|226:98,1,56.9999982604981,2|0,1:2|0:0,0:0:0:0:
274,230,220247,69,2,1:2:0:0:
300,241,220335,1,0,0:0:0:0:
328,245,220423,1,0,0:0:0:0:
356,243,220511,1,0,0:0:0:0:
383,234,220599,2,0,L|381:305,3,56.9999982604981,10|0|0|0,0:2|0:0|0:0|0:0,0:0:0:0:
312,111,220952,6,0,L|250:116,1,56.9999982604981,2|0,0:2|0:0,0:0:0:0:
323,96,221129,2,0,L|255:104,1,56.9999982604981,0|0,1:2|0:0,0:0:0:0:
430,11,221305,2,0,L|499:14,3,56.9999982604981,10|0|0|0,0:2|0:0|0:0|0:0,0:0:0:0:
377,162,221658,70,0,L|385:235,1,56.9999982604981,2|0,1:2|0:0,0:0:0:0:
250,312,221835,2,0,L|257:234,1,56.9999982604981,2|0,1:2|0:0,0:0:0:0:
398,146,222011,2,0,L|406:219,1,56.9999982604981,10|0,0:2|0:0,0:0:0:0:
271,296,222188,2,0,L|278:218,1,56.9999982604981,2|0,0:2|0:0,0:0:0:0:
475,318,222364,1,0,0:0:0:0:
489,293,222452,1,0,0:0:0:0:
493,265,222541,1,2,1:2:0:0:
484,238,222629,1,0,0:0:0:0:
465,218,222717,2,0,L|382:220,1,56.9999982604981,8|0,0:2|0:0,0:0:0:0:
269,325,222894,5,2,0:2:0:0:
269,325,222982,1,2,0:2:0:0:
269,325,223070,2,0,L|185:323,1,56.9999982604981,2|0,1:2|0:0,0:0:0:0:
176,165,223247,2,0,L|259:163,1,56.9999982604981,2|0,0:2|0:0,0:0:0:0:
332,164,223423,1,10,0:2:0:0:
168,75,223599,2,0,L|84:73,3,56.9999982604981,2|0|0|0,0:2|0:0|0:0|0:0,0:0:0:0:
211,234,223952,70,0,L|267:232,1,56.9999982604981,2|0,1:2|0:0,0:0:0:0:
90,197,224129,2,0,L|33:195,1,56.9999982604981,10|0,0:2|0:0,0:0:0:0:
79,336,224305,1,2,0:2:0:0:
109,351,224394,1,0,0:0:0:0:
142,358,224482,1,0,0:0:0:0:
177,357,224570,1,0,0:0:0:0:
209,348,224658,6,0,L|203:278,1,56.9999982604981,2|0,1:2|0:0,0:0:0:0:
304,151,224835,2,0,L|299:215,1,56.9999982604981,8|0,0:2|0:0,0:0:0:0:
372,249,225011,1,2,0:2:0:0:
407,250,225099,1,0,0:0:0:0:
440,243,225188,1,0,0:0:0:0:
470,228,225276,1,0,0:0:0:0:
499,203,225364,70,0,L|506:288,1,56.9999982604981,2|0,1:2|0:0,0:0:0:0:
369,384,225541,2,0,L|371:317,1,56.9999982604981,8|0,0:2|0:0,0:0:0:0:
265,214,225717,2,0,L|271:270,1,56.9999982604981,2|0,0:2|0:0,0:0:0:0:
245,68,225894,2,0,L|179:80,1,56.9999982604981,2|0,1:2|0:0,0:0:0:0:
386,139,226070,2,0,L|452:151,1,56.9999982604981,0|0,0:2|0:0,0:0:0:0:
256,90,226247,2,0,L|190:102,1,56.9999982604981,10|0,0:2|0:0,0:0:0:0:
397,161,226423,2,0,L|463:173,1,56.9999982604981,2|0,0:2|0:0,0:0:0:0:
205,180,226599,5,2,0:2:0:0:
190,155,226688,1,0,0:0:0:0:
183,127,226776,1,0,1:2:0:0:
184,99,226864,1,0,0:0:0:0:
192,72,226952,2,0,L|261:60,1,56.9999982604981,10|0,0:2|0:0,0:0:0:0:
98,130,227129,2,0,L|29:118,1,56.9999982604981,2|0,0:2|0:0,0:0:0:0:
129,11,227305,69,0,1:2:0:0:
157,13,227394,1,0,0:0:0:0:
185,16,227482,1,2,0:2:0:0:
214,19,227570,1,0,0:0:0:0:
243,22,227658,2,0,L|249:93,1,56.9999982604981,10|0,0:2|0:0,0:0:0:0:
330,178,227835,2,0,L|324:107,1,56.9999982604981,2|0,0:2|0:0,0:0:0:0:
393,20,228011,6,0,L|397:76,1,56.9999982604981,2|0,0:2|0:0,0:0:0:0:
469,138,228188,1,2,1:2:0:0:
469,138,228276,1,0,0:2:0:0:
469,138,228364,2,0,L|473:194,1,56.9999982604981,10|0,0:2|0:0,0:0:0:0:
399,238,228541,2,0,L|403:294,1,56.9999982604981,2|0,0:2|0:0,0:0:0:0:
312,368,228717,70,0,L|396:356,3,56.9999982604981,2|0|0|0,1:2|0:0|0:0|0:0,0:0:0:0:
222,280,229070,2,0,L|138:268,3,56.9999982604981,10|0|0|0,0:2|0:0|0:0|0:0,0:0:0:0:
313,199,229423,2,0,L|397:187,1,56.9999982604981,2|0,0:2|0:0,0:0:0:0:
319,188,229599,2,0,L|403:176,1,56.9999982604981,0|0,1:2|0:0,0:0:0:0:
223,111,229776,2,0,L|139:99,3,56.9999982604981,10|0|0|0,0:2|0:0|0:0|0:0,0:0:0:0:
308,107,230129,5,2,1:2:0:0:
256,26,230305,1,2,0:0:0:0:
227,162,230482,69,10,0:2:0:0:
254,39,230658,1,2,0:0:0:0:
290,223,230835,5,2,0:0:0:0:
252,50,231011,1,2,1:2:0:0:
207,260,231188,69,10,0:2:0:0:
248,69,231364,1,2,0:0:0:0:
298,264,231541,54,0,L|287:332,3,47.5,2|0|0|0,1:2|0:0|0:0|0:0,0:0:0:0:
202,358,231894,2,0,L|194:311,3,47.5,8|0|0|0,0:2|0:0|0:0|0:0,0:0:0:0:
116,244,232247,2,0,L|105:312,3,47.5,0|0|0|0,0:0|0:0|1:2|0:0,0:0:0:0:
20,338,232599,2,0,L|12:291,3,47.5,8|0|0|0,0:2|0:0|0:0|0:0,0:0:0:0:
20,175,232952,5,0,1:2:0:0:
27,160,233041,1,0,0:0:0:0:
38,149,233129,1,0,0:0:0:0:
51,142,233217,1,0,0:0:0:0:
66,135,233305,1,8,0:2:0:0:
94,128,233394,1,0,0:0:0:0:
122,128,233482,1,0,0:0:0:0:
150,145,233570,1,0,0:0:0:0:
170,170,233658,69,0,0:0:0:0:
196,190,233747,1,0,0:0:0:0:
228,194,233835,1,0,1:2:0:0:
256,177,233923,1,0,0:0:0:0:
289,177,234011,5,8,0:2:0:0:
308,200,234099,1,0,0:0:0:0:
312,226,234188,1,0,1:2:0:0:
303,246,234276,1,0,0:0:0:0:
290,263,234364,70,0,L|287:321,3,47.5,0|0|0|0,1:2|0:0|0:0|0:0,0:0:0:0:
459,383,234717,2,0,L|453:297,3,47.5,8|0|0|0,0:2|0:0|0:0|0:0,0:0:0:0:
387,225,235070,2,0,L|388:274,1,47.5
402,232,235247,2,0,L|403:281,1,47.5,0|0,1:0|0:0,0:0:0:0:
505,164,235423,2,0,L|501:116,3,47.5,8|0|0|0,0:2|0:0|0:0|0:0,0:0:0:0:
499,93,235776,5,0,0:0:0:0:
497,69,235864,1,0,0:0:0:0:
495,45,235952,1,0,1:2:0:0:
493,22,236041,69,0,0:0:0:0:
479,53,236129,1,8,0:2:0:0:
469,85,236217,1,0,0:0:0:0:
459,118,236305,1,0,0:0:0:0:
449,150,236394,1,0,0:0:0:0:
439,182,236482,2,0,L|437:242,1,47.5,0|0,0:0|0:0,0:0:0:0:
357,319,236658,1,0,1:2:0:0:
252,218,236835,1,8,0:2:0:0:
252,218,237011,1,8,0:2:0:0:
169,337,237188,6,0,L|179:415,3,47.5,0|0|0|0,1:2|0:0|0:0|0:0,0:0:0:0:
48,280,237541,2,0,L|41:327,3,47.5,8|0|0|0,0:2|0:0|0:0|0:0,0:0:0:0:
148,197,237894,1,0,0:0:0:0:
155,184,237982,1,0,0:0:0:0:
165,174,238070,1,0,1:2:0:0:
178,168,238158,1,0,0:0:0:0:
192,168,238247,1,8,0:2:0:0:
205,171,238335,1,0,0:0:0:0:
227,188,238423,69,0,0:0:0:0:
238,213,238511,1,0,0:0:0:0:
249,238,238599,1,0,1:2:0:0:
265,260,238688,1,0,0:0:0:0:
285,276,238776,1,0,1:2:0:0:
313,281,238864,1,0,0:0:0:0:
342,279,238952,5,8,0:2:0:0:
372,263,239041,1,0,0:0:0:0:
388,233,239129,1,0,0:0:0:0:
390,198,239217,1,0,0:0:0:0:
369,169,239305,1,0,0:0:0:0:
344,144,239394,1,0,0:0:0:0:
342,109,239482,1,0,1:2:0:0:
357,78,239570,1,0,0:0:0:0:
386,61,239658,69,8,0:2:0:0:
421,62,239747,1,0,0:0:0:0:
448,81,239835,1,0,0:0:0:0:
466,110,239923,1,0,0:0:0:0:
464,140,240011,6,0,L|458:198,3,47.5,0|0|0|0,1:2|0:0|0:0|0:0,0:0:0:0:
365,157,240364,2,0,L|375:255,1,95,8|0,0:2|0:0,0:0:0:0:
470,295,240629,1,0,1:2:0:0:
470,295,240717,2,0,L|479:222,1,47.5,0|0,0:0|0:0,0:0:0:0:
394,377,240894,2,0,L|389:329,1,47.5,0|0,1:2|0:0,0:0:0:0:
279,298,241070,1,8,0:2:0:0:
279,298,241158,1,0,0:0:0:0:
279,298,241247,2,0,L|288:225,1,47.5,0|0,0:0|0:0,0:0:0:0:
365,149,241423,70,0,L|374:230,1,47.5,0|0,1:2|0:0,0:0:0:0:
268,115,241599,2,0,L|259:196,1,47.5,0|0,1:2|0:0,0:0:0:0:
426,29,241776,2,0,L|417:110,3,47.5,8|0|0|0,0:2|0:0|0:0|0:0,0:0:0:0:
383,165,242129,2,0,L|392:246,1,47.5,0|0,0:0|0:0,0:0:0:0:
247,130,242305,2,0,L|238:211,1,47.5,0|0,1:2|0:0,0:0:0:0:
338,33,242482,1,8,0:2:0:0:
338,33,242570,1,8,0:2:0:0:
338,33,242658,2,0,L|347:114,1,47.5,0|0,1:2|0:0,0:0:0:0:
464,248,242835,6,0,L|410:188,1,47.5,0|0,1:2|0:0,0:0:0:0:
315,180,243011,2,0,L|392:163,1,47.5,0|0,1:2|0:0,0:0:0:0:
448,86,243188,2,0,L|423:161,3,47.5,8|0|0|0,0:2|0:0|0:0|0:0,0:0:0:0:
425,158,243541,69,0,0:0:0:0:
422,181,243629,1,0,0:0:0:0:
425,205,243717,1,0,1:2:0:0:
433,227,243805,1,0,0:0:0:0:
446,247,243894,5,8,0:2:0:0:
419,237,243982,1,0,0:0:0:0:
397,230,244070,1,0,0:0:0:0:
373,229,244158,1,8,0:2:0:0:
350,233,244247,69,0,1:2:0:0:
348,252,244335,1,0,0:0:0:0:
347,271,244423,1,0,0:0:0:0:
346,289,244511,1,0,0:0:0:0:
334,304,244599,5,8,0:2:0:0:
307,324,244688,1,0,0:0:0:0:
274,327,244776,1,0,0:0:0:0:
246,309,244864,1,0,0:0:0:0:
227,281,244952,69,0,0:0:0:0:
218,248,245041,1,0,0:0:0:0:
212,215,245129,1,0,1:2:0:0:
196,185,245217,1,0,0:0:0:0:
173,177,245305,5,8,0:2:0:0:
149,179,245394,1,0,0:0:0:0:
127,188,245482,1,0,1:2:0:0:
108,202,245570,1,0,0:0:0:0:
96,222,245658,70,0,L|107:304,3,47.5,0|0|0|0,1:2|0:0|0:0|0:0,0:0:0:0:
200,357,246011,2,0,L|217:250,1,95,8|0,0:2|0:0,0:0:0:0:
163,189,246276,1,0,1:2:0:0:
153,178,246364,2,0,L|146:130,1,47.5,0|0,0:0|0:0,0:0:0:0:
245,102,246541,2,0,L|251:54,1,47.5,0|0,1:2|0:0,0:0:0:0:
59,41,246717,1,8,0:2:0:0:
69,195,246894,1,0,1:2:0:0:
224,188,247070,6,0,L|283:197,3,47.5,0|0|0|0,1:2|0:0|0:0|0:0,0:0:0:0:
444,98,247423,2,0,L|342:111,1,95,8|0,0:2|0:0,0:0:0:0:
239,49,247688,1,0,1:2:0:0:
225,63,247776,2,0,L|216:122,1,47.5,0|0,0:0|0:0,0:0:0:0:
326,185,247952,2,0,L|318:138,1,47.5,0|0,1:2|0:0,0:0:0:0:
195,195,248129,1,8,0:2:0:0:
195,195,248217,1,8,0:2:0:0:
195,195,248305,2,0,L|186:254,1,47.5,0|0,1:2|0:0,0:0:0:0:
278,331,248482,70,0,L|345:323,3,47.5,0|0|0|0,1:2|0:0|0:0|0:0,0:0:0:0:
449,271,248835,2,0,L|401:265,3,47.5,8|0|0|0,0:2|0:0|0:0|0:0,0:0:0:0:
282,202,249188,1,0,0:0:0:0:
288,195,249276,1,0,0:0:0:0:
296,189,249364,1,0,1:2:0:0:
304,186,249452,1,0,0:0:0:0:
313,184,249541,1,8,0:2:0:0:
322,184,249629,1,0,0:0:0:0:
331,185,249717,5,0,0:0:0:0:
352,195,249805,1,0,0:0:0:0:
375,200,249894,1,0,1:2:0:0:
397,206,249982,1,0,0:0:0:0:
420,209,250070,1,0,0:0:0:0:
438,194,250158,1,0,0:0:0:0:
451,174,250247,69,8,0:2:0:0:
458,151,250335,1,0,0:0:0:0:
457,127,250423,1,0,0:0:0:0:
447,105,250511,1,0,0:0:0:0:
430,87,250599,1,0,0:0:0:0:
407,78,250688,1,0,0:0:0:0:
383,76,250776,1,0,1:2:0:0:
360,83,250864,1,0,0:0:0:0:
336,99,250952,5,8,0:2:0:0:
311,114,251041,1,0,0:0:0:0:
284,124,251129,1,0,0:0:0:0:
255,123,251217,1,0,0:0:0:0:
228,112,251305,2,0,L|236:195,3,47.5,0|0|0|0,1:2|0:0|0:0|0:0,0:0:0:0:
98,229,251658,2,0,L|102:181,1,47.5,8|0,0:2|0:0,0:0:0:0:
196,97,251835,2,0,L|202:176,3,47.5,0|0|0|0,1:2|0:0|0:0|0:0,0:0:0:0:
66,92,252188,2,0,L|61:44,1,47.5,0|0,1:2|0:0,0:0:0:0:
133,273,252364,69,8,0:2:0:0:
168,91,252541,1,0,1:0:0:0:
240,277,252717,5,8,0:2:0:0:
276,95,252894,1,0,1:0:0:0:
349,282,253070,69,8,0:2:0:0:
393,96,253247,1,0,1:0:0:0:
473,214,253423,5,8,0:2:0:0:
456,206,253511,1,8,0:2:0:0:
441,197,253599,2,0,L|390:212,1,47.5,0|0,1:0|0:0,0:0:0:0:
228,151,253776,69,8,0:2:0:0:
245,143,253864,1,8,0:2:0:0:
260,134,253952,2,0,L|310:149,1,47.5,0|0,1:0|0:0,0:0:0:0:
475,91,254129,69,4,1:0:0:0:
256,192,254305,12,0,256952,0:0:0:0:
