osu file format v14

[General]
AudioFilename: audio.mp3
AudioLeadIn: 0
PreviewTime: -1
Countdown: 1
SampleSet: Normal
StackLeniency: 0.7
Mode: 0
LetterboxInBreaks: 0
WidescreenStoryboard: 0

[Editor]
Bookmarks: 16050,28850,62450,88050,113650,139250,200050,224050
DistanceSpacing: 1.3
BeatDivisor: 2
GridSize: 16
TimelineZoom: 1

[Metadata]
Title:Eden Echo
TitleUnicode:Eden Echo
Artist:Kamelot
ArtistUnicode:Kamelot
Creator:Xanandra
Version:.
Source:
Tags:
BeatmapID:1417966
BeatmapSetID:670477

[Difficulty]
HPDrainRate:5
CircleSize:3.5
OverallDifficulty:7
ApproachRate:9.3
SliderMultiplier:2.6
SliderTickRate:1

[Events]
//Background and Video events
//Break Periods
2,30649,61775
2,88250,112975
//Storyboard Layer 0 (Background)
//Storyboard Layer 1 (Fail)
//Storyboard Layer 2 (Pass)
//Storyboard Layer 3 (Foreground)
//Storyboard Sound Samples

[TimingPoints]
3250,400,4,1,0,60,1,0
28850,-200,4,1,0,60,0,0
62450,-100,4,1,0,60,0,0

[HitObjects]
121,274,14850,5,0,0:0:0:0:
121,274,15050,1,0,0:0:0:0:
121,274,15250,1,0,0:0:0:0:
201,126,15650,2,0,L|280:123,1,65
290,47,15850,2,0,L|369:44,1,65
426,67,16050,5,0,0:0:0:0:
462,141,16150,1,0,0:0:0:0:
450,223,16250,1,0,0:0:0:0:
379,265,16350,1,0,0:0:0:0:
296,254,16450,1,0,0:0:0:0:
149,337,16650,1,0,0:0:0:0:
77,296,16750,1,0,0:0:0:0:
74,212,16850,1,0,0:0:0:0:
59,45,17050,1,0,0:0:0:0:
142,39,17150,1,0,0:0:0:0:
223,50,17250,1,0,0:0:0:0:
282,108,17350,1,0,0:0:0:0:
245,182,17450,1,0,0:0:0:0:
181,234,17550,1,0,0:0:0:0:
106,270,17650,5,0,0:0:0:0:
245,182,17850,1,0,0:0:0:0:
301,120,17950,1,0,0:0:0:0:
340,47,18050,1,0,0:0:0:0:
449,154,18250,1,0,0:0:0:0:
398,311,18450,1,0,0:0:0:0:
318,332,18550,1,0,0:0:0:0:
233,333,18650,1,0,0:0:0:0:
151,319,18750,1,0,0:0:0:0:
75,283,18850,1,0,0:0:0:0:
71,200,18950,1,0,0:0:0:0:
102,123,19050,1,0,0:0:0:0:
169,72,19150,1,0,0:0:0:0:
247,45,19250,5,0,0:0:0:0:
247,128,19350,1,0,0:0:0:0:
207,200,19450,1,0,0:0:0:0:
143,253,19550,1,0,0:0:0:0:
65,282,19650,1,0,0:0:0:0:
165,150,19850,1,0,0:0:0:0:
226,94,19950,1,0,0:0:0:0:
306,71,20050,1,0,0:0:0:0:
451,149,20250,1,0,0:0:0:0:
433,230,20350,1,0,0:0:0:0:
380,294,20450,1,0,0:0:0:0:
306,330,20550,1,0,0:0:0:0:
254,266,20650,1,0,0:0:0:0:
248,184,20750,1,0,0:0:0:0:
261,102,20850,5,0,0:0:0:0:
233,265,21050,1,0,0:0:0:0:
162,308,21150,1,0,0:0:0:0:
80,322,21250,1,0,0:0:0:0:
245,335,21450,1,0,0:0:0:0:
395,263,21650,1,0,0:0:0:0:
455,205,21750,1,0,0:0:0:0:
465,123,21850,1,0,0:0:0:0:
420,55,21950,1,0,0:0:0:0:
341,30,22050,1,0,0:0:0:0:
265,62,22150,1,0,0:0:0:0:
227,136,22250,1,0,0:0:0:0:
246,217,22350,1,0,0:0:0:0:
312,266,22450,5,0,0:0:0:0:
334,184,22550,1,0,0:0:0:0:
322,100,22650,1,0,0:0:0:0:
270,32,22750,1,0,0:0:0:0:
188,10,22850,1,0,0:0:0:0:
129,168,23050,1,0,0:0:0:0:
208,197,23150,1,0,0:0:0:0:
291,184,23250,1,0,0:0:0:0:
430,87,23450,1,0,0:0:0:0:
470,160,23550,1,0,0:0:0:0:
472,244,23650,1,0,0:0:0:0:
442,323,23750,1,0,0:0:0:0:
369,367,23850,1,0,0:0:0:0:
284,367,23950,1,0,0:0:0:0:
202,344,24050,5,0,0:0:0:0:
219,175,24250,1,0,0:0:0:0:
303,180,24350,1,0,0:0:0:0:
380,213,24450,1,0,0:0:0:0:
504,327,24650,1,0,0:0:0:0:
344,383,24850,1,0,0:0:0:0:
260,378,24950,1,0,0:0:0:0:
183,345,25050,1,0,0:0:0:0:
129,279,25150,1,0,0:0:0:0:
100,199,25250,1,0,0:0:0:0:
116,116,25350,1,0,0:0:0:0:
163,46,25450,1,0,0:0:0:0:
236,3,25550,1,0,0:0:0:0:
320,1,25650,5,0,0:0:0:0:
341,82,25750,1,0,0:0:0:0:
324,164,25850,1,0,0:0:0:0:
267,226,25950,1,0,0:0:0:0:
185,248,26050,1,0,0:0:0:0:
22,202,26250,1,0,0:0:0:0:
97,240,26350,1,0,0:0:0:0:
180,251,26450,1,0,0:0:0:0:
334,320,26650,1,0,0:0:0:0:
411,285,26750,1,0,0:0:0:0:
464,219,26850,1,0,0:0:0:0:
481,136,26950,1,0,0:0:0:0:
403,103,27050,1,0,0:0:0:0:
318,108,27150,1,0,0:0:0:0:
240,141,27250,5,0,0:0:0:0:
91,60,27450,1,0,0:0:0:0:
33,121,27550,1,0,0:0:0:0:
29,205,27650,1,0,0:0:0:0:
72,368,27850,1,0,0:0:0:0:
220,287,28050,1,0,0:0:0:0:
278,226,28150,1,0,0:0:0:0:
282,142,28250,1,0,0:0:0:0:
248,64,28350,1,0,0:0:0:0:
164,54,28450,1,0,0:0:0:0:
106,115,28550,1,0,0:0:0:0:
102,199,28650,1,0,0:0:0:0:
136,277,28750,1,0,0:0:0:0:
193,339,28850,6,0,P|252:348|317:377,1,130
397,355,29450,1,0,0:0:0:0:
397,270,29650,1,0,0:0:0:0:
382,186,29850,1,0,0:0:0:0:
403,104,30050,2,0,B|419:175|448:222|464:257,1,130
334,296,62450,5,0,0:0:0:0:
265,342,62550,1,0,0:0:0:0:
183,326,62650,1,0,0:0:0:0:
131,260,62750,1,0,0:0:0:0:
150,180,62850,1,0,0:0:0:0:
314,158,63050,1,0,0:0:0:0:
239,195,63150,1,0,0:0:0:0:
157,182,63250,1,0,0:0:0:0:
309,118,63450,1,0,0:0:0:0:
382,155,63550,1,0,0:0:0:0:
439,214,63650,1,0,0:0:0:0:
454,295,63750,1,0,0:0:0:0:
383,337,63850,1,0,0:0:0:0:
300,333,63950,1,0,0:0:0:0:
218,316,64050,5,0,0:0:0:0:
383,320,64250,1,0,0:0:0:0:
448,269,64350,1,0,0:0:0:0:
467,188,64450,1,0,0:0:0:0:
366,320,64650,1,0,0:0:0:0:
200,327,64850,1,0,0:0:0:0:
125,290,64950,1,0,0:0:0:0:
74,225,65050,1,0,0:0:0:0:
55,144,65150,1,0,0:0:0:0:
86,67,65250,1,0,0:0:0:0:
164,38,65350,1,0,0:0:0:0:
246,34,65450,1,0,0:0:0:0:
328,44,65550,1,0,0:0:0:0:
404,74,65650,5,0,0:0:0:0:
331,113,65750,1,0,0:0:0:0:
250,134,65850,1,0,0:0:0:0:
167,126,65950,1,0,0:0:0:0:
93,87,66050,1,0,0:0:0:0:
246,34,66250,1,0,0:0:0:0:
328,44,66350,1,0,0:0:0:0:
404,74,66450,1,0,0:0:0:0:
247,129,66650,1,0,0:0:0:0:
216,205,66750,1,0,0:0:0:0:
232,286,66850,1,0,0:0:0:0:
294,340,66950,1,0,0:0:0:0:
366,299,67050,1,0,0:0:0:0:
404,226,67150,1,0,0:0:0:0:
403,142,67250,5,0,0:0:0:0:
173,97,67450,1,0,0:0:0:0:
136,171,67550,1,0,0:0:0:0:
132,254,67650,1,0,0:0:0:0:
234,355,67850,1,0,0:0:0:0:
372,318,68050,1,0,0:0:0:0:
401,240,68150,1,0,0:0:0:0:
401,157,68250,1,0,0:0:0:0:
384,75,68350,1,0,0:0:0:0:
304,51,68450,1,0,0:0:0:0:
229,87,68550,1,0,0:0:0:0:
172,146,68650,1,0,0:0:0:0:
148,226,68750,1,0,0:0:0:0:
152,308,68850,5,0,0:0:0:0:
227,274,68950,1,0,0:0:0:0:
274,205,69050,1,0,0:0:0:0:
289,123,69150,1,0,0:0:0:0:
268,43,69250,1,0,0:0:0:0:
144,152,69450,1,0,0:0:0:0:
117,231,69550,1,0,0:0:0:0:
121,313,69650,1,0,0:0:0:0:
283,276,69850,1,0,0:0:0:0:
341,217,69950,1,0,0:0:0:0:
375,141,70050,1,0,0:0:0:0:
360,58,70150,1,0,0:0:0:0:
288,99,70250,1,0,0:0:0:0:
251,173,70350,1,0,0:0:0:0:
241,254,70450,5,0,0:0:0:0:
352,132,70650,1,0,0:0:0:0:
300,67,70750,1,0,0:0:0:0:
217,57,70850,1,0,0:0:0:0:
57,98,71050,1,0,0:0:0:0:
103,257,71250,1,0,0:0:0:0:
151,324,71350,1,0,0:0:0:0:
232,339,71450,1,0,0:0:0:0:
310,312,71550,1,0,0:0:0:0:
335,232,71650,1,0,0:0:0:0:
315,152,71750,1,0,0:0:0:0:
241,112,71850,1,0,0:0:0:0:
159,127,71950,1,0,0:0:0:0:
114,196,72050,5,0,0:0:0:0:
180,245,72150,1,0,0:0:0:0:
262,241,72250,1,0,0:0:0:0:
308,171,72350,1,0,0:0:0:0:
306,88,72450,1,0,0:0:0:0:
287,252,72650,1,0,0:0:0:0:
227,309,72750,1,0,0:0:0:0:
143,302,72850,1,0,0:0:0:0:
308,294,73050,1,0,0:0:0:0:
381,255,73150,1,0,0:0:0:0:
416,180,73250,1,0,0:0:0:0:
416,96,73350,1,0,0:0:0:0:
333,102,73450,1,0,0:0:0:0:
267,152,73550,1,0,0:0:0:0:
244,231,73650,5,0,0:0:0:0:
408,248,73850,1,0,0:0:0:0:
373,322,73950,1,0,0:0:0:0:
295,351,74050,1,0,0:0:0:0:
130,328,74250,1,0,0:0:0:0:
62,174,74450,1,0,0:0:0:0:
105,104,74550,1,0,0:0:0:0:
176,62,74650,1,0,0:0:0:0:
258,52,74750,1,0,0:0:0:0:
312,113,74850,1,0,0:0:0:0:
294,194,74950,1,0,0:0:0:0:
235,253,75050,1,0,0:0:0:0:
155,276,75150,1,0,0:0:0:0:
74,259,75250,5,0,0:0:0:0:
132,200,75350,1,0,0:0:0:0:
211,177,75450,1,0,0:0:0:0:
294,194,75550,1,0,0:0:0:0:
346,258,75650,1,0,0:0:0:0:
215,155,75850,1,0,0:0:0:0:
148,105,75950,1,0,0:0:0:0:
107,32,76050,1,0,0:0:0:0:
86,196,76250,1,0,0:0:0:0:
114,273,76350,1,0,0:0:0:0:
180,322,76450,1,0,0:0:0:0:
262,326,76550,1,0,0:0:0:0:
302,253,76650,1,0,0:0:0:0:
277,174,76750,1,0,0:0:0:0:
219,113,76850,5,0,0:0:0:0:
363,196,77050,1,0,0:0:0:0:
441,169,77150,1,0,0:0:0:0:
471,91,77250,1,0,0:0:0:0:
378,228,77450,1,0,0:0:0:0:
219,276,77650,1,0,0:0:0:0:
136,261,77750,1,0,0:0:0:0:
75,205,77850,1,0,0:0:0:0:
43,129,77950,1,0,0:0:0:0:
119,98,78050,1,0,0:0:0:0:
202,106,78150,1,0,0:0:0:0:
269,153,78250,1,0,0:0:0:0:
300,230,78350,1,0,0:0:0:0:
249,295,78450,5,0,0:0:0:0:
200,227,78550,1,0,0:0:0:0:
215,146,78650,1,0,0:0:0:0:
286,104,78750,1,0,0:0:0:0:
369,111,78850,1,0,0:0:0:0:
203,118,79050,1,0,0:0:0:0:
138,170,79150,1,0,0:0:0:0:
120,251,79250,1,0,0:0:0:0:
282,288,79450,1,0,0:0:0:0:
298,206,79550,1,0,0:0:0:0:
261,131,79650,1,0,0:0:0:0:
178,131,79750,1,0,0:0:0:0:
130,198,79850,1,0,0:0:0:0:
132,281,79950,1,0,0:0:0:0:
203,322,80050,5,0,0:0:0:0:
317,202,80250,1,0,0:0:0:0:
293,122,80350,1,0,0:0:0:0:
221,80,80450,1,0,0:0:0:0:
347,186,80650,1,0,0:0:0:0:
288,341,80850,1,0,0:0:0:0:
205,348,80950,1,0,0:0:0:0:
125,321,81050,1,0,0:0:0:0:
67,261,81150,1,0,0:0:0:0:
54,179,81250,1,0,0:0:0:0:
133,154,81350,1,0,0:0:0:0:
214,170,81450,1,0,0:0:0:0:
284,214,81550,1,0,0:0:0:0:
300,295,81650,5,0,0:0:0:0:
217,287,81750,1,0,0:0:0:0:
160,226,81850,1,0,0:0:0:0:
160,142,81950,1,0,0:0:0:0:
213,78,82050,1,0,0:0:0:0:
166,237,82250,1,0,0:0:0:0:
202,311,82350,1,0,0:0:0:0:
280,338,82450,1,0,0:0:0:0:
431,270,82650,1,0,0:0:0:0:
422,187,82750,1,0,0:0:0:0:
370,122,82850,1,0,0:0:0:0:
290,102,82950,1,0,0:0:0:0:
265,181,83050,1,0,0:0:0:0:
301,255,83150,1,0,0:0:0:0:
368,304,83250,5,0,0:0:0:0:
282,161,83450,1,0,0:0:0:0:
211,117,83550,1,0,0:0:0:0:
128,123,83650,1,0,0:0:0:0:
54,271,83850,1,0,0:0:0:0:
203,344,84050,1,0,0:0:0:0:
273,299,84150,1,0,0:0:0:0:
330,240,84250,1,0,0:0:0:0:
375,170,84350,1,0,0:0:0:0:
391,89,84450,1,0,0:0:0:0:
309,72,84550,1,0,0:0:0:0:
226,75,84650,1,0,0:0:0:0:
144,91,84750,1,0,0:0:0:0:
68,125,84850,5,0,0:0:0:0:
142,163,84950,1,0,0:0:0:0:
223,174,85050,1,0,0:0:0:0:
306,166,85150,1,0,0:0:0:0:
378,126,85250,1,0,0:0:0:0:
213,106,85450,1,0,0:0:0:0:
131,123,85550,1,0,0:0:0:0:
64,171,85650,1,0,0:0:0:0:
84,335,85850,1,0,0:0:0:0:
166,341,85950,1,0,0:0:0:0:
249,339,86050,1,0,0:0:0:0:
329,321,86150,1,0,0:0:0:0:
394,269,86250,1,0,0:0:0:0:
439,199,86350,1,0,0:0:0:0:
449,117,86450,5,0,0:0:0:0:
420,279,86650,1,0,0:0:0:0:
349,323,86750,1,0,0:0:0:0:
267,335,86850,1,0,0:0:0:0:
191,299,86950,1,0,0:0:0:0:
140,233,87050,1,0,0:0:0:0:
257,349,87250,1,0,0:0:0:0:
336,325,87350,1,0,0:0:0:0:
386,259,87450,1,0,0:0:0:0:
395,176,87550,1,0,0:0:0:0:
352,105,87650,1,0,0:0:0:0:
275,135,87750,1,0,0:0:0:0:
244,212,87850,1,0,0:0:0:0:
240,294,87950,1,0,0:0:0:0:
307,246,88050,1,0,0:0:0:0:
66,169,113650,5,0,0:0:0:0:
134,123,113750,1,0,0:0:0:0:
216,116,113850,1,0,0:0:0:0:
247,192,113950,1,0,0:0:0:0:
236,274,114050,1,0,0:0:0:0:
312,126,114250,1,0,0:0:0:0:
391,151,114350,1,0,0:0:0:0:
459,197,114450,1,0,0:0:0:0:
357,327,114650,1,0,0:0:0:0:
288,279,114750,1,0,0:0:0:0:
243,209,114850,1,0,0:0:0:0:
219,129,114950,1,0,0:0:0:0:
287,81,115050,1,0,0:0:0:0:
369,73,115150,1,0,0:0:0:0:
452,80,115250,5,0,0:0:0:0:
287,62,115450,1,0,0:0:0:0:
216,106,115550,1,0,0:0:0:0:
197,186,115650,1,0,0:0:0:0:
235,346,115850,1,0,0:0:0:0:
400,333,116050,1,0,0:0:0:0:
464,280,116150,1,0,0:0:0:0:
466,197,116250,1,0,0:0:0:0:
418,129,116350,1,0,0:0:0:0:
335,128,116450,1,0,0:0:0:0:
272,182,116550,1,0,0:0:0:0:
263,265,116650,1,0,0:0:0:0:
318,326,116750,1,0,0:0:0:0:
400,333,116850,5,0,0:0:0:0:
371,254,116950,1,0,0:0:0:0:
298,214,117050,1,0,0:0:0:0:
215,220,117150,1,0,0:0:0:0:
153,275,117250,1,0,0:0:0:0:
313,312,117450,1,0,0:0:0:0:
388,276,117550,1,0,0:0:0:0:
446,217,117650,1,0,0:0:0:0:
339,89,117850,1,0,0:0:0:0:
261,117,117950,1,0,0:0:0:0:
207,180,118050,1,0,0:0:0:0:
191,260,118150,1,0,0:0:0:0:
272,275,118250,1,0,0:0:0:0:
351,250,118350,1,0,0:0:0:0:
407,189,118450,5,0,0:0:0:0:
246,147,118650,1,0,0:0:0:0:
165,129,118750,1,0,0:0:0:0:
112,65,118850,1,0,0:0:0:0:
277,70,119050,1,0,0:0:0:0:
332,226,119250,1,0,0:0:0:0:
267,277,119350,1,0,0:0:0:0:
189,305,119450,1,0,0:0:0:0:
106,305,119550,1,0,0:0:0:0:
42,252,119650,1,0,0:0:0:0:
59,170,119750,1,0,0:0:0:0:
119,112,119850,1,0,0:0:0:0:
192,74,119950,1,0,0:0:0:0:
273,60,120050,5,0,0:0:0:0:
249,139,120150,1,0,0:0:0:0:
171,170,120250,1,0,0:0:0:0:
88,163,120350,1,0,0:0:0:0:
45,92,120450,1,0,0:0:0:0:
194,146,120650,1,0,0:0:0:0:
224,223,120750,1,0,0:0:0:0:
224,305,120850,1,0,0:0:0:0:
81,220,121050,1,0,0:0:0:0:
53,142,121150,1,0,0:0:0:0:
69,61,121250,1,0,0:0:0:0:
146,29,121350,1,0,0:0:0:0:
227,39,121450,1,0,0:0:0:0:
270,110,121550,1,0,0:0:0:0:
265,192,121650,5,0,0:0:0:0:
134,294,121850,1,0,0:0:0:0:
71,240,121950,1,0,0:0:0:0:
81,157,122050,1,0,0:0:0:0:
190,32,122250,1,0,0:0:0:0:
349,77,122450,1,0,0:0:0:0:
403,139,122550,1,0,0:0:0:0:
422,219,122650,1,0,0:0:0:0:
413,300,122750,1,0,0:0:0:0:
336,333,122850,1,0,0:0:0:0:
264,292,122950,1,0,0:0:0:0:
222,220,123050,1,0,0:0:0:0:
210,137,123150,1,0,0:0:0:0:
260,71,123250,5,0,0:0:0:0:
295,145,123350,1,0,0:0:0:0:
268,223,123450,1,0,0:0:0:0:
196,265,123550,1,0,0:0:0:0:
114,248,123650,1,0,0:0:0:0:
279,252,123850,1,0,0:0:0:0:
358,277,123950,1,0,0:0:0:0:
409,341,124050,1,0,0:0:0:0:
244,337,124250,1,0,0:0:0:0:
182,281,124350,1,0,0:0:0:0:
154,203,124450,1,0,0:0:0:0:
154,119,124550,1,0,0:0:0:0:
211,60,124650,1,0,0:0:0:0:
290,32,124750,1,0,0:0:0:0:
372,32,124850,5,0,0:0:0:0:
239,131,125050,1,0,0:0:0:0:
162,163,125150,1,0,0:0:0:0:
79,160,125250,1,0,0:0:0:0:
219,72,125450,1,0,0:0:0:0:
329,197,125650,1,0,0:0:0:0:
262,245,125750,1,0,0:0:0:0:
180,258,125850,1,0,0:0:0:0:
98,240,125950,1,0,0:0:0:0:
46,174,126050,1,0,0:0:0:0:
72,95,126150,1,0,0:0:0:0:
141,49,126250,1,0,0:0:0:0:
222,38,126350,1,0,0:0:0:0:
305,43,126450,5,0,0:0:0:0:
282,122,126550,1,0,0:0:0:0:
216,173,126650,1,0,0:0:0:0:
137,199,126750,1,0,0:0:0:0:
54,198,126850,1,0,0:0:0:0:
199,118,127050,1,0,0:0:0:0:
279,135,127150,1,0,0:0:0:0:
347,180,127250,1,0,0:0:0:0:
293,337,127450,1,0,0:0:0:0:
210,343,127550,1,0,0:0:0:0:
136,302,127650,1,0,0:0:0:0:
91,232,127750,1,0,0:0:0:0:
142,167,127850,1,0,0:0:0:0:
224,174,127950,1,0,0:0:0:0:
286,227,128050,5,0,0:0:0:0:
123,196,128250,1,0,0:0:0:0:
66,135,128350,1,0,0:0:0:0:
57,52,128450,1,0,0:0:0:0:
86,214,128650,1,0,0:0:0:0:
195,339,128850,1,0,0:0:0:0:
277,350,128950,1,0,0:0:0:0:
359,345,129050,1,0,0:0:0:0:
436,314,129150,1,0,0:0:0:0:
471,238,129250,1,0,0:0:0:0:
462,155,129350,1,0,0:0:0:0:
412,88,129450,1,0,0:0:0:0:
339,48,129550,1,0,0:0:0:0:
257,31,129650,5,0,0:0:0:0:
259,113,129750,1,0,0:0:0:0:
296,186,129850,1,0,0:0:0:0:
361,238,129950,1,0,0:0:0:0:
438,265,130050,1,0,0:0:0:0:
347,126,130250,1,0,0:0:0:0:
287,68,130350,1,0,0:0:0:0:
205,53,130450,1,0,0:0:0:0:
80,162,130650,1,0,0:0:0:0:
105,240,130750,1,0,0:0:0:0:
159,302,130850,1,0,0:0:0:0:
240,316,130950,1,0,0:0:0:0:
248,233,131050,1,0,0:0:0:0:
203,163,131150,1,0,0:0:0:0:
131,120,131250,5,0,0:0:0:0:
205,268,131450,1,0,0:0:0:0:
264,325,131550,1,0,0:0:0:0:
346,334,131650,1,0,0:0:0:0:
471,226,131850,1,0,0:0:0:0:
319,293,132050,1,0,0:0:0:0:
236,299,132150,1,0,0:0:0:0:
154,282,132250,1,0,0:0:0:0:
76,253,132350,1,0,0:0:0:0:
61,171,132450,1,0,0:0:0:0:
120,113,132550,1,0,0:0:0:0:
195,78,132650,1,0,0:0:0:0:
276,62,132750,1,0,0:0:0:0:
358,73,132850,5,0,0:0:0:0:
324,149,132950,1,0,0:0:0:0:
256,197,133050,1,0,0:0:0:0:
176,220,133150,1,0,0:0:0:0:
95,241,133250,1,0,0:0:0:0:
221,133,133450,1,0,0:0:0:0:
300,108,133550,1,0,0:0:0:0:
382,106,133650,1,0,0:0:0:0:
457,254,133850,1,0,0:0:0:0:
400,313,133950,1,0,0:0:0:0:
321,339,134050,1,0,0:0:0:0:
238,331,134150,1,0,0:0:0:0:
246,248,134250,1,0,0:0:0:0:
307,192,134350,1,0,0:0:0:0:
383,161,134450,5,0,0:0:0:0:
277,288,134650,1,0,0:0:0:0:
193,294,134750,1,0,0:0:0:0:
126,244,134850,1,0,0:0:0:0:
267,331,135050,1,0,0:0:0:0:
432,323,135250,1,0,0:0:0:0:
473,250,135350,1,0,0:0:0:0:
473,167,135450,1,0,0:0:0:0:
442,89,135550,1,0,0:0:0:0:
370,47,135650,1,0,0:0:0:0:
287,43,135750,1,0,0:0:0:0:
208,67,135850,1,0,0:0:0:0:
154,130,135950,1,0,0:0:0:0:
136,211,136050,5,0,0:0:0:0:
219,209,136150,1,0,0:0:0:0:
295,177,136250,1,0,0:0:0:0:
352,117,136350,1,0,0:0:0:0:
363,34,136450,1,0,0:0:0:0:
198,39,136650,1,0,0:0:0:0:
136,94,136750,1,0,0:0:0:0:
114,174,136850,1,0,0:0:0:0:
222,299,137050,1,0,0:0:0:0:
302,279,137150,1,0,0:0:0:0:
360,220,137250,1,0,0:0:0:0:
376,138,137350,1,0,0:0:0:0:
293,135,137450,1,0,0:0:0:0:
219,173,137550,1,0,0:0:0:0:
170,240,137650,5,0,0:0:0:0:
331,203,137850,1,0,0:0:0:0:
372,131,137950,1,0,0:0:0:0:
373,48,138050,1,0,0:0:0:0:
290,54,138150,1,0,0:0:0:0:
220,98,138250,1,0,0:0:0:0:
183,172,138350,1,0,0:0:0:0:
185,254,138450,1,0,0:0:0:0:
263,228,138550,1,0,0:0:0:0:
320,168,138650,1,0,0:0:0:0:
340,87,138750,1,0,0:0:0:0:
262,118,138850,1,0,0:0:0:0:
210,181,138950,1,0,0:0:0:0:
214,264,139050,1,0,0:0:0:0:
168,333,139150,1,0,0:0:0:0:
85,322,139250,1,0,0:0:0:0:
