osu file format v14

[General]
AudioFilename: audio.mp3
AudioLeadIn: 0
PreviewTime: 12288
Countdown: 0
SampleSet: Normal
StackLeniency: 0.7
Mode: 0
LetterboxInBreaks: 0
WidescreenStoryboard: 1

[Editor]
DistanceSpacing: 1.6
BeatDivisor: 2
GridSize: 4
TimelineZoom: 1

[Metadata]
Title:Dear Lord
TitleUnicode:Dear Lord
Artist:Kamandi l Jaga l Yvnalesca
ArtistUnicode:Kamandi l Jaga l Yvnalesca
Creator:Mortem
Version:Normal
Source:
Tags:witch house garage uk jagabeast yuna lesca kåmåndi jagā yvnvlxscv yunalesca prayer future chill chillout ambient electronic instrumental
BeatmapID:1824554
BeatmapSetID:872812

[Difficulty]
HPDrainRate:5
CircleSize:4
OverallDifficulty:5
ApproachRate:6
SliderMultiplier:1.1
SliderTickRate:1

[Events]
//Background and Video events
0,0,"background.jpg",0,0
//Break Periods
2,55976,61584
2,62834,66726
//Storyboard Layer 0 (Background)
//Storyboard Layer 1 (Fail)
//Storyboard Layer 2 (Pass)
//Storyboard Layer 3 (Foreground)
//Storyboard Layer 4 (Overlay)
//Storyboard Sound Samples

[TimingPoints]
13695,937.5,4,2,1,50,1,0
14634,857.142857142857,4,1,1,50,1,0

[Colours]
Combo1 : 26,166,163
Combo2 : 50,101,101

[HitObjects]
101,288,13695,6,0,P|108:255|101:221,1,55,2|2,0:0|0:0,0:0:0:0:
74,151,14634,6,0,B|164:152|164:152|194:167|194:167|296:167,1,220,8|0,0:3|0:0,0:0:0:0:
356,109,16777,1,0,0:0:0:0:
434,149,17206,2,0,L|434:220,1,55,8|2,0:0|0:0,0:0:0:0:
434,291,18062,6,0,L|258:291,1,165,4|0,0:0|0:0,0:0:0:0:
184,319,19777,2,0,L|67:319,1,110,0|0,0:0|0:0,0:0:0:0:
21,224,21062,1,2,0:0:0:0:
51,141,21491,5,4,0:0:0:0:
202,230,22348,2,0,B|271:230|271:230|303:241|303:241|391:241,1,165,8|0,0:0|0:0,0:0:0:0:
444,202,24062,1,8,0:0:0:0:
474,119,24491,1,2,0:0:0:0:
402,68,24919,6,0,L|282:68,1,110,4|8,0:0|0:0,0:0:0:0:
208,223,26634,2,0,L|328:223,1,110,0|0,0:0|0:0,0:0:0:0:
381,162,27919,1,2,0:0:0:0:
336,86,28348,6,0,L|260:32,2,82.5,4|0|0,0:0|0:0|0:0,0:0:0:0:
381,162,30062,2,0,B|391:215|391:215|378:281,1,110,0|8,0:0|0:0,0:0:0:0:
319,333,31348,1,2,0:0:0:0:
246,283,31776,6,0,L|156:282,1,82.5,4|0,0:0|0:0,0:0:0:0:
152,240,32634,2,0,L|56:239,1,82.5,8|0,0:0|0:0,0:0:0:0:
37,208,33491,2,0,L|37:134,2,55,0|0|0,0:0|0:0|0:0,0:0:0:0:
98,270,34776,1,2,0:0:0:0:
169,218,35205,6,0,L|169:128,2,82.5,4|0|0,0:0|0:0|0:0,0:0:0:0:
215,292,36919,2,0,L|348:292,1,110,0|8,0:0|0:0,0:0:0:0:
397,341,38205,1,2,0:0:0:0:
463,283,38634,6,0,L|463:184,1,82.5,4|0,0:0|0:0,0:0:0:0:
429,171,39492,2,0,L|430:48,1,110,0|0,0:0|0:0,0:0:0:0:
351,21,40776,1,0,0:0:0:0:
308,98,41205,1,8,0:0:0:0:
264,174,41634,1,2,0:0:0:0:
215,100,42062,6,0,L|128:100,1,82.5,4|0,0:0|0:0,0:0:0:0:
105,134,42919,2,0,L|106:223,1,82.5,8|0,0:0|0:0,0:0:0:0:
124,256,43776,2,0,B|173:275|173:275|240:251,1,110,0|8,0:0|0:0,0:0:0:0:
305,215,45062,1,2,0:0:0:0:
378,167,45491,6,0,L|467:168,2,82.5,4|0|0,0:0|0:0|0:0,0:0:0:0:
308,113,47205,2,0,B|249:103|249:103|187:115,1,110,0|0,0:0|0:0,0:0:0:0:
127,162,48491,1,2,0:0:0:0:
169,238,48919,6,0,L|231:295,1,82.5,4|0,0:0|0:0,0:0:0:0:
273,293,49776,2,0,L|336:235,1,82.5,8|0,0:0|0:0,0:0:0:0:
362,203,50634,2,0,B|395:161|395:161|345:110,1,110,0|0,0:0|0:0,0:0:0:0:
295,56,51919,1,2,0:0:0:0:
214,91,52348,6,0,L|121:90,2,82.5,4|0|0,0:0|0:0|0:0,0:0:0:0:
295,56,54062,1,0,0:0:0:0:
372,98,54491,1,0,0:0:0:0:
446,52,54919,1,10,0:0:0:0:
492,221,55776,5,8,0:3:0:0:
255,192,62634,5,8,0:3:0:0:
255,204,67776,5,4,0:0:0:0:
255,192,68634,2,0,L|255:131,1,55,2|2,0:2|0:2,0:0:0:0:
255,48,69491,6,0,P|313:40|373:62,1,110,8|8,0:3|0:0,0:0:0:0:
435,102,70776,1,0,0:0:0:0:
484,175,71205,2,0,P|492:233|470:293,1,110,0|8,0:0|0:0,0:0:0:0:
417,346,72491,1,2,0:0:0:0:
338,305,72919,6,0,P|285:289|231:298,2,110,4|8|0,0:0|0:0|0:0,0:0:0:0:
417,346,75062,1,0,0:0:0:0:
477,281,75491,2,0,P|491:248|489:213,1,55,8|2,0:0|0:0,0:0:0:0:
429,166,76348,6,0,P|381:147|315:185,1,110,4|8,0:0|0:0,0:0:0:0:
270,232,77634,1,0,0:0:0:0:
207,294,78062,2,0,P|159:313|93:275,1,110,0|8,0:0|0:0,0:0:0:0:
183,134,79776,6,0,P|196:87|174:17,1,110,4|8,0:0|0:0,0:0:0:0:
110,80,81062,1,0,0:0:0:0:
44,138,81491,2,0,P|31:185|53:255,1,110,0|0,0:0|0:0,0:0:0:0:
93,316,82776,1,2,0:0:0:0:
162,262,83205,5,4,0:0:0:0:
173,258,84062,2,0,P|226:246|291:269,1,110,8|0,0:0|0:0,0:0:0:0:
349,313,85348,1,0,0:0:0:0:
421,263,85776,1,8,0:0:0:0:
418,175,86205,1,2,0:0:0:0:
359,109,86633,6,0,P|296:121|238:109,1,110,4|8,0:0|0:0,0:0:0:0:
167,143,87919,1,0,0:0:0:0:
87,181,88348,2,0,P|71:226|84:289,1,110,0|0,0:0|0:0,0:0:0:0:
144,347,89633,1,2,0:0:0:0:
208,287,90062,5,4,0:0:0:0:
214,278,90919,2,0,P|230:233|217:170,2,110,8|0|8,0:0|0:0|0:0,0:0:0:0:
52,208,93491,6,0,P|35:156|47:103,1,110,4|0,0:0|0:0,0:0:0:0:
107,39,94776,1,0,0:0:0:0:
176,92,95205,2,0,P|228:79|280:94,1,110,0|0,0:0|0:0,0:0:0:0:
357,50,96491,1,2,0:0:0:0:
427,102,96919,5,8,0:3:0:0:
