osu file format v14

[General]
AudioFilename: audio_1.3.mp3
AudioLeadIn: 0
PreviewTime: 12395
Countdown: 0
SampleSet: Normal
StackLeniency: 0.7
Mode: 3
LetterboxInBreaks: 0
SpecialStyle: 0
WidescreenStoryboard: 0

[Editor]
DistanceSpacing: 1.2
BeatDivisor: 12
GridSize: 8
TimelineZoom: 1.4

[Metadata]
Title:Abandon Ship
TitleUnicode:Abandon Ship
Artist:Kamakazi
ArtistUnicode:Kamakazi
Creator:Mat
Version:x1.3
Source:Subnautica
Tags:
BeatmapID:1675906
BeatmapSetID:734759

[Difficulty]
HPDrainRate:7.5
CircleSize:4
OverallDifficulty:8.4
ApproachRate:5
SliderMultiplier:1.4
SliderTickRate:1

[Events]
//Background and Video events
0,0,"4546B.jpg",0,0
//Break Periods
//Storyboard Layer 0 (Background)
//Storyboard Layer 1 (Fail)
//Storyboard Layer 2 (Pass)
//Storyboard Layer 3 (Foreground)
//Storyboard Sound Samples

[TimingPoints]
2010,329.67032967033,4,1,0,30,1,0
23109,-100,4,1,0,30,0,1
27065,-100,4,1,0,30,0,0
28383,-100,4,1,0,30,0,1
32010,-100,4,1,0,30,0,0
33658,-100,4,1,0,30,0,1
37614,-100,4,1,0,30,0,0
38933,-100,4,1,0,30,0,1
42889,-100,4,1,0,30,0,0
67944,-100,4,1,0,30,0,1
75526,-100,4,1,0,30,0,0
75856,-100,4,1,0,30,0,1
78823,-100,4,1,0,30,0,0

[HitObjects]
64,192,1516,128,0,2010:0:0:0:0:
448,192,2010,128,0,4647:0:0:0:0:
320,192,2010,128,0,3329:0:0:0:0:
192,192,2010,1,0,0:0:0:0:
64,192,2340,1,0,0:0:0:0:
192,192,2670,1,0,0:0:0:0:
64,192,2780,1,0,0:0:0:0:
64,192,2889,1,0,0:0:0:0:
192,192,2999,1,0,0:0:0:0:
192,192,3329,1,0,0:0:0:0:
64,192,3439,1,0,0:0:0:0:
64,192,3549,1,0,0:0:0:0:
320,192,3658,1,0,0:0:0:0:
192,192,3988,1,0,0:0:0:0:
320,192,4098,1,0,0:0:0:0:
320,192,4208,1,0,0:0:0:0:
64,192,4318,1,0,0:0:0:0:
192,192,4647,1,0,0:0:0:0:
64,192,4757,1,0,0:0:0:0:
64,192,4867,1,0,0:0:0:0:
192,192,4977,1,0,0:0:0:0:
320,192,5306,1,0,0:0:0:0:
192,192,5416,1,0,0:0:0:0:
192,192,5526,1,0,0:0:0:0:
448,192,5636,1,0,0:0:0:0:
64,192,5966,1,0,0:0:0:0:
320,192,6076,1,0,0:0:0:0:
320,192,6186,1,0,0:0:0:0:
64,192,6296,1,0,0:0:0:0:
64,192,6626,1,0,0:0:0:0:
448,192,6735,1,0,0:0:0:0:
448,192,6845,1,0,0:0:0:0:
64,192,6955,1,0,0:0:0:0:
192,192,7285,1,0,0:0:0:0:
320,192,7395,1,0,0:0:0:0:
320,192,7504,1,0,0:0:0:0:
192,192,7614,1,0,0:0:0:0:
320,192,7944,1,0,0:0:0:0:
64,192,8054,1,0,0:0:0:0:
64,192,8164,1,0,0:0:0:0:
448,192,8273,1,0,0:0:0:0:
192,192,8603,1,0,0:0:0:0:
320,192,8713,1,0,0:0:0:0:
320,192,8823,1,0,0:0:0:0:
192,192,8933,1,0,0:0:0:0:
320,192,9263,1,0,0:0:0:0:
64,192,9373,1,0,0:0:0:0:
192,192,9373,1,0,0:0:0:0:
64,192,9483,1,0,0:0:0:0:
448,192,9593,1,0,0:0:0:0:
64,192,9922,1,0,0:0:0:0:
320,192,10032,1,0,0:0:0:0:
320,192,10142,1,0,0:0:0:0:
64,192,10252,1,0,0:0:0:0:
192,192,10581,1,0,0:0:0:0:
448,192,10691,1,0,0:0:0:0:
448,192,10801,1,0,0:0:0:0:
320,192,10911,1,0,0:0:0:0:
448,192,11241,1,0,0:0:0:0:
64,192,11350,1,0,0:0:0:0:
64,192,11460,1,0,0:0:0:0:
320,192,11570,1,0,0:0:0:0:
192,192,11900,1,0,0:0:0:0:
320,192,12010,1,0,0:0:0:0:
320,192,12120,1,0,0:0:0:0:
64,192,12230,1,0,0:0:0:0:
448,192,12560,1,0,0:0:0:0:
320,192,12560,1,0,0:0:0:0:
192,192,12752,1,0,0:0:0:0:
64,192,12889,1,0,0:0:0:0:
320,192,12889,1,0,0:0:0:0:
448,192,13081,1,0,0:0:0:0:
320,192,13219,1,0,0:0:0:0:
192,192,13219,1,0,0:0:0:0:
64,192,13411,1,0,0:0:0:0:
448,192,13549,1,0,0:0:0:0:
192,192,13549,1,0,0:0:0:0:
320,192,13741,1,0,0:0:0:0:
448,192,13878,1,0,0:0:0:0:
64,192,13878,1,0,0:0:0:0:
192,192,14070,1,0,0:0:0:0:
64,192,14208,1,0,0:0:0:0:
320,192,14208,1,0,0:0:0:0:
192,192,14400,1,0,0:0:0:0:
320,192,14537,1,0,0:0:0:0:
448,192,14537,1,0,0:0:0:0:
192,192,14730,1,0,0:0:0:0:
64,192,14867,1,0,0:0:0:0:
448,192,14867,1,0,0:0:0:0:
320,192,15060,1,0,0:0:0:0:
64,192,15196,1,0,0:0:0:0:
448,192,15196,1,0,0:0:0:0:
192,192,15389,1,0,0:0:0:0:
64,192,15526,1,0,0:0:0:0:
448,192,15526,1,0,0:0:0:0:
320,192,15719,1,0,0:0:0:0:
64,192,15856,1,0,0:0:0:0:
192,192,15856,1,0,0:0:0:0:
320,192,16049,1,0,0:0:0:0:
192,192,16186,1,0,0:0:0:0:
448,192,16186,1,0,0:0:0:0:
64,192,16378,1,0,0:0:0:0:
448,192,16516,1,0,0:0:0:0:
320,192,16516,1,0,0:0:0:0:
192,192,16708,1,0,0:0:0:0:
320,192,16845,1,0,0:0:0:0:
64,192,16845,1,0,0:0:0:0:
448,192,17037,1,0,0:0:0:0:
192,192,17175,1,0,0:0:0:0:
64,192,17175,1,0,0:0:0:0:
320,192,17367,1,0,0:0:0:0:
64,192,17504,1,0,0:0:0:0:
448,192,17504,1,0,0:0:0:0:
320,192,17696,1,0,0:0:0:0:
192,192,17834,1,0,0:0:0:0:
64,192,17834,1,0,0:0:0:0:
320,192,18026,1,0,0:0:0:0:
64,192,18164,1,0,0:0:0:0:
448,192,18164,1,0,0:0:0:0:
192,192,18356,1,0,0:0:0:0:
64,192,18493,1,0,0:0:0:0:
320,192,18493,1,0,0:0:0:0:
448,192,18686,1,0,0:0:0:0:
64,192,18823,1,0,0:0:0:0:
320,192,18823,1,0,0:0:0:0:
192,192,19016,1,0,0:0:0:0:
448,192,19153,1,0,0:0:0:0:
320,192,19153,1,0,0:0:0:0:
192,192,19345,1,0,0:0:0:0:
64,192,19483,1,0,0:0:0:0:
448,192,19483,1,0,0:0:0:0:
192,192,19675,1,0,0:0:0:0:
320,192,19812,1,0,0:0:0:0:
448,192,19812,1,0,0:0:0:0:
448,192,19922,1,0,0:0:0:0:
64,192,20004,1,0,0:0:0:0:
448,192,20142,1,0,0:0:0:0:
192,192,20142,1,0,0:0:0:0:
320,192,20334,1,0,0:0:0:0:
192,192,20472,1,0,0:0:0:0:
64,192,20472,1,0,0:0:0:0:
320,192,20664,1,0,0:0:0:0:
192,192,20801,1,0,0:0:0:0:
448,192,20801,1,0,0:0:0:0:
64,192,20993,1,0,0:0:0:0:
320,192,21131,1,0,0:0:0:0:
448,192,21131,1,0,0:0:0:0:
192,192,21323,1,0,0:0:0:0:
64,192,21460,1,0,0:0:0:0:
448,192,21460,1,0,0:0:0:0:
320,192,21653,1,0,0:0:0:0:
64,192,21790,1,0,0:0:0:0:
192,192,21790,1,0,0:0:0:0:
320,192,21983,1,0,0:0:0:0:
448,192,22120,1,0,0:0:0:0:
64,192,22120,1,0,0:0:0:0:
192,192,22340,5,0,0:0:0:0:
64,192,22340,1,0,0:0:0:0:
320,192,22450,1,0,0:0:0:0:
448,192,22450,1,0,0:0:0:0:
64,192,22560,1,0,0:0:0:0:
448,192,22560,1,0,0:0:0:0:
320,192,22670,1,0,0:0:0:0:
192,192,22670,1,0,0:0:0:0:
64,192,22780,1,0,0:0:0:0:
320,192,22780,1,0,0:0:0:0:
192,192,22889,1,0,0:0:0:0:
64,192,22889,1,0,0:0:0:0:
448,192,22999,1,0,0:0:0:0:
320,192,22999,1,0,0:0:0:0:
320,192,23109,1,0,0:0:0:0:
448,192,23109,1,0,0:0:0:0:
192,192,23109,1,0,0:0:0:0:
64,192,23219,1,0,0:0:0:0:
448,192,23219,1,0,0:0:0:0:
192,192,23329,1,0,0:0:0:0:
64,192,23329,1,0,0:0:0:0:
320,192,23439,1,0,0:0:0:0:
448,192,23439,1,0,0:0:0:0:
192,192,23439,1,0,0:0:0:0:
448,192,23549,1,0,0:0:0:0:
64,192,23549,1,0,0:0:0:0:
192,192,23658,1,0,0:0:0:0:
320,192,23658,1,0,0:0:0:0:
320,192,23768,1,0,0:0:0:0:
448,192,23768,1,0,0:0:0:0:
64,192,23768,1,0,0:0:0:0:
448,192,23878,1,0,0:0:0:0:
192,192,23878,1,0,0:0:0:0:
64,192,23988,1,0,0:0:0:0:
320,192,23988,1,0,0:0:0:0:
192,192,24098,1,0,0:0:0:0:
448,192,24098,1,0,0:0:0:0:
64,192,24098,1,0,0:0:0:0:
448,192,24208,1,0,0:0:0:0:
320,192,24208,1,0,0:0:0:0:
192,192,24318,1,0,0:0:0:0:
64,192,24318,1,0,0:0:0:0:
448,192,24427,5,0,0:0:0:0:
64,192,24427,1,0,0:0:0:0:
320,192,24427,1,0,0:0:0:0:
192,192,24537,1,0,0:0:0:0:
448,192,24537,1,0,0:0:0:0:
192,192,24647,1,0,0:0:0:0:
64,192,24647,1,0,0:0:0:0:
448,192,24757,1,0,0:0:0:0:
320,192,24757,1,0,0:0:0:0:
64,192,24757,1,0,0:0:0:0:
448,192,24867,1,0,0:0:0:0:
192,192,24867,1,0,0:0:0:0:
320,192,24977,1,0,0:0:0:0:
64,192,24977,1,0,0:0:0:0:
320,192,25087,1,0,0:0:0:0:
448,192,25087,1,0,0:0:0:0:
192,192,25087,1,0,0:0:0:0:
192,192,25196,1,0,0:0:0:0:
64,192,25196,1,0,0:0:0:0:
320,192,25306,1,0,0:0:0:0:
448,192,25306,1,0,0:0:0:0:
64,192,25416,1,0,0:0:0:0:
320,192,25416,1,0,0:0:0:0:
192,192,25416,1,0,0:0:0:0:
448,192,25526,1,0,0:0:0:0:
192,192,25526,1,0,0:0:0:0:
64,192,25636,1,0,0:0:0:0:
320,192,25636,1,0,0:0:0:0:
448,192,25746,5,0,0:0:0:0:
320,192,25746,1,0,0:0:0:0:
64,192,25746,1,0,0:0:0:0:
448,192,25856,1,0,0:0:0:0:
192,192,25856,1,0,0:0:0:0:
192,192,25966,1,0,0:0:0:0:
320,192,25966,1,0,0:0:0:0:
64,192,26076,1,0,0:0:0:0:
448,192,26076,1,0,0:0:0:0:
320,192,26076,1,0,0:0:0:0:
192,192,26186,1,0,0:0:0:0:
448,192,26186,1,0,0:0:0:0:
320,192,26296,1,0,0:0:0:0:
192,192,26296,1,0,0:0:0:0:
448,192,26406,1,0,0:0:0:0:
64,192,26406,1,0,0:0:0:0:
320,192,26406,1,0,0:0:0:0:
64,192,26516,1,0,0:0:0:0:
192,192,26516,1,0,0:0:0:0:
448,192,26626,1,0,0:0:0:0:
320,192,26626,1,0,0:0:0:0:
64,192,26735,1,0,0:0:0:0:
320,192,26735,1,0,0:0:0:0:
192,192,26735,1,0,0:0:0:0:
448,192,26845,1,0,0:0:0:0:
64,192,26845,1,0,0:0:0:0:
192,192,26955,1,0,0:0:0:0:
448,192,26955,1,0,0:0:0:0:
192,192,27065,5,0,0:0:0:0:
320,192,27065,1,0,0:0:0:0:
64,192,27065,1,0,0:0:0:0:
320,192,27257,1,0,0:0:0:0:
448,192,27395,1,0,0:0:0:0:
64,192,27395,1,0,0:0:0:0:
192,192,27395,1,0,0:0:0:0:
192,192,27587,1,0,0:0:0:0:
320,192,27724,1,0,0:0:0:0:
448,192,27724,1,0,0:0:0:0:
64,192,27724,1,0,0:0:0:0:
448,192,27916,1,0,0:0:0:0:
64,192,28054,1,0,0:0:0:0:
192,192,28054,1,0,0:0:0:0:
320,192,28054,1,0,0:0:0:0:
64,192,28246,1,0,0:0:0:0:
320,192,28383,5,0,0:0:0:0:
448,192,28383,1,0,0:0:0:0:
192,192,28383,1,0,0:0:0:0:
448,192,28493,1,0,0:0:0:0:
64,192,28493,1,0,0:0:0:0:
64,192,28603,1,0,0:0:0:0:
192,192,28603,1,0,0:0:0:0:
320,192,28713,1,0,0:0:0:0:
448,192,28713,1,0,0:0:0:0:
64,192,28713,1,0,0:0:0:0:
320,192,28823,1,0,0:0:0:0:
192,192,28823,1,0,0:0:0:0:
64,192,28933,1,0,0:0:0:0:
448,192,28933,1,0,0:0:0:0:
192,192,29043,1,0,0:0:0:0:
320,192,29043,1,0,0:0:0:0:
448,192,29043,1,0,0:0:0:0:
320,192,29153,1,0,0:0:0:0:
192,192,29153,1,0,0:0:0:0:
64,192,29263,1,0,0:0:0:0:
448,192,29263,1,0,0:0:0:0:
320,192,29373,1,0,0:0:0:0:
192,192,29373,1,0,0:0:0:0:
64,192,29373,1,0,0:0:0:0:
448,192,29565,1,0,0:0:0:0:
320,192,29703,5,0,0:0:0:0:
64,192,29703,1,0,0:0:0:0:
192,192,29703,1,0,0:0:0:0:
320,192,29812,1,0,0:0:0:0:
64,192,29812,1,0,0:0:0:0:
448,192,29922,1,0,0:0:0:0:
192,192,29922,1,0,0:0:0:0:
448,192,30032,1,0,0:0:0:0:
320,192,30032,1,0,0:0:0:0:
192,192,30032,1,0,0:0:0:0:
320,192,30142,1,0,0:0:0:0:
64,192,30142,1,0,0:0:0:0:
192,192,30252,1,0,0:0:0:0:
448,192,30252,1,0,0:0:0:0:
320,192,30362,1,0,0:0:0:0:
448,192,30362,1,0,0:0:0:0:
192,192,30362,1,0,0:0:0:0:
320,192,30472,1,0,0:0:0:0:
64,192,30472,1,0,0:0:0:0:
192,192,30472,1,0,0:0:0:0:
64,192,30581,1,0,0:0:0:0:
448,192,30581,1,0,0:0:0:0:
448,192,30691,1,0,0:0:0:0:
320,192,30691,1,0,0:0:0:0:
192,192,30691,1,0,0:0:0:0:
448,192,30911,1,0,0:0:0:0:
320,192,30911,1,0,0:0:0:0:
64,192,31021,5,0,0:0:0:0:
448,192,31021,1,0,0:0:0:0:
192,192,31021,1,0,0:0:0:0:
320,192,31131,1,0,0:0:0:0:
64,192,31131,1,0,0:0:0:0:
64,192,31241,1,0,0:0:0:0:
192,192,31241,1,0,0:0:0:0:
320,192,31350,1,0,0:0:0:0:
448,192,31350,1,0,0:0:0:0:
192,192,31350,1,0,0:0:0:0:
320,192,31460,1,0,0:0:0:0:
448,192,31460,1,0,0:0:0:0:
192,192,31570,1,0,0:0:0:0:
64,192,31570,1,0,0:0:0:0:
448,192,31680,1,0,0:0:0:0:
320,192,31680,1,0,0:0:0:0:
64,192,31680,1,0,0:0:0:0:
64,192,31790,1,0,0:0:0:0:
192,192,31790,1,0,0:0:0:0:
448,192,31900,1,0,0:0:0:0:
320,192,31900,1,0,0:0:0:0:
64,192,32010,1,0,0:0:0:0:
448,192,32010,1,0,0:0:0:0:
192,192,32010,1,0,0:0:0:0:
320,192,32203,1,0,0:0:0:0:
448,192,32340,1,0,0:0:0:0:
192,192,32340,1,0,0:0:0:0:
64,192,32340,1,0,0:0:0:0:
192,192,32532,1,0,0:0:0:0:
448,192,32670,1,0,0:0:0:0:
320,192,32670,1,0,0:0:0:0:
64,192,32670,1,0,0:0:0:0:
64,192,32862,1,0,0:0:0:0:
320,192,32999,1,0,0:0:0:0:
448,192,32999,1,0,0:0:0:0:
192,192,32999,1,0,0:0:0:0:
448,192,33191,1,0,0:0:0:0:
320,192,33329,1,0,0:0:0:0:
192,192,33329,1,0,0:0:0:0:
64,192,33329,1,0,0:0:0:0:
64,192,33439,1,0,0:0:0:0:
320,192,33439,1,0,0:0:0:0:
448,192,33439,1,0,0:0:0:0:
192,192,33549,1,0,0:0:0:0:
320,192,33549,1,0,0:0:0:0:
448,192,33549,1,0,0:0:0:0:
448,192,33658,1,0,0:0:0:0:
192,192,33658,1,0,0:0:0:0:
64,192,33658,1,0,0:0:0:0:
320,192,33768,1,0,0:0:0:0:
64,192,33768,1,0,0:0:0:0:
192,192,33878,1,0,0:0:0:0:
320,192,33878,1,0,0:0:0:0:
448,192,33988,1,0,0:0:0:0:
192,192,33988,1,0,0:0:0:0:
64,192,33988,1,0,0:0:0:0:
448,192,34098,1,0,0:0:0:0:
320,192,34098,1,0,0:0:0:0:
320,192,34208,1,0,0:0:0:0:
64,192,34208,1,0,0:0:0:0:
192,192,34318,1,0,0:0:0:0:
320,192,34318,1,0,0:0:0:0:
448,192,34318,1,0,0:0:0:0:
192,192,34427,1,0,0:0:0:0:
64,192,34427,1,0,0:0:0:0:
320,192,34537,1,0,0:0:0:0:
448,192,34537,1,0,0:0:0:0:
448,192,34647,1,0,0:0:0:0:
192,192,34647,1,0,0:0:0:0:
64,192,34647,1,0,0:0:0:0:
320,192,34757,1,0,0:0:0:0:
192,192,34757,1,0,0:0:0:0:
64,192,34867,1,0,0:0:0:0:
320,192,34867,1,0,0:0:0:0:
320,192,34977,1,0,0:0:0:0:
192,192,34977,1,0,0:0:0:0:
448,192,34977,1,0,0:0:0:0:
448,192,35087,1,0,0:0:0:0:
64,192,35087,1,0,0:0:0:0:
64,192,35196,1,0,0:0:0:0:
320,192,35196,1,0,0:0:0:0:
192,192,35306,1,0,0:0:0:0:
320,192,35306,1,0,0:0:0:0:
64,192,35306,1,0,0:0:0:0:
448,192,35416,1,0,0:0:0:0:
192,192,35416,1,0,0:0:0:0:
448,192,35526,1,0,0:0:0:0:
64,192,35526,1,0,0:0:0:0:
192,192,35636,1,0,0:0:0:0:
320,192,35636,1,0,0:0:0:0:
64,192,35636,1,0,0:0:0:0:
320,192,35746,1,0,0:0:0:0:
192,192,35746,1,0,0:0:0:0:
448,192,35856,1,0,0:0:0:0:
64,192,35856,1,0,0:0:0:0:
448,192,35966,1,0,0:0:0:0:
64,192,35966,1,0,0:0:0:0:
320,192,35966,1,0,0:0:0:0:
192,192,36076,1,0,0:0:0:0:
320,192,36076,1,0,0:0:0:0:
64,192,36186,1,0,0:0:0:0:
192,192,36186,1,0,0:0:0:0:
448,192,36296,1,0,0:0:0:0:
320,192,36296,1,0,0:0:0:0:
64,192,36296,1,0,0:0:0:0:
192,192,36406,1,0,0:0:0:0:
448,192,36406,1,0,0:0:0:0:
64,192,36516,1,0,0:0:0:0:
448,192,36516,1,0,0:0:0:0:
192,192,36626,1,0,0:0:0:0:
320,192,36626,1,0,0:0:0:0:
64,192,36626,1,0,0:0:0:0:
448,192,36735,1,0,0:0:0:0:
192,192,36735,1,0,0:0:0:0:
448,192,36845,1,0,0:0:0:0:
64,192,36845,1,0,0:0:0:0:
192,192,36955,1,0,0:0:0:0:
64,192,36955,1,0,0:0:0:0:
320,192,36955,1,0,0:0:0:0:
448,192,37065,1,0,0:0:0:0:
192,192,37065,1,0,0:0:0:0:
320,192,37175,1,0,0:0:0:0:
64,192,37175,1,0,0:0:0:0:
448,192,37285,1,0,0:0:0:0:
192,192,37285,1,0,0:0:0:0:
320,192,37285,1,0,0:0:0:0:
192,192,37395,1,0,0:0:0:0:
64,192,37395,1,0,0:0:0:0:
64,192,37504,1,0,0:0:0:0:
320,192,37504,1,0,0:0:0:0:
192,192,37614,1,0,0:0:0:0:
448,192,37614,1,0,0:0:0:0:
64,192,37614,1,0,0:0:0:0:
64,192,37806,1,0,0:0:0:0:
320,192,37944,1,0,0:0:0:0:
448,192,37944,1,0,0:0:0:0:
192,192,37944,1,0,0:0:0:0:
448,192,38136,1,0,0:0:0:0:
64,192,38273,1,0,0:0:0:0:
192,192,38273,1,0,0:0:0:0:
320,192,38273,1,0,0:0:0:0:
64,192,38383,1,0,0:0:0:0:
192,192,38383,1,0,0:0:0:0:
64,192,38493,1,0,0:0:0:0:
320,192,38493,1,0,0:0:0:0:
448,192,38603,1,0,0:0:0:0:
320,192,38603,1,0,0:0:0:0:
192,192,38603,1,0,0:0:0:0:
448,192,38796,1,0,0:0:0:0:
64,192,38933,1,0,0:0:0:0:
192,192,38933,1,0,0:0:0:0:
320,192,38933,1,0,0:0:0:0:
64,192,39043,1,0,0:0:0:0:
192,192,39043,1,0,0:0:0:0:
192,192,39153,1,0,0:0:0:0:
448,192,39153,1,0,0:0:0:0:
320,192,39263,1,0,0:0:0:0:
448,192,39263,1,0,0:0:0:0:
64,192,39263,1,0,0:0:0:0:
192,192,39373,1,0,0:0:0:0:
320,192,39373,1,0,0:0:0:0:
448,192,39483,1,0,0:0:0:0:
192,192,39483,1,0,0:0:0:0:
64,192,39593,1,0,0:0:0:0:
448,192,39593,1,0,0:0:0:0:
320,192,39593,1,0,0:0:0:0:
192,192,39703,1,0,0:0:0:0:
320,192,39703,1,0,0:0:0:0:
64,192,39812,1,0,0:0:0:0:
448,192,39812,1,0,0:0:0:0:
192,192,39922,1,0,0:0:0:0:
64,192,39922,1,0,0:0:0:0:
320,192,39922,1,0,0:0:0:0:
448,192,40032,1,0,0:0:0:0:
320,192,40032,1,0,0:0:0:0:
448,192,40142,1,0,0:0:0:0:
192,192,40142,1,0,0:0:0:0:
448,192,40252,1,0,0:0:0:0:
64,192,40252,1,0,0:0:0:0:
320,192,40252,1,0,0:0:0:0:
192,192,40362,1,0,0:0:0:0:
64,192,40362,1,0,0:0:0:0:
448,192,40472,1,0,0:0:0:0:
320,192,40472,1,0,0:0:0:0:
448,192,40581,1,0,0:0:0:0:
192,192,40581,1,0,0:0:0:0:
64,192,40581,1,0,0:0:0:0:
320,192,40691,1,0,0:0:0:0:
64,192,40691,1,0,0:0:0:0:
192,192,40801,1,0,0:0:0:0:
320,192,40801,1,0,0:0:0:0:
64,192,40911,1,0,0:0:0:0:
192,192,40911,1,0,0:0:0:0:
448,192,40911,1,0,0:0:0:0:
320,192,41021,1,0,0:0:0:0:
448,192,41021,1,0,0:0:0:0:
64,192,41021,1,0,0:0:0:0:
192,192,41131,1,0,0:0:0:0:
64,192,41131,1,0,0:0:0:0:
320,192,41241,1,0,0:0:0:0:
448,192,41241,1,0,0:0:0:0:
192,192,41241,1,0,0:0:0:0:
64,192,41350,1,0,0:0:0:0:
320,192,41350,1,0,0:0:0:0:
320,192,41460,1,0,0:0:0:0:
448,192,41460,1,0,0:0:0:0:
192,192,41570,1,0,0:0:0:0:
64,192,41570,1,0,0:0:0:0:
448,192,41570,1,0,0:0:0:0:
64,192,41680,1,0,0:0:0:0:
320,192,41680,1,0,0:0:0:0:
448,192,41790,1,0,0:0:0:0:
192,192,41790,1,0,0:0:0:0:
64,192,41900,1,0,0:0:0:0:
320,192,41900,1,0,0:0:0:0:
448,192,41900,1,0,0:0:0:0:
64,192,42010,1,0,0:0:0:0:
192,192,42010,1,0,0:0:0:0:
448,192,42120,1,0,0:0:0:0:
320,192,42120,1,0,0:0:0:0:
448,192,42230,1,0,0:0:0:0:
64,192,42230,1,0,0:0:0:0:
192,192,42230,1,0,0:0:0:0:
320,192,42340,1,0,0:0:0:0:
64,192,42340,1,0,0:0:0:0:
192,192,42450,1,0,0:0:0:0:
448,192,42450,1,0,0:0:0:0:
448,192,42560,1,0,0:0:0:0:
320,192,42560,1,0,0:0:0:0:
192,192,42560,1,0,0:0:0:0:
64,192,42670,1,0,0:0:0:0:
320,192,42670,1,0,0:0:0:0:
192,192,42780,1,0,0:0:0:0:
64,192,42780,1,0,0:0:0:0:
192,192,42889,1,0,0:0:0:0:
320,192,42889,1,0,0:0:0:0:
448,192,42889,1,0,0:0:0:0:
192,192,43081,1,0,0:0:0:0:
320,192,43219,1,0,0:0:0:0:
448,192,43219,1,0,0:0:0:0:
64,192,43219,1,0,0:0:0:0:
320,192,43411,1,0,0:0:0:0:
192,192,43549,1,0,0:0:0:0:
448,192,43549,1,0,0:0:0:0:
64,192,43549,1,0,0:0:0:0:
448,192,43741,1,0,0:0:0:0:
320,192,43878,1,0,0:0:0:0:
192,192,43878,1,0,0:0:0:0:
64,192,43878,1,0,0:0:0:0:
64,192,44070,1,0,0:0:0:0:
192,192,44208,128,0,44537:0:0:0:0:
448,192,44208,128,0,44537:0:0:0:0:
64,192,44208,1,0,0:0:0:0:
320,192,44208,1,0,0:0:0:0:
320,192,44537,1,0,0:0:0:0:
64,192,44537,1,0,0:0:0:0:
64,192,44867,128,0,45196:0:0:0:0:
192,192,44867,128,0,45196:0:0:0:0:
320,192,44867,1,0,0:0:0:0:
448,192,44867,1,0,0:0:0:0:
320,192,45196,1,0,0:0:0:0:
448,192,45196,1,0,0:0:0:0:
448,192,45526,128,0,45691:0:0:0:0:
320,192,45526,128,0,45691:0:0:0:0:
192,192,45526,1,0,0:0:0:0:
64,192,45526,1,0,0:0:0:0:
64,192,45856,128,0,46021:0:0:0:0:
320,192,45856,128,0,46021:0:0:0:0:
192,192,45856,1,0,0:0:0:0:
448,192,45856,1,0,0:0:0:0:
448,192,46186,128,0,46516:0:0:0:0:
320,192,46186,1,0,0:0:0:0:
192,192,46186,128,0,46516:0:0:0:0:
64,192,46186,1,0,0:0:0:0:
320,192,46516,128,0,46845:0:0:0:0:
64,192,46516,128,0,46845:0:0:0:0:
192,192,46845,128,0,47175:0:0:0:0:
448,192,46845,128,0,47175:0:0:0:0:
320,192,47175,1,0,0:0:0:0:
64,192,47175,1,0,0:0:0:0:
320,192,47504,1,0,0:0:0:0:
192,192,47504,128,0,47834:0:0:0:0:
448,192,47504,128,0,47834:0:0:0:0:
64,192,47504,1,0,0:0:0:0:
320,192,47834,1,0,0:0:0:0:
64,192,47834,1,0,0:0:0:0:
64,192,48164,128,0,48219:0:0:0:0:
448,192,48164,1,0,0:0:0:0:
320,192,48164,1,0,0:0:0:0:
192,192,48273,128,0,48329:0:0:0:0:
320,192,48383,128,0,48439:0:0:0:0:
448,192,48493,128,0,48549:0:0:0:0:
64,192,48493,128,0,48658:0:0:0:0:
192,192,48493,128,0,48658:0:0:0:0:
320,192,48713,1,0,0:0:0:0:
448,192,48713,1,0,0:0:0:0:
448,192,48823,128,0,49153:0:0:0:0:
320,192,48823,128,0,49153:0:0:0:0:
192,192,48823,1,0,0:0:0:0:
64,192,48823,1,0,0:0:0:0:
64,192,49153,128,0,49483:0:0:0:0:
192,192,49153,128,0,49483:0:0:0:0:
320,192,49483,128,0,49812:0:0:0:0:
448,192,49483,128,0,49812:0:0:0:0:
64,192,49812,1,0,0:0:0:0:
192,192,49812,1,0,0:0:0:0:
64,192,50142,128,0,50472:0:0:0:0:
448,192,50142,128,0,50472:0:0:0:0:
192,192,50142,1,0,0:0:0:0:
320,192,50142,1,0,0:0:0:0:
192,192,50472,1,0,0:0:0:0:
320,192,50472,1,0,0:0:0:0:
448,192,50801,128,0,50856:0:0:0:0:
192,192,50801,1,0,0:0:0:0:
64,192,50801,1,0,0:0:0:0:
320,192,50911,128,0,50966:0:0:0:0:
192,192,51021,128,0,51076:0:0:0:0:
320,192,51131,128,0,51296:0:0:0:0:
64,192,51131,128,0,51186:0:0:0:0:
448,192,51131,128,0,51296:0:0:0:0:
192,192,51460,128,0,51790:0:0:0:0:
320,192,51460,128,0,51790:0:0:0:0:
448,192,51460,1,0,0:0:0:0:
64,192,51460,1,0,0:0:0:0:
64,192,51790,128,0,52120:0:0:0:0:
448,192,51790,128,0,52120:0:0:0:0:
192,192,52120,1,0,0:0:0:0:
320,192,52120,1,0,0:0:0:0:
192,192,52230,1,0,0:0:0:0:
192,192,52340,1,0,0:0:0:0:
320,192,52450,1,0,0:0:0:0:
448,192,52450,1,0,0:0:0:0:
64,192,52450,1,0,0:0:0:0:
320,192,52560,1,0,0:0:0:0:
320,192,52670,1,0,0:0:0:0:
64,192,52780,1,0,0:0:0:0:
448,192,52780,1,0,0:0:0:0:
192,192,52780,1,0,0:0:0:0:
448,192,52889,1,0,0:0:0:0:
448,192,52999,1,0,0:0:0:0:
64,192,53109,1,0,0:0:0:0:
192,192,53109,1,0,0:0:0:0:
320,192,53109,1,0,0:0:0:0:
192,192,53219,1,0,0:0:0:0:
192,192,53329,1,0,0:0:0:0:
320,192,53439,1,0,0:0:0:0:
64,192,53439,128,0,53493:0:0:0:0:
448,192,53439,1,0,0:0:0:0:
192,192,53549,128,0,53603:0:0:0:0:
320,192,53658,128,0,53713:0:0:0:0:
448,192,53768,1,0,0:0:0:0:
64,192,53768,128,0,53823:0:0:0:0:
192,192,53768,1,0,0:0:0:0:
448,192,53878,1,0,0:0:0:0:
448,192,53988,1,0,0:0:0:0:
64,192,54098,1,0,0:0:0:0:
192,192,54098,1,0,0:0:0:0:
320,192,54098,1,0,0:0:0:0:
64,192,54208,1,0,0:0:0:0:
64,192,54318,1,0,0:0:0:0:
448,192,54427,1,0,0:0:0:0:
192,192,54427,1,0,0:0:0:0:
320,192,54427,1,0,0:0:0:0:
320,192,54537,1,0,0:0:0:0:
320,192,54647,1,0,0:0:0:0:
64,192,54757,1,0,0:0:0:0:
192,192,54757,1,0,0:0:0:0:
448,192,54757,1,0,0:0:0:0:
192,192,54867,1,0,0:0:0:0:
192,192,54977,1,0,0:0:0:0:
448,192,55087,1,0,0:0:0:0:
320,192,55087,1,0,0:0:0:0:
64,192,55087,1,0,0:0:0:0:
448,192,55196,1,0,0:0:0:0:
448,192,55306,1,0,0:0:0:0:
64,192,55416,1,0,0:0:0:0:
192,192,55416,1,0,0:0:0:0:
320,192,55416,1,0,0:0:0:0:
64,192,55526,1,0,0:0:0:0:
64,192,55636,1,0,0:0:0:0:
448,192,55746,1,0,0:0:0:0:
320,192,55746,1,0,0:0:0:0:
192,192,55746,1,0,0:0:0:0:
192,192,55856,1,0,0:0:0:0:
192,192,55966,1,0,0:0:0:0:
64,192,56076,1,0,0:0:0:0:
448,192,56076,1,0,0:0:0:0:
320,192,56076,1,0,0:0:0:0:
320,192,56186,1,0,0:0:0:0:
320,192,56296,1,0,0:0:0:0:
64,192,56406,1,0,0:0:0:0:
448,192,56406,128,0,56460:0:0:0:0:
192,192,56406,1,0,0:0:0:0:
320,192,56516,128,0,56570:0:0:0:0:
192,192,56626,128,0,56680:0:0:0:0:
448,192,56735,1,0,0:0:0:0:
64,192,56735,128,0,56790:0:0:0:0:
320,192,56735,1,0,0:0:0:0:
448,192,56845,1,0,0:0:0:0:
448,192,56955,1,0,0:0:0:0:
64,192,57065,1,0,0:0:0:0:
320,192,57065,1,0,0:0:0:0:
192,192,57065,1,0,0:0:0:0:
320,192,57175,1,0,0:0:0:0:
320,192,57285,1,0,0:0:0:0:
64,192,57395,1,0,0:0:0:0:
192,192,57395,1,0,0:0:0:0:
448,192,57395,1,0,0:0:0:0:
64,192,57504,1,0,0:0:0:0:
64,192,57614,1,0,0:0:0:0:
192,192,57614,1,0,0:0:0:0:
448,192,57724,1,0,0:0:0:0:
320,192,57724,1,0,0:0:0:0:
192,192,57724,1,0,0:0:0:0:
448,192,57834,1,0,0:0:0:0:
448,192,57944,1,0,0:0:0:0:
192,192,57944,1,0,0:0:0:0:
64,192,58054,1,0,0:0:0:0:
192,192,58054,1,0,0:0:0:0:
320,192,58054,1,0,0:0:0:0:
64,192,58164,1,0,0:0:0:0:
64,192,58273,1,0,0:0:0:0:
320,192,58273,1,0,0:0:0:0:
192,192,58383,1,0,0:0:0:0:
320,192,58383,1,0,0:0:0:0:
448,192,58383,1,0,0:0:0:0:
448,192,58493,1,0,0:0:0:0:
64,192,58603,1,0,0:0:0:0:
448,192,58603,1,0,0:0:0:0:
64,192,58713,1,0,0:0:0:0:
192,192,58713,1,0,0:0:0:0:
320,192,58713,1,0,0:0:0:0:
192,192,58823,1,0,0:0:0:0:
192,192,58933,1,0,0:0:0:0:
448,192,58933,1,0,0:0:0:0:
448,192,59043,1,0,0:0:0:0:
320,192,59043,1,0,0:0:0:0:
64,192,59043,1,0,0:0:0:0:
64,192,59153,1,0,0:0:0:0:
64,192,59263,1,0,0:0:0:0:
448,192,59263,1,0,0:0:0:0:
192,192,59373,1,0,0:0:0:0:
320,192,59373,1,0,0:0:0:0:
448,192,59373,1,0,0:0:0:0:
320,192,59483,1,0,0:0:0:0:
64,192,59483,1,0,0:0:0:0:
320,192,59593,1,0,0:0:0:0:
192,192,59593,1,0,0:0:0:0:
64,192,59703,1,0,0:0:0:0:
192,192,59703,1,0,0:0:0:0:
448,192,59703,1,0,0:0:0:0:
64,192,59812,1,0,0:0:0:0:
64,192,59922,1,0,0:0:0:0:
320,192,59922,1,0,0:0:0:0:
320,192,60032,1,0,0:0:0:0:
192,192,60032,1,0,0:0:0:0:
448,192,60032,1,0,0:0:0:0:
448,192,60142,1,0,0:0:0:0:
448,192,60252,1,0,0:0:0:0:
64,192,60252,1,0,0:0:0:0:
320,192,60362,1,0,0:0:0:0:
192,192,60362,1,0,0:0:0:0:
64,192,60362,1,0,0:0:0:0:
320,192,60472,1,0,0:0:0:0:
320,192,60581,1,0,0:0:0:0:
64,192,60581,1,0,0:0:0:0:
64,192,60691,1,0,0:0:0:0:
192,192,60691,1,0,0:0:0:0:
448,192,60691,1,0,0:0:0:0:
192,192,60801,1,0,0:0:0:0:
192,192,60911,1,0,0:0:0:0:
320,192,60911,1,0,0:0:0:0:
64,192,61021,1,0,0:0:0:0:
192,192,61021,1,0,0:0:0:0:
448,192,61021,1,0,0:0:0:0:
448,192,61131,1,0,0:0:0:0:
448,192,61241,1,0,0:0:0:0:
320,192,61241,1,0,0:0:0:0:
320,192,61350,1,0,0:0:0:0:
64,192,61350,1,0,0:0:0:0:
192,192,61350,1,0,0:0:0:0:
64,192,61460,1,0,0:0:0:0:
64,192,61570,1,0,0:0:0:0:
448,192,61570,1,0,0:0:0:0:
320,192,61680,1,0,0:0:0:0:
192,192,61680,1,0,0:0:0:0:
448,192,61680,1,0,0:0:0:0:
320,192,61790,5,0,0:0:0:0:
64,192,61900,5,0,0:0:0:0:
320,192,61900,1,0,0:0:0:0:
192,192,62010,1,0,0:0:0:0:
64,192,62010,1,0,0:0:0:0:
448,192,62010,1,0,0:0:0:0:
448,192,62120,1,0,0:0:0:0:
448,192,62230,1,0,0:0:0:0:
64,192,62230,1,0,0:0:0:0:
64,192,62340,1,0,0:0:0:0:
192,192,62340,1,0,0:0:0:0:
320,192,62340,1,0,0:0:0:0:
192,192,62450,1,0,0:0:0:0:
192,192,62560,1,0,0:0:0:0:
320,192,62560,1,0,0:0:0:0:
448,192,62670,1,0,0:0:0:0:
320,192,62670,1,0,0:0:0:0:
64,192,62670,1,0,0:0:0:0:
448,192,62780,1,0,0:0:0:0:
448,192,62889,1,0,0:0:0:0:
320,192,62889,1,0,0:0:0:0:
192,192,62999,1,0,0:0:0:0:
320,192,62999,1,0,0:0:0:0:
64,192,62999,1,0,0:0:0:0:
192,192,63109,1,0,0:0:0:0:
192,192,63219,1,0,0:0:0:0:
320,192,63219,1,0,0:0:0:0:
64,192,63329,1,0,0:0:0:0:
448,192,63329,1,0,0:0:0:0:
320,192,63329,1,0,0:0:0:0:
64,192,63439,1,0,0:0:0:0:
64,192,63549,1,0,0:0:0:0:
192,192,63549,1,0,0:0:0:0:
448,192,63658,1,0,0:0:0:0:
320,192,63658,1,0,0:0:0:0:
192,192,63658,1,0,0:0:0:0:
320,192,63768,1,0,0:0:0:0:
320,192,63878,1,0,0:0:0:0:
64,192,63878,1,0,0:0:0:0:
448,192,63988,1,0,0:0:0:0:
64,192,63988,1,0,0:0:0:0:
192,192,63988,1,0,0:0:0:0:
448,192,64098,1,0,0:0:0:0:
448,192,64208,1,0,0:0:0:0:
192,192,64208,1,0,0:0:0:0:
64,192,64318,1,0,0:0:0:0:
320,192,64318,1,0,0:0:0:0:
192,192,64318,1,0,0:0:0:0:
64,192,64427,1,0,0:0:0:0:
64,192,64537,1,0,0:0:0:0:
448,192,64537,1,0,0:0:0:0:
448,192,64647,1,0,0:0:0:0:
320,192,64647,1,0,0:0:0:0:
192,192,64647,1,0,0:0:0:0:
320,192,64757,1,0,0:0:0:0:
64,192,64757,1,0,0:0:0:0:
320,192,64867,1,0,0:0:0:0:
448,192,64867,1,0,0:0:0:0:
64,192,64977,1,0,0:0:0:0:
192,192,64977,1,0,0:0:0:0:
448,192,64977,1,0,0:0:0:0:
192,192,65087,1,0,0:0:0:0:
192,192,65196,1,0,0:0:0:0:
320,192,65196,1,0,0:0:0:0:
448,192,65306,1,0,0:0:0:0:
320,192,65306,1,0,0:0:0:0:
64,192,65306,1,0,0:0:0:0:
448,192,65416,1,0,0:0:0:0:
448,192,65526,1,0,0:0:0:0:
64,192,65526,1,0,0:0:0:0:
320,192,65636,1,0,0:0:0:0:
192,192,65636,1,0,0:0:0:0:
64,192,65636,1,0,0:0:0:0:
192,192,65746,5,0,0:0:0:0:
192,192,65856,1,0,0:0:0:0:
64,192,65856,1,0,0:0:0:0:
448,192,65966,1,0,0:0:0:0:
64,192,65966,1,0,0:0:0:0:
320,192,65966,1,0,0:0:0:0:
448,192,66076,1,0,0:0:0:0:
448,192,66186,1,0,0:0:0:0:
64,192,66186,1,0,0:0:0:0:
320,192,66296,1,0,0:0:0:0:
192,192,66296,1,0,0:0:0:0:
64,192,66296,1,0,0:0:0:0:
192,192,66406,1,0,0:0:0:0:
192,192,66516,1,0,0:0:0:0:
320,192,66516,1,0,0:0:0:0:
64,192,66626,5,0,0:0:0:0:
192,192,66626,1,0,0:0:0:0:
448,192,66626,1,0,0:0:0:0:
320,192,66626,1,0,0:0:0:0:
448,192,66735,1,0,0:0:0:0:
448,192,66845,1,0,0:0:0:0:
64,192,66845,1,0,0:0:0:0:
448,192,66955,1,0,0:0:0:0:
320,192,66955,1,0,0:0:0:0:
192,192,66955,1,0,0:0:0:0:
64,192,66955,1,0,0:0:0:0:
192,192,67065,1,0,0:0:0:0:
192,192,67175,1,0,0:0:0:0:
448,192,67175,1,0,0:0:0:0:
64,192,67285,1,0,0:0:0:0:
192,192,67285,1,0,0:0:0:0:
320,192,67285,1,0,0:0:0:0:
448,192,67285,1,0,0:0:0:0:
320,192,67395,1,0,0:0:0:0:
320,192,67504,1,0,0:0:0:0:
64,192,67504,1,0,0:0:0:0:
448,192,67614,1,0,0:0:0:0:
320,192,67614,1,0,0:0:0:0:
192,192,67614,1,0,0:0:0:0:
448,192,67724,1,0,0:0:0:0:
64,192,67834,1,0,0:0:0:0:
192,192,67834,1,0,0:0:0:0:
448,192,67944,1,0,0:0:0:0:
320,192,67944,1,0,0:0:0:0:
64,192,67944,1,0,0:0:0:0:
192,192,67944,1,0,0:0:0:0:
448,192,68054,1,0,0:0:0:0:
320,192,68054,1,0,0:0:0:0:
64,192,68164,1,0,0:0:0:0:
192,192,68164,1,0,0:0:0:0:
320,192,68273,1,0,0:0:0:0:
448,192,68273,1,0,0:0:0:0:
64,192,68273,1,0,0:0:0:0:
192,192,68383,1,0,0:0:0:0:
320,192,68383,1,0,0:0:0:0:
448,192,68493,1,0,0:0:0:0:
192,192,68493,1,0,0:0:0:0:
448,192,68603,1,0,0:0:0:0:
320,192,68603,1,0,0:0:0:0:
192,192,68603,1,0,0:0:0:0:
64,192,68603,1,0,0:0:0:0:
448,192,68713,1,0,0:0:0:0:
320,192,68713,1,0,0:0:0:0:
64,192,68823,1,0,0:0:0:0:
320,192,68823,1,0,0:0:0:0:
320,192,68933,1,0,0:0:0:0:
448,192,68933,1,0,0:0:0:0:
192,192,68933,1,0,0:0:0:0:
192,192,69043,1,0,0:0:0:0:
64,192,69043,1,0,0:0:0:0:
448,192,69153,1,0,0:0:0:0:
64,192,69153,1,0,0:0:0:0:
64,192,69263,1,0,0:0:0:0:
192,192,69263,1,0,0:0:0:0:
448,192,69263,1,0,0:0:0:0:
320,192,69263,1,0,0:0:0:0:
320,192,69373,1,0,0:0:0:0:
192,192,69373,1,0,0:0:0:0:
448,192,69483,1,0,0:0:0:0:
192,192,69483,1,0,0:0:0:0:
64,192,69593,1,0,0:0:0:0:
320,192,69593,1,0,0:0:0:0:
448,192,69593,1,0,0:0:0:0:
64,192,69703,1,0,0:0:0:0:
192,192,69703,1,0,0:0:0:0:
448,192,69812,1,0,0:0:0:0:
192,192,69812,1,0,0:0:0:0:
448,192,69922,1,0,0:0:0:0:
320,192,69922,1,0,0:0:0:0:
192,192,69922,1,0,0:0:0:0:
64,192,69922,1,0,0:0:0:0:
320,192,70032,1,0,0:0:0:0:
64,192,70032,1,0,0:0:0:0:
320,192,70142,1,0,0:0:0:0:
448,192,70142,1,0,0:0:0:0:
192,192,70252,1,0,0:0:0:0:
448,192,70252,1,0,0:0:0:0:
64,192,70252,1,0,0:0:0:0:
320,192,70362,1,0,0:0:0:0:
192,192,70362,1,0,0:0:0:0:
64,192,70472,1,0,0:0:0:0:
448,192,70472,1,0,0:0:0:0:
64,192,70581,1,0,0:0:0:0:
192,192,70581,1,0,0:0:0:0:
320,192,70581,1,0,0:0:0:0:
448,192,70581,1,0,0:0:0:0:
64,192,70691,1,0,0:0:0:0:
192,192,70691,1,0,0:0:0:0:
448,192,70801,1,0,0:0:0:0:
192,192,70801,1,0,0:0:0:0:
320,192,70911,1,0,0:0:0:0:
448,192,70911,1,0,0:0:0:0:
64,192,70911,1,0,0:0:0:0:
320,192,71021,1,0,0:0:0:0:
192,192,71021,1,0,0:0:0:0:
448,192,71131,1,0,0:0:0:0:
192,192,71131,1,0,0:0:0:0:
64,192,71241,1,0,0:0:0:0:
192,192,71241,1,0,0:0:0:0:
320,192,71241,1,0,0:0:0:0:
448,192,71241,1,0,0:0:0:0:
64,192,71350,1,0,0:0:0:0:
320,192,71350,1,0,0:0:0:0:
448,192,71460,1,0,0:0:0:0:
192,192,71460,1,0,0:0:0:0:
320,192,71570,1,0,0:0:0:0:
448,192,71570,1,0,0:0:0:0:
192,192,71570,1,0,0:0:0:0:
64,192,71680,1,0,0:0:0:0:
320,192,71680,1,0,0:0:0:0:
192,192,71790,1,0,0:0:0:0:
64,192,71790,1,0,0:0:0:0:
64,192,71900,1,0,0:0:0:0:
192,192,71900,1,0,0:0:0:0:
320,192,71900,1,0,0:0:0:0:
448,192,71900,1,0,0:0:0:0:
448,192,72010,1,0,0:0:0:0:
320,192,72010,1,0,0:0:0:0:
448,192,72120,1,0,0:0:0:0:
64,192,72120,1,0,0:0:0:0:
64,192,72230,1,0,0:0:0:0:
192,192,72230,1,0,0:0:0:0:
320,192,72230,1,0,0:0:0:0:
448,192,72230,1,0,0:0:0:0:
192,192,72340,1,0,0:0:0:0:
64,192,72340,1,0,0:0:0:0:
448,192,72450,1,0,0:0:0:0:
320,192,72450,1,0,0:0:0:0:
448,192,72560,1,0,0:0:0:0:
320,192,72560,1,0,0:0:0:0:
64,192,72560,1,0,0:0:0:0:
192,192,72560,1,0,0:0:0:0:
64,192,72670,1,0,0:0:0:0:
320,192,72670,1,0,0:0:0:0:
192,192,72780,1,0,0:0:0:0:
448,192,72780,1,0,0:0:0:0:
64,192,72889,1,0,0:0:0:0:
192,192,72889,1,0,0:0:0:0:
448,192,72889,1,0,0:0:0:0:
320,192,72889,1,0,0:0:0:0:
320,192,72999,1,0,0:0:0:0:
448,192,72999,1,0,0:0:0:0:
192,192,73109,1,0,0:0:0:0:
64,192,73109,1,0,0:0:0:0:
448,192,73219,1,0,0:0:0:0:
320,192,73219,1,0,0:0:0:0:
64,192,73219,1,0,0:0:0:0:
192,192,73219,1,0,0:0:0:0:
192,192,73439,1,0,0:0:0:0:
64,192,73439,1,0,0:0:0:0:
448,192,73439,1,0,0:0:0:0:
320,192,73549,1,0,0:0:0:0:
64,192,73549,1,0,0:0:0:0:
448,192,73549,1,0,0:0:0:0:
192,192,73549,1,0,0:0:0:0:
320,192,73658,1,0,0:0:0:0:
448,192,73658,1,0,0:0:0:0:
64,192,73658,1,0,0:0:0:0:
192,192,73768,1,0,0:0:0:0:
64,192,73768,1,0,0:0:0:0:
320,192,73768,1,0,0:0:0:0:
192,192,73878,1,0,0:0:0:0:
64,192,73878,1,0,0:0:0:0:
448,192,73878,1,0,0:0:0:0:
320,192,73988,1,0,0:0:0:0:
192,192,73988,1,0,0:0:0:0:
448,192,73988,1,0,0:0:0:0:
192,192,74098,1,0,0:0:0:0:
448,192,74098,1,0,0:0:0:0:
64,192,74098,1,0,0:0:0:0:
448,192,74208,1,0,0:0:0:0:
320,192,74208,1,0,0:0:0:0:
64,192,74208,1,0,0:0:0:0:
192,192,74208,1,0,0:0:0:0:
448,192,74427,1,0,0:0:0:0:
64,192,74427,1,0,0:0:0:0:
320,192,74427,1,0,0:0:0:0:
192,192,74537,1,0,0:0:0:0:
320,192,74537,1,0,0:0:0:0:
448,192,74537,1,0,0:0:0:0:
64,192,74537,1,0,0:0:0:0:
320,192,74757,1,0,0:0:0:0:
64,192,74757,1,0,0:0:0:0:
448,192,74757,1,0,0:0:0:0:
448,192,74867,1,0,0:0:0:0:
320,192,74867,1,0,0:0:0:0:
192,192,74867,1,0,0:0:0:0:
64,192,74867,1,0,0:0:0:0:
320,192,74977,1,0,0:0:0:0:
192,192,74977,1,0,0:0:0:0:
64,192,74977,1,0,0:0:0:0:
192,192,75087,1,0,0:0:0:0:
320,192,75087,1,0,0:0:0:0:
448,192,75087,1,0,0:0:0:0:
448,192,75196,1,0,0:0:0:0:
192,192,75196,1,0,0:0:0:0:
64,192,75196,1,0,0:0:0:0:
64,192,75306,1,0,0:0:0:0:
320,192,75306,1,0,0:0:0:0:
448,192,75306,1,0,0:0:0:0:
192,192,75416,1,0,0:0:0:0:
64,192,75416,1,0,0:0:0:0:
320,192,75416,1,0,0:0:0:0:
320,192,75526,1,0,0:0:0:0:
192,192,75526,1,0,0:0:0:0:
448,192,75526,1,0,0:0:0:0:
64,192,75526,1,0,0:0:0:0:
320,192,75746,1,0,0:0:0:0:
64,192,75746,1,0,0:0:0:0:
448,192,75746,1,0,0:0:0:0:
320,192,75856,1,0,0:0:0:0:
448,192,75856,1,0,0:0:0:0:
192,192,75911,1,0,0:0:0:0:
64,192,75966,1,0,0:0:0:0:
448,192,75966,1,0,0:0:0:0:
320,192,76021,1,0,0:0:0:0:
64,192,76076,1,0,0:0:0:0:
192,192,76076,1,0,0:0:0:0:
320,192,76131,1,0,0:0:0:0:
448,192,76186,1,0,0:0:0:0:
64,192,76186,1,0,0:0:0:0:
192,192,76241,1,0,0:0:0:0:
320,192,76296,1,0,0:0:0:0:
448,192,76296,1,0,0:0:0:0:
64,192,76350,1,0,0:0:0:0:
448,192,76406,1,0,0:0:0:0:
192,192,76406,1,0,0:0:0:0:
320,192,76460,1,0,0:0:0:0:
64,192,76516,1,0,0:0:0:0:
192,192,76516,1,0,0:0:0:0:
448,192,76570,1,0,0:0:0:0:
64,192,76626,1,0,0:0:0:0:
320,192,76626,1,0,0:0:0:0:
192,192,76680,1,0,0:0:0:0:
320,192,76735,1,0,0:0:0:0:
448,192,76735,1,0,0:0:0:0:
192,192,76790,1,0,0:0:0:0:
448,192,76845,1,0,0:0:0:0:
64,192,76845,1,0,0:0:0:0:
320,192,76900,1,0,0:0:0:0:
64,192,76955,1,0,0:0:0:0:
192,192,76955,1,0,0:0:0:0:
320,192,77010,1,0,0:0:0:0:
448,192,77175,1,0,0:0:0:0:
320,192,77203,1,0,0:0:0:0:
64,192,77230,1,0,0:0:0:0:
192,192,77257,1,0,0:0:0:0:
448,192,77285,1,0,0:0:0:0:
320,192,77312,1,0,0:0:0:0:
64,192,77340,1,0,0:0:0:0:
192,192,77367,1,0,0:0:0:0:
448,192,77395,1,0,0:0:0:0:
320,192,77395,1,0,0:0:0:0:
64,192,77504,1,0,0:0:0:0:
192,192,77532,1,0,0:0:0:0:
448,192,77560,1,0,0:0:0:0:
320,192,77587,1,0,0:0:0:0:
64,192,77614,1,0,0:0:0:0:
192,192,77642,1,0,0:0:0:0:
448,192,77670,1,0,0:0:0:0:
320,192,77696,1,0,0:0:0:0:
64,192,77724,1,0,0:0:0:0:
192,192,77724,1,0,0:0:0:0:
448,192,77834,1,0,0:0:0:0:
320,192,77862,1,0,0:0:0:0:
64,192,77889,1,0,0:0:0:0:
192,192,77916,1,0,0:0:0:0:
448,192,77944,1,0,0:0:0:0:
320,192,77972,1,0,0:0:0:0:
64,192,77999,1,0,0:0:0:0:
192,192,78026,1,0,0:0:0:0:
320,192,78054,1,0,0:0:0:0:
448,192,78054,1,0,0:0:0:0:
64,192,78164,1,0,0:0:0:0:
192,192,78191,1,0,0:0:0:0:
448,192,78219,1,0,0:0:0:0:
320,192,78246,1,0,0:0:0:0:
64,192,78273,1,0,0:0:0:0:
192,192,78301,1,0,0:0:0:0:
448,192,78329,1,0,0:0:0:0:
320,192,78356,1,0,0:0:0:0:
192,192,78383,1,0,0:0:0:0:
64,192,78383,1,0,0:0:0:0:
64,192,78493,128,0,78823:0:0:0:0:
320,192,78493,128,0,78823:0:0:0:0:
448,192,78493,128,0,78823:0:0:0:0:
192,192,78493,128,0,78823:0:0:0:0:
